  0
SECTION
  2
HEADER
  9
$ACADVER
  1
AC1024
  9
$ACADMAINTVER
 70
   119
  9
$DWGCODEPAGE
  3
ANSI_1252
  9
$LASTSAVEDBY
  1
mlk
  9
$INSBASE
 10
0.0
 20
0.0
 30
0.0
  9
$EXTMIN
 10
235.9693319106808
 20
120.2077331426825
 30
-0.0624999999999858
  9
$EXTMAX
 10
312.9083519269654
 20
174.8914749125765
 30
0.0000000000000481
  9
$LIMMIN
 10
0.0
 20
0.0
  9
$LIMMAX
 10
12.0
 20
9.0
  9
$ORTHOMODE
 70
     1
  9
$REGENMODE
 70
     1
  9
$FILLMODE
 70
     1
  9
$QTEXTMODE
 70
     0
  9
$MIRRTEXT
 70
     0
  9
$LTSCALE
 40
1.0
  9
$ATTMODE
 70
     1
  9
$TEXTSIZE
 40
0.8
  9
$TRACEWID
 40
0.05
  9
$TEXTSTYLE
  7
CKSTANDARD
  9
$CLAYER
  8
0
  9
$CELTYPE
  6
BYLAYER
  9
$CECOLOR
 62
   256
  9
$CELTSCALE
 40
1.0
  9
$DISPSILH
 70
     0
  9
$DIMSCALE
 40
6.0
  9
$DIMASZ
 40
0.18
  9
$DIMEXO
 40
0.0625
  9
$DIMDLI
 40
0.38
  9
$DIMRND
 40
0.0
  9
$DIMDLE
 40
0.0
  9
$DIMEXE
 40
0.0625
  9
$DIMTP
 40
0.0
  9
$DIMTM
 40
0.0
  9
$DIMTXT
 40
0.18
  9
$DIMCEN
 40
0.09
  9
$DIMTSZ
 40
0.0
  9
$DIMTOL
 70
     0
  9
$DIMLIM
 70
     0
  9
$DIMTIH
 70
     1
  9
$DIMTOH
 70
     1
  9
$DIMSE1
 70
     0
  9
$DIMSE2
 70
     0
  9
$DIMTAD
 70
     0
  9
$DIMZIN
 70
     0
  9
$DIMBLK
  1

  9
$DIMASO
 70
     1
  9
$DIMSHO
 70
     1
  9
$DIMPOST
  1
"
  9
$DIMAPOST
  1

  9
$DIMALT
 70
     0
  9
$DIMALTD
 70
     2
  9
$DIMALTF
 40
25.4
  9
$DIMLFAC
 40
1.0
  9
$DIMTOFL
 70
     0
  9
$DIMTVP
 40
0.0
  9
$DIMTIX
 70
     0
  9
$DIMSOXD
 70
     0
  9
$DIMSAH
 70
     0
  9
$DIMBLK1
  1

  9
$DIMBLK2
  1

  9
$DIMSTYLE
  2
GEO
  9
$DIMCLRD
 70
     0
  9
$DIMCLRE
 70
     0
  9
$DIMCLRT
 70
     0
  9
$DIMTFAC
 40
1.0
  9
$DIMGAP
 40
0.09
  9
$DIMJUST
 70
     0
  9
$DIMSD1
 70
     0
  9
$DIMSD2
 70
     0
  9
$DIMTOLJ
 70
     1
  9
$DIMTZIN
 70
     0
  9
$DIMALTZ
 70
     0
  9
$DIMALTTZ
 70
     0
  9
$DIMUPT
 70
     0
  9
$DIMDEC
 70
     4
  9
$DIMTDEC
 70
     4
  9
$DIMALTU
 70
     2
  9
$DIMALTTD
 70
     2
  9
$DIMTXSTY
  7
ROMANT
  9
$DIMAUNIT
 70
     0
  9
$DIMADEC
 70
     0
  9
$DIMALTRND
 40
0.0
  9
$DIMAZIN
 70
     0
  9
$DIMDSEP
 70
    46
  9
$DIMATFIT
 70
     3
  9
$DIMFRAC
 70
     2
  9
$DIMLDRBLK
  1

  9
$DIMLUNIT
 70
     5
  9
$DIMLWD
 70
    -2
  9
$DIMLWE
 70
    -2
  9
$DIMTMOVE
 70
     0
  9
$DIMFXL
 40
1.0
  9
$DIMFXLON
 70
     0
  9
$DIMJOGANG
 40
0.7853981633974483
  9
$DIMTFILL
 70
     0
  9
$DIMTFILLCLR
 70
     0
  9
$DIMARCSYM
 70
     0
  9
$DIMLTYPE
  6

  9
$DIMLTEX1
  6

  9
$DIMLTEX2
  6

  9
$DIMTXTDIRECTION
 70
     0
  9
$LUNITS
 70
     2
  9
$LUPREC
 70
    10
  9
$SKETCHINC
 40
0.1
  9
$FILLETRAD
 40
0.0
  9
$AUNITS
 70
     0
  9
$AUPREC
 70
     0
  9
$MENU
  1
acad
  9
$ELEVATION
 40
0.0
  9
$PELEVATION
 40
0.0
  9
$THICKNESS
 40
0.0
  9
$LIMCHECK
 70
     0
  9
$CHAMFERA
 40
0.0
  9
$CHAMFERB
 40
0.0
  9
$CHAMFERC
 40
0.0
  9
$CHAMFERD
 40
0.0
  9
$SKPOLY
 70
     0
  9
$TDCREATE
 40
2451813.401902674
  9
$TDUCREATE
 40
2451813.610236007
  9
$TDUPDATE
 40
2456909.305845023
  9
$TDUUPDATE
 40
2456909.514178357
  9
$TDINDWG
 40
0.2250780440
  9
$TDUSRTIMER
 40
0.2250780440
  9
$USRTIMER
 70
     1
  9
$ANGBASE
 50
0.0
  9
$ANGDIR
 70
     0
  9
$PDMODE
 70
     2
  9
$PDSIZE
 40
0.0
  9
$PLINEWID
 40
0.0
  9
$SPLFRAME
 70
     0
  9
$SPLINETYPE
 70
     6
  9
$SPLINESEGS
 70
     8
  9
$HANDSEED
  5
14276
  9
$SURFTAB1
 70
     6
  9
$SURFTAB2
 70
     6
  9
$SURFTYPE
 70
     6
  9
$SURFU
 70
     6
  9
$SURFV
 70
     6
  9
$UCSBASE
  2

  9
$UCSNAME
  2

  9
$UCSORG
 10
0.0
 20
0.0
 30
0.0
  9
$UCSXDIR
 10
1.0
 20
0.0
 30
0.0
  9
$UCSYDIR
 10
0.0
 20
1.0
 30
0.0
  9
$UCSORTHOREF
  2

  9
$UCSORTHOVIEW
 70
     0
  9
$UCSORGTOP
 10
0.0
 20
0.0
 30
0.0
  9
$UCSORGBOTTOM
 10
0.0
 20
0.0
 30
0.0
  9
$UCSORGLEFT
 10
0.0
 20
0.0
 30
0.0
  9
$UCSORGRIGHT
 10
0.0
 20
0.0
 30
0.0
  9
$UCSORGFRONT
 10
0.0
 20
0.0
 30
0.0
  9
$UCSORGBACK
 10
0.0
 20
0.0
 30
0.0
  9
$PUCSBASE
  2

  9
$PUCSNAME
  2

  9
$PUCSORG
 10
0.0
 20
0.0
 30
0.0
  9
$PUCSXDIR
 10
1.0
 20
0.0
 30
0.0
  9
$PUCSYDIR
 10
0.0
 20
1.0
 30
0.0
  9
$PUCSORTHOREF
  2

  9
$PUCSORTHOVIEW
 70
     0
  9
$PUCSORGTOP
 10
0.0
 20
0.0
 30
0.0
  9
$PUCSORGBOTTOM
 10
0.0
 20
0.0
 30
0.0
  9
$PUCSORGLEFT
 10
0.0
 20
0.0
 30
0.0
  9
$PUCSORGRIGHT
 10
0.0
 20
0.0
 30
0.0
  9
$PUCSORGFRONT
 10
0.0
 20
0.0
 30
0.0
  9
$PUCSORGBACK
 10
0.0
 20
0.0
 30
0.0
  9
$USERI1
 70
     0
  9
$USERI2
 70
     0
  9
$USERI3
 70
     0
  9
$USERI4
 70
     0
  9
$USERI5
 70
     0
  9
$USERR1
 40
0.0
  9
$USERR2
 40
0.0
  9
$USERR3
 40
0.0
  9
$USERR4
 40
0.0
  9
$USERR5
 40
0.0
  9
$WORLDVIEW
 70
     1
  9
$SHADEDGE
 70
     3
  9
$SHADEDIF
 70
    70
  9
$TILEMODE
 70
     0
  9
$MAXACTVP
 70
    16
  9
$PINSBASE
 10
0.0
 20
0.0
 30
0.0
  9
$PLIMCHECK
 70
     0
  9
$PEXTMIN
 10
2.734195998098655
 20
0.2336136128719488
 30
-0.0000000000000058
  9
$PEXTMAX
 10
10.76310184785825
 20
10.76403984743893
 30
0.0000000000000104
  9
$PLIMMIN
 10
2.449750060863681
 20
0.0336000087701197
  9
$PLIMMAX
 10
11.04820375501023
 20
11.16101074327718
  9
$UNITMODE
 70
     0
  9
$VISRETAIN
 70
     0
  9
$PLINEGEN
 70
     0
  9
$PSLTSCALE
 70
     0
  9
$TREEDEPTH
 70
  3020
  9
$CMLSTYLE
  2
STANDARD
  9
$CMLJUST
 70
     0
  9
$CMLSCALE
 40
1.0
  9
$PROXYGRAPHICS
 70
     1
  9
$MEASUREMENT
 70
     0
  9
$CELWEIGHT
370
    -1
  9
$ENDCAPS
280
     0
  9
$JOINSTYLE
280
     0
  9
$LWDISPLAY
290
     0
  9
$INSUNITS
 70
     0
  9
$HYPERLINKBASE
  1

  9
$STYLESHEET
  1

  9
$XEDIT
290
     1
  9
$CEPSNTYPE
380
     0
  9
$PSTYLEMODE
290
     1
  9
$FINGERPRINTGUID
  2
{2DD8C38E-0F21-47AA-BB64-B8BDCB5DD752}
  9
$VERSIONGUID
  2
{B91E164B-B4E7-474D-9720-A48AAF1ADD4E}
  9
$EXTNAMES
290
     1
  9
$PSVPSCALE
 40
0.0
  9
$OLESTARTUP
290
     0
  9
$SORTENTS
280
    96
  9
$INDEXCTL
280
     0
  9
$HIDETEXT
280
     0
  9
$XCLIPFRAME
280
     2
  9
$HALOGAP
280
     0
  9
$OBSCOLOR
 70
   257
  9
$OBSLTYPE
280
     0
  9
$INTERSECTIONDISPLAY
280
     0
  9
$INTERSECTIONCOLOR
 70
   257
  9
$DIMASSOC
280
     1
  9
$PROJECTNAME
  1

  9
$CAMERADISPLAY
290
     0
  9
$LENSLENGTH
 40
50.0
  9
$CAMERAHEIGHT
 40
0.0
  9
$STEPSPERSEC
 40
2.0
  9
$STEPSIZE
 40
6.0
  9
$3DDWFPREC
 40
2.0
  9
$PSOLWIDTH
 40
0.25
  9
$PSOLHEIGHT
 40
4.0
  9
$LOFTANG1
 40
1.570796326794896
  9
$LOFTANG2
 40
1.570796326794896
  9
$LOFTMAG1
 40
0.0
  9
$LOFTMAG2
 40
0.0
  9
$LOFTPARAM
 70
     7
  9
$LOFTNORMALS
280
     1
  9
$LATITUDE
 40
37.795
  9
$LONGITUDE
 40
-122.394
  9
$NORTHDIRECTION
 40
0.0
  9
$TIMEZONE
 70
 -8000
  9
$LIGHTGLYPHDISPLAY
280
     1
  9
$TILEMODELIGHTSYNCH
280
     1
  9
$CMATERIAL
347
118FF
  9
$SOLIDHIST
280
     0
  9
$SHOWHIST
280
     1
  9
$DWFFRAME
280
     2
  9
$DGNFRAME
280
     0
  9
$REALWORLDSCALE
290
     1
  9
$INTERFERECOLOR
 62
     1
  9
$INTERFEREOBJVS
345
11921
  9
$INTERFEREVPVS
346
1191E
  9
$CSHADOW
280
     0
  9
$SHADOWPLANELOCATION
 40
0.0
  0
ENDSEC
  0
SECTION
  2
CLASSES
  0
CLASS
  1
DICTIONARYVAR
  2
AcDbDictionaryVar
  3
ObjectDBX Classes
 90
        0
 91
       10
280
     0
281
     0
  0
CLASS
  1
ACDBDICTIONARYWDFLT
  2
AcDbDictionaryWithDefault
  3
ObjectDBX Classes
 90
        0
 91
        1
280
     0
281
     0
  0
CLASS
  1
MATERIAL
  2
AcDbMaterial
  3
ObjectDBX Classes
 90
     1153
 91
        3
280
     0
281
     0
  0
CLASS
  1
VISUALSTYLE
  2
AcDbVisualStyle
  3
ObjectDBX Classes
 90
     4095
 91
       24
280
     0
281
     0
  0
CLASS
  1
TABLESTYLE
  2
AcDbTableStyle
  3
ObjectDBX Classes
 90
     4095
 91
        1
280
     0
281
     0
  0
CLASS
  1
SCALE
  2
AcDbScale
  3
ObjectDBX Classes
 90
     1153
 91
       17
280
     0
281
     0
  0
CLASS
  1
MLEADERSTYLE
  2
AcDbMLeaderStyle
  3
ACDB_MLEADERSTYLE_CLASS
 90
     4095
 91
        1
280
     0
281
     0
  0
CLASS
  1
ACDBSECTIONVIEWSTYLE
  2
AcDbSectionViewStyle
  3
ObjectDBX Classes
 90
     1025
 91
        1
280
     0
281
     0
  0
CLASS
  1
ACDBDETAILVIEWSTYLE
  2
AcDbDetailViewStyle
  3
ObjectDBX Classes
 90
     1025
 91
        1
280
     0
281
     0
  0
CLASS
  1
SORTENTSTABLE
  2
AcDbSortentsTable
  3
ObjectDBX Classes
 90
        0
 91
        3
280
     0
281
     0
  0
CLASS
  1
CELLSTYLEMAP
  2
AcDbCellStyleMap
  3
ObjectDBX Classes
 90
     1152
 91
        1
280
     0
281
     0
  0
ENDSEC
  0
SECTION
  2
TABLES
  0
TABLE
  2
VPORT
  5
8
330
0
100
AcDbSymbolTable
 70
     1
  0
VPORT
  5
118F3
330
8
100
AcDbSymbolTableRecord
100
AcDbViewportTableRecord
  2
*ACTIVE
 70
     0
 10
0.0
 20
0.0
 11
1.0
 21
1.0
 12
274.4333758765157
 22
147.550004957973
 13
0.0
 23
0.0
 14
1.0
 24
1.0
 15
0.0
 25
0.0
 16
0.0
 26
0.0
 36
1.0
 17
0.0
 27
0.0
 37
0.0
 40
55.03652193081585
 41
1.981171548117154
 42
50.0
 43
0.0
 44
0.0
 50
0.0
 51
0.0
 71
     0
 72
 10000
 73
     1
 74
     0
 75
     0
 76
     0
 77
     0
 78
     0
281
     0
 65
     1
110
0.0
120
0.0
130
0.0
111
1.0
121
0.0
131
0.0
112
0.0
122
1.0
132
0.0
 79
     0
146
0.0
348
1191D
 60
     3
 61
     5
292
     1
282
     1
141
0.0
142
0.0
 63
   250
421
  3355443
1001
ACAD_NAV_VCDISPLAY
1070
     3
  0
ENDTAB
  0
TABLE
  2
LTYPE
  5
5
330
0
100
AcDbSymbolTable
 70
     3
  0
LTYPE
  5
12
330
5
100
AcDbSymbolTableRecord
100
AcDbLinetypeTableRecord
  2
BYBLOCK
 70
     0
  3

 72
    65
 73
     0
 40
0.0
  0
LTYPE
  5
13
330
5
100
AcDbSymbolTableRecord
100
AcDbLinetypeTableRecord
  2
BYLAYER
 70
     0
  3

 72
    65
 73
     0
 40
0.0
  0
LTYPE
  5
14
330
5
100
AcDbSymbolTableRecord
100
AcDbLinetypeTableRecord
  2
CONTINUOUS
 70
     0
  3
Solid line
 72
    65
 73
     0
 40
0.0
  0
LTYPE
  5
30
330
5
100
AcDbSymbolTableRecord
100
AcDbLinetypeTableRecord
  2
CENTER
 70
     0
  3
__ __ __ __ __ __ __ __ __ __ __ __ __ __ __ __
 72
    65
 73
     4
 40
2.0
 49
1.25
 74
     0
 49
-0.25
 74
     0
 49
0.25
 74
     0
 49
-0.25
 74
     0
  0
LTYPE
  5
11948
330
5
100
AcDbSymbolTableRecord
100
AcDbLinetypeTableRecord
  2
PHANTOM2
 70
     0
  3
___ _ _ ___ _ _ ___ _ _ ___ _ _
 72
    65
 73
     6
 40
1.25
 49
0.625
 74
     0
 49
-0.125
 74
     0
 49
0.125
 74
     0
 49
-0.125
 74
     0
 49
0.125
 74
     0
 49
-0.125
 74
     0
  0
ENDTAB
  0
TABLE
  2
LAYER
  5
2
102
{ACAD_XDICTIONARY
360
1195D
102
}
330
0
100
AcDbSymbolTable
 70
    12
  0
LAYER
  5
F
102
{ACAD_XDICTIONARY
360
11D3A
102
}
330
2
100
AcDbSymbolTableRecord
100
AcDbLayerTableRecord
  2
0
 70
     0
 62
     7
  6
CONTINUOUS
370
    -3
390
118FD
347
1190F
  0
LAYER
  5
44
102
{ACAD_XDICTIONARY
360
11D3C
102
}
330
2
100
AcDbSymbolTableRecord
100
AcDbLayerTableRecord
  2
CK_LEVEL_1
 70
     0
 62
     1
  6
CONTINUOUS
370
    -3
390
118FD
347
1190F
  0
LAYER
  5
10C
330
2
100
AcDbSymbolTableRecord
100
AcDbLayerTableRecord
  2
DEFPOINTS
 70
     0
 62
     1
  6
CONTINUOUS
290
     0
370
    -3
390
118FD
347
1190F
  0
LAYER
  5
3005
102
{ACAD_XDICTIONARY
360
11D3E
102
}
330
2
100
AcDbSymbolTableRecord
100
AcDbLayerTableRecord
  2
BORDER
 70
     0
 62
     5
  6
CONTINUOUS
370
    -3
390
118FD
347
1190F
  0
LAYER
  5
84E3
102
{ACAD_XDICTIONARY
360
11D40
102
}
330
2
100
AcDbSymbolTableRecord
100
AcDbLayerTableRecord
  2
CAR
 70
     0
 62
   141
  6
CONTINUOUS
370
    -3
390
118FD
347
1190F
  0
LAYER
  5
84E4
102
{ACAD_XDICTIONARY
360
11D42
102
}
330
2
100
AcDbSymbolTableRecord
100
AcDbLayerTableRecord
  2
DIM
 70
     0
 62
     1
  6
CONTINUOUS
370
    -3
390
118FD
347
1190F
  0
LAYER
  5
84E5
102
{ACAD_XDICTIONARY
360
11D44
102
}
330
2
100
AcDbSymbolTableRecord
100
AcDbLayerTableRecord
  2
CEN
 70
     0
 62
     2
  6
CENTER
370
    -3
390
118FD
347
1190F
  0
LAYER
  5
84E6
102
{ACAD_XDICTIONARY
360
11D46
102
}
330
2
100
AcDbSymbolTableRecord
100
AcDbLayerTableRecord
  2
WALL
 70
     0
 62
     3
  6
CONTINUOUS
370
    -3
390
118FD
347
1190F
  0
LAYER
  5
84E7
102
{ACAD_XDICTIONARY
360
11D48
102
}
330
2
100
AcDbSymbolTableRecord
100
AcDbLayerTableRecord
  2
RAIL
 70
     4
 62
     7
  6
CONTINUOUS
370
    -3
390
118FD
347
1190F
  0
LAYER
  5
11D73
330
2
100
AcDbSymbolTableRecord
100
AcDbLayerTableRecord
  2
VPORT
 70
     0
 62
    -7
  6
CONTINUOUS
370
    -3
390
118FD
347
1190F
1001
AcAecLayerStandard
1000

1000

1001
AcCmTransparency
1071
        0
  0
LAYER
  5
12317
330
2
100
AcDbSymbolTableRecord
100
AcDbLayerTableRecord
  2
Drywall
 70
     0
 62
    -7
  6
CONTINUOUS
370
    -3
390
118FD
347
1190F
1001
AcAecLayerStandard
1000

1000

1001
AcCmTransparency
1071
        0
  0
LAYER
  5
12E14
330
2
100
AcDbSymbolTableRecord
100
AcDbLayerTableRecord
  2
EMI
 70
     0
 62
     6
  6
CONTINUOUS
370
    -3
390
118FD
347
1190F
  0
ENDTAB
  0
TABLE
  2
STYLE
  5
3
330
0
100
AcDbSymbolTable
 70
     6
  0
STYLE
  5
10
330
3
100
AcDbSymbolTableRecord
100
AcDbTextStyleTableRecord
  2
STANDARD
 70
     0
 40
1.0
 41
1.0
 50
0.0
 71
     0
 42
0.0
  3
txt
  4

  0
STYLE
  5
2E
330
3
100
AcDbSymbolTableRecord
100
AcDbTextStyleTableRecord
  2
CKSTANDARD
 70
     0
 40
0.0
 41
1.0
 50
0.0
 71
     0
 42
0.8
  3
txt
  4

  0
STYLE
  5
B02
330
3
100
AcDbSymbolTableRecord
100
AcDbTextStyleTableRecord
  2
ROMANT
 70
     0
 40
0.0
 41
1.0
 50
0.0
 71
     0
 42
1.75
  3
ROMANT.shx
  4

  0
STYLE
  5
B03
330
3
100
AcDbSymbolTableRecord
100
AcDbTextStyleTableRecord
  2
ROMANS
 70
     0
 40
0.0
 41
1.0
 50
0.0
 71
     0
 42
0.1
  3
romans
  4

  0
STYLE
  5
D34F
330
3
100
AcDbSymbolTableRecord
100
AcDbTextStyleTableRecord
  2
STYLE1
 70
     0
 40
0.0
 41
1.0
 50
0.0
 71
     0
 42
0.4355386795769612
  3
arialbd.ttf
  4

1001
ACAD
1000
Arial CE
1071
 33615394
  0
ENDTAB
  0
TABLE
  2
VIEW
  5
6
330
0
100
AcDbSymbolTable
 70
     0
  0
ENDTAB
  0
TABLE
  2
UCS
  5
7
330
0
100
AcDbSymbolTable
 70
     1
  0
UCS
  5
32
330
7
100
AcDbSymbolTableRecord
100
AcDbUCSTableRecord
  2
CK_VIEW_1
 70
     0
 10
0.0
 20
0.0
 30
0.0
 11
1.0
 21
0.0
 31
0.0
 12
0.0
 22
1.0
 32
0.0
 79
     0
146
0.0
  0
ENDTAB
  0
TABLE
  2
APPID
  5
9
330
0
100
AcDbSymbolTable
 70
    10
  0
APPID
  5
11
330
9
100
AcDbSymbolTableRecord
100
AcDbRegAppTableRecord
  2
ACAD
 70
     0
  0
APPID
  5
11958
330
9
100
AcDbSymbolTableRecord
100
AcDbRegAppTableRecord
  2
ACAD_PSEXT
 70
     0
  0
APPID
  5
11959
330
9
100
AcDbSymbolTableRecord
100
AcDbRegAppTableRecord
  2
ACAD_NAV_VCDISPLAY
 70
     0
  0
APPID
  5
1196B
330
9
100
AcDbSymbolTableRecord
100
AcDbRegAppTableRecord
  2
AcadAnnoMonitorAlertIconDisabled
 70
     0
  0
APPID
  5
1196C
330
9
100
AcDbSymbolTableRecord
100
AcDbRegAppTableRecord
  2
ACAD_EXEMPT_FROM_CAD_STANDARDS
 70
     0
  0
APPID
  5
11D74
330
9
100
AcDbSymbolTableRecord
100
AcDbRegAppTableRecord
  2
AcAecLayerStandard
 70
     0
  0
APPID
  5
11D75
330
9
100
AcDbSymbolTableRecord
100
AcDbRegAppTableRecord
  2
AcCmTransparency
 70
     0
  0
APPID
  5
12494
330
9
100
AcDbSymbolTableRecord
100
AcDbRegAppTableRecord
  2
GradientColor1ACI
 70
     0
  0
APPID
  5
12495
330
9
100
AcDbSymbolTableRecord
100
AcDbRegAppTableRecord
  2
GradientColor2ACI
 70
     0
  0
APPID
  5
14275
330
9
100
AcDbSymbolTableRecord
100
AcDbRegAppTableRecord
  2
ACAD_OBJECT_CHANGE_GUID
 70
     0
  0
ENDTAB
  0
TABLE
  2
DIMSTYLE
  5
A
330
0
100
AcDbSymbolTable
 70
     3
100
AcDbDimStyleTable
 71
     2
340
B04
340
84EB
  0
DIMSTYLE
105
B04
330
A
100
AcDbSymbolTableRecord
100
AcDbDimStyleTableRecord
  2
GEO
 70
     0
  3
"
 41
1.125
 42
0.75
 44
0.625
 47
0.0099999998
 48
-0.0099999998
140
1.5
147
0.5
178
     6
276
     2
277
     5
340
10
  0
DIMSTYLE
105
84EB
102
{ACAD_REACTORS
330
86B1
330
86B0
330
86AF
330
86AD
330
C322
330
86B2
330
1335E
330
13749
330
13834
330
13860
330
86B3
330
13A5C
330
138B8
102
}
330
A
100
AcDbSymbolTableRecord
100
AcDbDimStyleTableRecord
  2
STANDARD
 70
     0
340
10
  0
ENDTAB
  0
TABLE
  2
BLOCK_RECORD
  5
1
330
0
100
AcDbSymbolTable
 70
    90
  0
BLOCK_RECORD
  5
18
102
{ACAD_XDICTIONARY
360
121B0
102
}
330
1
100
AcDbSymbolTableRecord
100
AcDbBlockTableRecord
  2
*MODEL_SPACE
340
1194E
 70
     0
280
     1
281
     0
  0
BLOCK_RECORD
  5
15
102
{ACAD_XDICTIONARY
360
12E0D
102
}
330
1
100
AcDbSymbolTableRecord
100
AcDbBlockTableRecord
  2
*PAPER_SPACE
340
1194F
 70
     0
280
     1
281
     0
  0
BLOCK_RECORD
  5
27
330
1
100
AcDbSymbolTableRecord
100
AcDbBlockTableRecord
  2
GENDIM11
340
0
102
{BLKREFS
331
259
331
752D
331
A60E
331
A66C
331
A6AB
331
A6D7
102
}
 70
     0
280
     1
281
     0
  0
BLOCK_RECORD
  5
2B
330
1
100
AcDbSymbolTableRecord
100
AcDbBlockTableRecord
  2
*X1
340
0
102
{BLKREFS
331
2AF
102
}
 70
     0
280
     1
281
     0
  0
BLOCK_RECORD
  5
562
330
1
100
AcDbSymbolTableRecord
100
AcDbBlockTableRecord
  2
GENARR10
340
0
102
{BLKREFS
331
BE52
331
BE58
331
BE5A
331
BE61
331
D282
331
D289
331
D28F
331
D2A5
331
D2AC
331
F18
331
7551
331
A610
331
A672
331
A6AD
331
A6D9
331
B9C3
331
BE4B
102
}
 70
     0
280
     1
281
     0
  0
BLOCK_RECORD
  5
565
330
1
100
AcDbSymbolTableRecord
100
AcDbBlockTableRecord
  2
*X3
340
0
102
{BLKREFS
331
F1B
102
}
 70
     0
280
     1
281
     0
  0
BLOCK_RECORD
  5
58F
330
1
100
AcDbSymbolTableRecord
100
AcDbBlockTableRecord
  2
GENARR12
340
0
102
{BLKREFS
331
BE54
331
BE5C
331
BE63
331
D284
331
D28B
331
D2A7
331
D2AE
331
F21
331
7556
331
A612
331
A677
331
A6AF
331
A6DB
331
B9C5
331
BE4D
102
}
 70
     0
280
     1
281
     0
  0
BLOCK_RECORD
  5
592
330
1
100
AcDbSymbolTableRecord
100
AcDbBlockTableRecord
  2
*X5
340
0
102
{BLKREFS
331
F22
102
}
 70
     0
280
     1
281
     0
  0
BLOCK_RECORD
  5
595
330
1
100
AcDbSymbolTableRecord
100
AcDbBlockTableRecord
  2
*X6
340
0
102
{BLKREFS
331
F23
102
}
 70
     0
280
     1
281
     0
  0
BLOCK_RECORD
  5
3B5F
330
1
100
AcDbSymbolTableRecord
100
AcDbBlockTableRecord
  2
GENARR11
340
0
102
{BLKREFS
331
43A2
331
528F
331
5FB3
331
675A
331
A65D
331
A660
331
A663
331
A669
331
A6B3
331
A6B6
331
A6B9
331
A6BC
102
}
 70
     0
280
     1
281
     0
  0
BLOCK_RECORD
  5
3B6E
330
1
100
AcDbSymbolTableRecord
100
AcDbBlockTableRecord
  2
*X8
340
0
102
{BLKREFS
331
43B0
102
}
 70
     0
280
     1
281
     0
  0
BLOCK_RECORD
  5
3B71
330
1
100
AcDbSymbolTableRecord
100
AcDbBlockTableRecord
  2
GENDIM17
340
0
102
{BLKREFS
331
43B1
331
529E
331
5FC2
331
6769
331
A65F
331
A662
331
A665
331
A66B
331
A6B5
331
A6B8
331
A6BB
331
A6BE
102
}
 70
     0
280
     1
281
     0
  0
BLOCK_RECORD
  5
48B0
330
1
100
AcDbSymbolTableRecord
100
AcDbBlockTableRecord
  2
*X10
340
0
102
{BLKREFS
331
529D
102
}
 70
     0
280
     1
281
     0
  0
BLOCK_RECORD
  5
5786
330
1
100
AcDbSymbolTableRecord
100
AcDbBlockTableRecord
  2
*X11
340
0
102
{BLKREFS
331
5FC1
331
6768
102
}
 70
     0
280
     1
281
     0
  0
BLOCK_RECORD
  5
6EA7
330
1
100
AcDbSymbolTableRecord
100
AcDbBlockTableRecord
  2
*X12
340
0
102
{BLKREFS
331
7537
102
}
 70
     0
280
     1
281
     0
  0
BLOCK_RECORD
  5
6EB0
330
1
100
AcDbSymbolTableRecord
100
AcDbBlockTableRecord
  2
*X13
340
0
102
{BLKREFS
331
7552
102
}
 70
     0
280
     1
281
     0
  0
BLOCK_RECORD
  5
6EB3
330
1
100
AcDbSymbolTableRecord
100
AcDbBlockTableRecord
  2
*X14
340
0
102
{BLKREFS
331
7557
102
}
 70
     0
280
     1
281
     0
  0
BLOCK_RECORD
  5
6EB6
330
1
100
AcDbSymbolTableRecord
100
AcDbBlockTableRecord
  2
*X15
340
0
102
{BLKREFS
331
7558
102
}
 70
     0
280
     1
281
     0
  0
BLOCK_RECORD
  5
8715
330
1
100
AcDbSymbolTableRecord
100
AcDbBlockTableRecord
  2
*D16
340
0
 70
     0
280
     1
281
     0
  0
BLOCK_RECORD
  5
872F
330
1
100
AcDbSymbolTableRecord
100
AcDbBlockTableRecord
  2
*D17
340
0
 70
     0
280
     1
281
     0
  0
BLOCK_RECORD
  5
873C
330
1
100
AcDbSymbolTableRecord
100
AcDbBlockTableRecord
  2
*D18
340
0
 70
     0
280
     1
281
     0
  0
BLOCK_RECORD
  5
8749
330
1
100
AcDbSymbolTableRecord
100
AcDbBlockTableRecord
  2
*D19
340
0
 70
     0
280
     1
281
     0
  0
BLOCK_RECORD
  5
8756
330
1
100
AcDbSymbolTableRecord
100
AcDbBlockTableRecord
  2
*D20
340
0
 70
     0
280
     1
281
     0
  0
BLOCK_RECORD
  5
8763
330
1
100
AcDbSymbolTableRecord
100
AcDbBlockTableRecord
  2
*D21
340
0
 70
     0
280
     1
281
     0
  0
BLOCK_RECORD
  5
A2B7
330
1
100
AcDbSymbolTableRecord
100
AcDbBlockTableRecord
  2
*X22
340
0
102
{BLKREFS
331
A60F
102
}
 70
     0
280
     1
281
     0
  0
BLOCK_RECORD
  5
A2BA
330
1
100
AcDbSymbolTableRecord
100
AcDbBlockTableRecord
  2
*X23
340
0
102
{BLKREFS
331
A611
102
}
 70
     0
280
     1
281
     0
  0
BLOCK_RECORD
  5
A2BD
330
1
100
AcDbSymbolTableRecord
100
AcDbBlockTableRecord
  2
*X24
340
0
102
{BLKREFS
331
A613
102
}
 70
     0
280
     1
281
     0
  0
BLOCK_RECORD
  5
A2C0
330
1
100
AcDbSymbolTableRecord
100
AcDbBlockTableRecord
  2
*X25
340
0
102
{BLKREFS
331
A614
102
}
 70
     0
280
     1
281
     0
  0
BLOCK_RECORD
  5
A3B7
330
1
100
AcDbSymbolTableRecord
100
AcDbBlockTableRecord
  2
*X26
340
0
102
{BLKREFS
331
A65E
102
}
 70
     0
280
     1
281
     0
  0
BLOCK_RECORD
  5
A3BA
330
1
100
AcDbSymbolTableRecord
100
AcDbBlockTableRecord
  2
*X27
340
0
102
{BLKREFS
331
A661
102
}
 70
     0
280
     1
281
     0
  0
BLOCK_RECORD
  5
A3BD
330
1
100
AcDbSymbolTableRecord
100
AcDbBlockTableRecord
  2
*X28
340
0
102
{BLKREFS
331
A664
331
A66A
102
}
 70
     0
280
     1
281
     0
  0
BLOCK_RECORD
  5
A3C0
330
1
100
AcDbSymbolTableRecord
100
AcDbBlockTableRecord
  2
*X29
340
0
102
{BLKREFS
331
A66D
102
}
 70
     0
280
     1
281
     0
  0
BLOCK_RECORD
  5
A3C3
330
1
100
AcDbSymbolTableRecord
100
AcDbBlockTableRecord
  2
*X30
340
0
102
{BLKREFS
331
A673
102
}
 70
     0
280
     1
281
     0
  0
BLOCK_RECORD
  5
A3C6
330
1
100
AcDbSymbolTableRecord
100
AcDbBlockTableRecord
  2
*X31
340
0
102
{BLKREFS
331
A678
102
}
 70
     0
280
     1
281
     0
  0
BLOCK_RECORD
  5
A3C9
330
1
100
AcDbSymbolTableRecord
100
AcDbBlockTableRecord
  2
*X32
340
0
102
{BLKREFS
331
A679
102
}
 70
     0
280
     1
281
     0
  0
BLOCK_RECORD
  5
A483
330
1
100
AcDbSymbolTableRecord
100
AcDbBlockTableRecord
  2
*X33
340
0
102
{BLKREFS
331
A6AC
102
}
 70
     0
280
     1
281
     0
  0
BLOCK_RECORD
  5
A486
330
1
100
AcDbSymbolTableRecord
100
AcDbBlockTableRecord
  2
*X34
340
0
102
{BLKREFS
331
A6AE
102
}
 70
     0
280
     1
281
     0
  0
BLOCK_RECORD
  5
A489
330
1
100
AcDbSymbolTableRecord
100
AcDbBlockTableRecord
  2
*X35
340
0
102
{BLKREFS
331
A6B0
102
}
 70
     0
280
     1
281
     0
  0
BLOCK_RECORD
  5
A48C
330
1
100
AcDbSymbolTableRecord
100
AcDbBlockTableRecord
  2
*X36
340
0
102
{BLKREFS
331
A6B1
102
}
 70
     0
280
     1
281
     0
  0
BLOCK_RECORD
  5
A48F
330
1
100
AcDbSymbolTableRecord
100
AcDbBlockTableRecord
  2
*X37
340
0
102
{BLKREFS
331
A6B4
102
}
 70
     0
280
     1
281
     0
  0
BLOCK_RECORD
  5
A492
330
1
100
AcDbSymbolTableRecord
100
AcDbBlockTableRecord
  2
*X38
340
0
102
{BLKREFS
331
A6B7
102
}
 70
     0
280
     1
281
     0
  0
BLOCK_RECORD
  5
A495
330
1
100
AcDbSymbolTableRecord
100
AcDbBlockTableRecord
  2
*X39
340
0
102
{BLKREFS
331
A6BA
331
A6BD
102
}
 70
     0
280
     1
281
     0
  0
BLOCK_RECORD
  5
A498
330
1
100
AcDbSymbolTableRecord
100
AcDbBlockTableRecord
  2
*X40
340
0
102
{BLKREFS
331
A6D8
102
}
 70
     0
280
     1
281
     0
  0
BLOCK_RECORD
  5
A49B
330
1
100
AcDbSymbolTableRecord
100
AcDbBlockTableRecord
  2
*X41
340
0
102
{BLKREFS
331
A6DA
102
}
 70
     0
280
     1
281
     0
  0
BLOCK_RECORD
  5
A49E
330
1
100
AcDbSymbolTableRecord
100
AcDbBlockTableRecord
  2
*X42
340
0
102
{BLKREFS
331
A6DC
102
}
 70
     0
280
     1
281
     0
  0
BLOCK_RECORD
  5
A4A1
330
1
100
AcDbSymbolTableRecord
100
AcDbBlockTableRecord
  2
*X43
340
0
102
{BLKREFS
331
A6DD
102
}
 70
     0
280
     1
281
     0
  0
BLOCK_RECORD
  5
B84A
330
1
100
AcDbSymbolTableRecord
100
AcDbBlockTableRecord
  2
*X44
340
0
102
{BLKREFS
331
B9C0
102
}
 70
     0
280
     1
281
     0
  0
BLOCK_RECORD
  5
B853
330
1
100
AcDbSymbolTableRecord
100
AcDbBlockTableRecord
  2
*X45
340
0
102
{BLKREFS
331
B9C4
102
}
 70
     0
280
     1
281
     0
  0
BLOCK_RECORD
  5
B856
330
1
100
AcDbSymbolTableRecord
100
AcDbBlockTableRecord
  2
*X46
340
0
102
{BLKREFS
331
B9C6
102
}
 70
     0
280
     1
281
     0
  0
BLOCK_RECORD
  5
B859
330
1
100
AcDbSymbolTableRecord
100
AcDbBlockTableRecord
  2
*X47
340
0
102
{BLKREFS
331
B9C7
102
}
 70
     0
280
     1
281
     0
  0
BLOCK_RECORD
  5
BC01
330
1
100
AcDbSymbolTableRecord
100
AcDbBlockTableRecord
  2
*X48
340
0
102
{BLKREFS
331
BE4A
102
}
 70
     0
280
     1
281
     0
  0
BLOCK_RECORD
  5
BC04
330
1
100
AcDbSymbolTableRecord
100
AcDbBlockTableRecord
  2
*X49
340
0
102
{BLKREFS
331
BE4C
102
}
 70
     0
280
     1
281
     0
  0
BLOCK_RECORD
  5
BC07
330
1
100
AcDbSymbolTableRecord
100
AcDbBlockTableRecord
  2
*X50
340
0
102
{BLKREFS
331
BE4E
102
}
 70
     0
280
     1
281
     0
  0
BLOCK_RECORD
  5
BC0A
330
1
100
AcDbSymbolTableRecord
100
AcDbBlockTableRecord
  2
*X51
340
0
102
{BLKREFS
331
BE4F
102
}
 70
     0
280
     1
281
     0
  0
BLOCK_RECORD
  5
BD6D
330
1
100
AcDbSymbolTableRecord
100
AcDbBlockTableRecord
  2
*X52
340
0
102
{BLKREFS
331
BE51
102
}
 70
     0
280
     1
281
     0
  0
BLOCK_RECORD
  5
BD70
330
1
100
AcDbSymbolTableRecord
100
AcDbBlockTableRecord
  2
*X53
340
0
102
{BLKREFS
331
BE53
102
}
 70
     0
280
     1
281
     0
  0
BLOCK_RECORD
  5
BD73
330
1
100
AcDbSymbolTableRecord
100
AcDbBlockTableRecord
  2
*X54
340
0
102
{BLKREFS
331
BE55
102
}
 70
     0
280
     1
281
     0
  0
BLOCK_RECORD
  5
BD76
330
1
100
AcDbSymbolTableRecord
100
AcDbBlockTableRecord
  2
*X55
340
0
102
{BLKREFS
331
BE56
102
}
 70
     0
280
     1
281
     0
  0
BLOCK_RECORD
  5
BD79
330
1
100
AcDbSymbolTableRecord
100
AcDbBlockTableRecord
  2
*X56
340
0
102
{BLKREFS
331
BE59
102
}
 70
     0
280
     1
281
     0
  0
BLOCK_RECORD
  5
BD7C
330
1
100
AcDbSymbolTableRecord
100
AcDbBlockTableRecord
  2
*X57
340
0
102
{BLKREFS
331
BE5B
102
}
 70
     0
280
     1
281
     0
  0
BLOCK_RECORD
  5
BD7F
330
1
100
AcDbSymbolTableRecord
100
AcDbBlockTableRecord
  2
*X58
340
0
102
{BLKREFS
331
BE5D
102
}
 70
     0
280
     1
281
     0
  0
BLOCK_RECORD
  5
BD82
330
1
100
AcDbSymbolTableRecord
100
AcDbBlockTableRecord
  2
*X59
340
0
102
{BLKREFS
331
BE5E
102
}
 70
     0
280
     1
281
     0
  0
BLOCK_RECORD
  5
BD85
330
1
100
AcDbSymbolTableRecord
100
AcDbBlockTableRecord
  2
*X60
340
0
102
{BLKREFS
331
BE60
102
}
 70
     0
280
     1
281
     0
  0
BLOCK_RECORD
  5
BD88
330
1
100
AcDbSymbolTableRecord
100
AcDbBlockTableRecord
  2
*X61
340
0
102
{BLKREFS
331
BE62
102
}
 70
     0
280
     1
281
     0
  0
BLOCK_RECORD
  5
BD8B
330
1
100
AcDbSymbolTableRecord
100
AcDbBlockTableRecord
  2
*X62
340
0
102
{BLKREFS
331
BE64
102
}
 70
     0
280
     1
281
     0
  0
BLOCK_RECORD
  5
BD8E
330
1
100
AcDbSymbolTableRecord
100
AcDbBlockTableRecord
  2
*X63
340
0
102
{BLKREFS
331
BE65
102
}
 70
     0
280
     1
281
     0
  0
BLOCK_RECORD
  5
BD91
330
1
100
AcDbSymbolTableRecord
100
AcDbBlockTableRecord
  2
*X64
340
0
102
{BLKREFS
331
D281
102
}
 70
     0
280
     1
281
     0
  0
BLOCK_RECORD
  5
BD94
330
1
100
AcDbSymbolTableRecord
100
AcDbBlockTableRecord
  2
*X65
340
0
102
{BLKREFS
331
D283
102
}
 70
     0
280
     1
281
     0
  0
BLOCK_RECORD
  5
BD97
330
1
100
AcDbSymbolTableRecord
100
AcDbBlockTableRecord
  2
*X66
340
0
102
{BLKREFS
331
D285
102
}
 70
     0
280
     1
281
     0
  0
BLOCK_RECORD
  5
BD9A
330
1
100
AcDbSymbolTableRecord
100
AcDbBlockTableRecord
  2
*X67
340
0
102
{BLKREFS
331
D286
102
}
 70
     0
280
     1
281
     0
  0
BLOCK_RECORD
  5
BD9D
330
1
100
AcDbSymbolTableRecord
100
AcDbBlockTableRecord
  2
*X68
340
0
102
{BLKREFS
331
D288
102
}
 70
     0
280
     1
281
     0
  0
BLOCK_RECORD
  5
BDA0
330
1
100
AcDbSymbolTableRecord
100
AcDbBlockTableRecord
  2
*X69
340
0
102
{BLKREFS
331
D28A
102
}
 70
     0
280
     1
281
     0
  0
BLOCK_RECORD
  5
BDA3
330
1
100
AcDbSymbolTableRecord
100
AcDbBlockTableRecord
  2
*X70
340
0
102
{BLKREFS
331
D28C
102
}
 70
     0
280
     1
281
     0
  0
BLOCK_RECORD
  5
BDA6
330
1
100
AcDbSymbolTableRecord
100
AcDbBlockTableRecord
  2
*X71
340
0
102
{BLKREFS
331
D28D
102
}
 70
     0
280
     1
281
     0
  0
BLOCK_RECORD
  5
BDA9
330
1
100
AcDbSymbolTableRecord
100
AcDbBlockTableRecord
  2
*X72
340
0
102
{BLKREFS
331
D2A4
102
}
 70
     0
280
     1
281
     0
  0
BLOCK_RECORD
  5
BDAC
330
1
100
AcDbSymbolTableRecord
100
AcDbBlockTableRecord
  2
*X73
340
0
102
{BLKREFS
331
D2A6
102
}
 70
     0
280
     1
281
     0
  0
BLOCK_RECORD
  5
BDAF
330
1
100
AcDbSymbolTableRecord
100
AcDbBlockTableRecord
  2
*X74
340
0
102
{BLKREFS
331
D2A8
102
}
 70
     0
280
     1
281
     0
  0
BLOCK_RECORD
  5
BDB2
330
1
100
AcDbSymbolTableRecord
100
AcDbBlockTableRecord
  2
*X75
340
0
102
{BLKREFS
331
D2A9
102
}
 70
     0
280
     1
281
     0
  0
BLOCK_RECORD
  5
BDB5
330
1
100
AcDbSymbolTableRecord
100
AcDbBlockTableRecord
  2
*X76
340
0
102
{BLKREFS
331
D2AB
102
}
 70
     0
280
     1
281
     0
  0
BLOCK_RECORD
  5
BDB8
330
1
100
AcDbSymbolTableRecord
100
AcDbBlockTableRecord
  2
*X77
340
0
102
{BLKREFS
331
D2AD
102
}
 70
     0
280
     1
281
     0
  0
BLOCK_RECORD
  5
BDBB
330
1
100
AcDbSymbolTableRecord
100
AcDbBlockTableRecord
  2
*X78
340
0
102
{BLKREFS
331
D2AF
102
}
 70
     0
280
     1
281
     0
  0
BLOCK_RECORD
  5
BDBE
330
1
100
AcDbSymbolTableRecord
100
AcDbBlockTableRecord
  2
*X79
340
0
102
{BLKREFS
331
D2B0
102
}
 70
     0
280
     1
281
     0
  0
BLOCK_RECORD
  5
C315
330
1
100
AcDbSymbolTableRecord
100
AcDbBlockTableRecord
  2
*D80
340
0
 70
     0
280
     1
281
     0
  0
BLOCK_RECORD
  5
D2BC
330
1
100
AcDbSymbolTableRecord
100
AcDbBlockTableRecord
  2
A$C5E6C7229
340
0
102
{BLKREFS
331
D326
102
}
 70
     0
280
     1
281
     0
  0
BLOCK_RECORD
  5
D31B
330
1
100
AcDbSymbolTableRecord
100
AcDbBlockTableRecord
  2
A$C45FA2CBB
340
0
102
{BLKREFS
331
D362
102
}
 70
     0
280
     1
281
     0
  0
BLOCK_RECORD
  5
1335F
330
1
100
AcDbSymbolTableRecord
100
AcDbBlockTableRecord
  2
*D83
340
0
 70
     0
280
     1
281
     0
  0
BLOCK_RECORD
  5
1374A
330
1
100
AcDbSymbolTableRecord
100
AcDbBlockTableRecord
  2
*D84
340
0
 70
     0
280
     1
281
     0
  0
BLOCK_RECORD
  5
13835
330
1
100
AcDbSymbolTableRecord
100
AcDbBlockTableRecord
  2
*D85
340
0
 70
     0
280
     1
281
     0
  0
BLOCK_RECORD
  5
13861
330
1
100
AcDbSymbolTableRecord
100
AcDbBlockTableRecord
  2
*D86
340
0
 70
     0
280
     1
281
     0
  0
BLOCK_RECORD
  5
138B9
330
1
100
AcDbSymbolTableRecord
100
AcDbBlockTableRecord
  2
*D87
340
0
 70
     0
280
     1
281
     0
  0
BLOCK_RECORD
  5
13A5E
330
1
100
AcDbSymbolTableRecord
100
AcDbBlockTableRecord
  2
*D88
340
0
 70
     0
280
     1
281
     0
  0
ENDTAB
  0
ENDSEC
  0
SECTION
  2
BLOCKS
  0
BLOCK
  5
10F
330
18
100
AcDbEntity
  8
0
 62
     6
100
AcDbBlockBegin
  2
*MODEL_SPACE
 70
     0
 10
0.0
 20
0.0
 30
0.0
  3
*MODEL_SPACE
  1

  0
ENDBLK
  5
110
330
18
100
AcDbEntity
  8
0
 62
     6
100
AcDbBlockEnd
  0
BLOCK
  5
10D
330
15
100
AcDbEntity
 67
     1
  8
0
 62
     6
100
AcDbBlockBegin
  2
*PAPER_SPACE
 70
     0
 10
0.0
 20
0.0
 30
0.0
  3
*PAPER_SPACE
  1

  0
ENDBLK
  5
10E
330
15
100
AcDbEntity
 67
     1
  8
0
 62
     6
100
AcDbBlockEnd
  0
BLOCK
  5
127
330
27
100
AcDbEntity
  8
0
100
AcDbBlockBegin
  2
GENDIM11
 70
     0
 10
0.0
 20
0.0
 30
0.0
  3
GENDIM11
  1

  0
ENDBLK
  5
128
330
27
100
AcDbEntity
  8
0
100
AcDbBlockEnd
  0
BLOCK
  5
12F
330
2B
100
AcDbEntity
  8
0
100
AcDbBlockBegin
  2
*X1
 70
     1
 10
0.0
 20
0.0
 30
0.0
  3
*X1
  1

  0
ENDBLK
  5
130
330
2B
100
AcDbEntity
  8
0
100
AcDbBlockEnd
  0
BLOCK
  5
563
330
562
100
AcDbEntity
  8
0
100
AcDbBlockBegin
  2
GENARR10
 70
     0
 10
0.0
 20
0.0
 30
0.0
  3
GENARR10
  1

  0
ENDBLK
  5
564
330
562
100
AcDbEntity
  8
0
100
AcDbBlockEnd
  0
BLOCK
  5
566
330
565
100
AcDbEntity
  8
0
100
AcDbBlockBegin
  2
*X3
 70
     1
 10
0.0
 20
0.0
 30
0.0
  3
*X3
  1

  0
ENDBLK
  5
567
330
565
100
AcDbEntity
  8
0
100
AcDbBlockEnd
  0
BLOCK
  5
590
330
58F
100
AcDbEntity
  8
0
100
AcDbBlockBegin
  2
GENARR12
 70
     0
 10
0.0
 20
0.0
 30
0.0
  3
GENARR12
  1

  0
ENDBLK
  5
591
330
58F
100
AcDbEntity
  8
0
100
AcDbBlockEnd
  0
BLOCK
  5
593
330
592
100
AcDbEntity
  8
0
100
AcDbBlockBegin
  2
*X5
 70
     1
 10
0.0
 20
0.0
 30
0.0
  3
*X5
  1

  0
ENDBLK
  5
594
330
592
100
AcDbEntity
  8
0
100
AcDbBlockEnd
  0
BLOCK
  5
596
330
595
100
AcDbEntity
  8
0
100
AcDbBlockBegin
  2
*X6
 70
     1
 10
0.0
 20
0.0
 30
0.0
  3
*X6
  1

  0
ENDBLK
  5
597
330
595
100
AcDbEntity
  8
0
100
AcDbBlockEnd
  0
BLOCK
  5
3B60
330
3B5F
100
AcDbEntity
  8
0
100
AcDbBlockBegin
  2
GENARR11
 70
     0
 10
0.0
 20
0.0
 30
0.0
  3
GENARR11
  1

  0
ENDBLK
  5
3B61
330
3B5F
100
AcDbEntity
  8
0
100
AcDbBlockEnd
  0
BLOCK
  5
3B6F
330
3B6E
100
AcDbEntity
  8
0
100
AcDbBlockBegin
  2
*X8
 70
     1
 10
0.0
 20
0.0
 30
0.0
  3
*X8
  1

  0
ENDBLK
  5
3B70
330
3B6E
100
AcDbEntity
  8
0
100
AcDbBlockEnd
  0
BLOCK
  5
3B72
330
3B71
100
AcDbEntity
  8
0
100
AcDbBlockBegin
  2
GENDIM17
 70
     0
 10
0.0
 20
0.0
 30
0.0
  3
GENDIM17
  1

  0
ENDBLK
  5
3B73
330
3B71
100
AcDbEntity
  8
0
100
AcDbBlockEnd
  0
BLOCK
  5
48B1
330
48B0
100
AcDbEntity
  8
0
100
AcDbBlockBegin
  2
*X10
 70
     1
 10
0.0
 20
0.0
 30
0.0
  3
*X10
  1

  0
ENDBLK
  5
48B2
330
48B0
100
AcDbEntity
  8
0
100
AcDbBlockEnd
  0
BLOCK
  5
5787
330
5786
100
AcDbEntity
  8
0
100
AcDbBlockBegin
  2
*X11
 70
     1
 10
0.0
 20
0.0
 30
0.0
  3
*X11
  1

  0
ENDBLK
  5
5788
330
5786
100
AcDbEntity
  8
0
100
AcDbBlockEnd
  0
BLOCK
  5
6EA8
330
6EA7
100
AcDbEntity
  8
0
100
AcDbBlockBegin
  2
*X12
 70
     1
 10
0.0
 20
0.0
 30
0.0
  3
*X12
  1

  0
ENDBLK
  5
6EA9
330
6EA7
100
AcDbEntity
  8
0
100
AcDbBlockEnd
  0
BLOCK
  5
6EB1
330
6EB0
100
AcDbEntity
  8
0
100
AcDbBlockBegin
  2
*X13
 70
     1
 10
0.0
 20
0.0
 30
0.0
  3
*X13
  1

  0
ENDBLK
  5
6EB2
330
6EB0
100
AcDbEntity
  8
0
100
AcDbBlockEnd
  0
BLOCK
  5
6EB4
330
6EB3
100
AcDbEntity
  8
0
100
AcDbBlockBegin
  2
*X14
 70
     1
 10
0.0
 20
0.0
 30
0.0
  3
*X14
  1

  0
ENDBLK
  5
6EB5
330
6EB3
100
AcDbEntity
  8
0
100
AcDbBlockEnd
  0
BLOCK
  5
6EB7
330
6EB6
100
AcDbEntity
  8
0
100
AcDbBlockBegin
  2
*X15
 70
     1
 10
0.0
 20
0.0
 30
0.0
  3
*X15
  1

  0
ENDBLK
  5
6EB8
330
6EB6
100
AcDbEntity
  8
0
100
AcDbBlockEnd
  0
BLOCK
  5
C33B
330
8715
100
AcDbEntity
  8
0
100
AcDbBlockBegin
  2
*D16
 70
     1
 10
0.0
 20
0.0
 30
0.0
  3
*D16
  1

  0
LINE
  5
14149
330
8715
100
AcDbEntity
  8
DIM
 62
     0
440
 16777216
370
    -2
100
AcDbLine
 10
266.0945168902332
 20
151.2760614390876
 30
0.0
 11
266.0945168902332
 21
171.3078706180979
 31
0.0
  0
LINE
  5
1414A
330
8715
100
AcDbEntity
  8
DIM
 62
     0
440
 16777216
370
    -2
100
AcDbLine
 10
291.0945168902332
 20
151.2760614390876
 30
0.0
 11
291.0945168902332
 21
171.3078706180979
 31
0.0
  0
LINE
  5
1414B
330
8715
100
AcDbEntity
  8
DIM
 62
     0
440
 16777216
370
    -2
100
AcDbLine
 10
267.3545168902331
 20
170.8703706180979
 30
0.0
 11
271.4503779516339
 21
170.8703706180979
 31
0.0
  0
LINE
  5
1414C
330
8715
100
AcDbEntity
  8
DIM
 62
     0
440
 16777216
370
    -2
100
AcDbLine
 10
289.8345168902332
 20
170.8703706180979
 30
0.0
 11
285.0103779516338
 21
170.8703706180979
 31
0.0
  0
SOLID
  5
1414D
330
8715
100
AcDbEntity
  8
DIM
 62
     0
440
 16777216
100
AcDbTrace
 10
267.3545168902331
 20
171.0803706180979
 30
0.0
 11
267.3545168902331
 21
170.6603706180979
 31
0.0
 12
266.0945168902332
 22
170.8703706180979
 32
0.0
 13
266.0945168902332
 23
170.8703706180979
 33
0.0
  0
SOLID
  5
1414E
330
8715
100
AcDbEntity
  8
DIM
 62
     0
440
 16777216
100
AcDbTrace
 10
289.8345168902332
 20
171.0803706180979
 30
0.0
 11
289.8345168902332
 21
170.6603706180979
 31
0.0
 12
291.0945168902332
 22
170.8703706180979
 32
0.0
 13
291.0945168902332
 23
170.8703706180979
 33
0.0
  0
MTEXT
  5
1414F
330
8715
100
AcDbEntity
  8
DIM
 62
     0
440
 16777216
100
AcDbMText
 10
278.2303779516338
 20
170.8703706180979
 30
0.0
 40
1.26
 41
0.0
 46
0.0
 71
     5
 72
     1
  1
\A1;{\fSegoe Print|b0|i0|c0|p2;FINISHED \PHOISTWAY}\P25" [635.00]
  7
ROMANS
 73
     1
 44
1.0
  0
POINT
  5
14150
330
8715
100
AcDbEntity
  8
DEFPOINTS
 62
     0
440
 16777216
100
AcDbPoint
 10
266.0945168902332
 20
150.8385614390876
 30
0.0
  0
POINT
  5
14151
330
8715
100
AcDbEntity
  8
DEFPOINTS
 62
     0
440
 16777216
100
AcDbPoint
 10
291.0945168902332
 20
150.8385614390876
 30
0.0
  0
POINT
  5
14152
330
8715
100
AcDbEntity
  8
DEFPOINTS
 62
     0
440
 16777216
100
AcDbPoint
 10
291.0945168902332
 20
170.8703706180979
 30
0.0
  0
ENDBLK
  5
C346
330
8715
100
AcDbEntity
  8
0
100
AcDbBlockEnd
  0
BLOCK
  5
C35F
330
872F
100
AcDbEntity
  8
0
100
AcDbBlockBegin
  2
*D17
 70
     1
 10
0.0
 20
0.0
 30
0.0
  3
*D17
  1

  0
LINE
  5
14153
330
872F
100
AcDbEntity
  8
DIM
 62
     0
440
 16777216
370
    -2
100
AcDbLine
 10
288.0945168902331
 20
148.7135614390875
 30
0.0
 11
288.0945168902331
 21
164.5141126822889
 31
0.0
  0
LINE
  5
14154
330
872F
100
AcDbEntity
  8
DIM
 62
     0
440
 16777216
370
    -2
100
AcDbLine
 10
291.0945168902332
 20
151.2135614390875
 30
0.0
 11
291.0945168902332
 21
164.5141126822889
 31
0.0
  0
LINE
  5
14155
330
872F
100
AcDbEntity
  8
DIM
 62
     0
440
 16777216
370
    -2
100
AcDbLine
 10
287.0145168902332
 20
164.1391126822889
 30
0.0
 11
285.9345168902331
 21
164.1391126822889
 31
0.0
  0
LINE
  5
14156
330
872F
100
AcDbEntity
  8
DIM
 62
     0
440
 16777216
370
    -2
100
AcDbLine
 10
292.1745168902331
 20
164.1391126822889
 30
0.0
 11
293.2545168902331
 21
164.1391126822889
 31
0.0
  0
SOLID
  5
14157
330
872F
100
AcDbEntity
  8
DIM
 62
     0
440
 16777216
100
AcDbTrace
 10
287.0145168902332
 20
164.3191126822889
 30
0.0
 11
287.0145168902332
 21
163.9591126822889
 31
0.0
 12
288.0945168902331
 22
164.1391126822889
 32
0.0
 13
288.0945168902331
 23
164.1391126822889
 33
0.0
  0
SOLID
  5
14158
330
872F
100
AcDbEntity
  8
DIM
 62
     0
440
 16777216
100
AcDbTrace
 10
292.1745168902331
 20
164.3191126822889
 30
0.0
 11
292.1745168902331
 21
163.9591126822889
 31
0.0
 12
291.0945168902332
 22
164.1391126822889
 32
0.0
 13
291.0945168902332
 23
164.1391126822889
 33
0.0
  0
MTEXT
  5
14159
330
872F
100
AcDbEntity
  8
DIM
 62
     0
440
 16777216
100
AcDbMText
 10
298.191659747376
 20
164.1391126822889
 30
0.0
 40
1.08
 41
0.0
 46
0.0
 71
     5
 72
     1
  1
\A1;3" [76.20]
  7
ROMANT
 73
     1
 44
1.0
  0
POINT
  5
1415A
330
872F
100
AcDbEntity
  8
DEFPOINTS
 62
     0
440
 16777216
100
AcDbPoint
 10
288.0945168902331
 20
148.3385614390875
 30
0.0
  0
POINT
  5
1415B
330
872F
100
AcDbEntity
  8
DEFPOINTS
 62
     0
440
 16777216
100
AcDbPoint
 10
291.0945168902332
 20
150.8385614390875
 30
0.0
  0
POINT
  5
1415C
330
872F
100
AcDbEntity
  8
DEFPOINTS
 62
     0
440
 16777216
100
AcDbPoint
 10
291.0945168902332
 20
164.1391126822889
 30
0.0
  0
ENDBLK
  5
C36A
330
872F
100
AcDbEntity
  8
0
100
AcDbBlockEnd
  0
BLOCK
  5
C353
330
873C
100
AcDbEntity
  8
0
100
AcDbBlockBegin
  2
*D18
 70
     1
 10
0.0
 20
0.0
 30
0.0
  3
*D18
  1

  0
LINE
  5
1415D
330
873C
100
AcDbEntity
  8
DIM
 62
     0
440
 16777216
370
    -2
100
AcDbLine
 10
268.0945168902332
 20
148.7135614390875
 30
0.0
 11
268.0945168902332
 21
164.5141126822889
 31
0.0
  0
LINE
  5
1415E
330
873C
100
AcDbEntity
  8
DIM
 62
     0
440
 16777216
370
    -2
100
AcDbLine
 10
266.0945168902332
 20
151.2135614390876
 30
0.0
 11
266.0945168902332
 21
164.5141126822889
 31
0.0
  0
LINE
  5
1415F
330
873C
100
AcDbEntity
  8
DIM
 62
     0
440
 16777216
370
    -2
100
AcDbLine
 10
269.1745168902331
 20
164.1391126822889
 30
0.0
 11
270.2545168902332
 21
164.1391126822889
 31
0.0
  0
LINE
  5
14160
330
873C
100
AcDbEntity
  8
DIM
 62
     0
440
 16777216
370
    -2
100
AcDbLine
 10
265.0145168902331
 20
164.1391126822889
 30
0.0
 11
263.9345168902332
 21
164.1391126822889
 31
0.0
  0
SOLID
  5
14161
330
873C
100
AcDbEntity
  8
DIM
 62
     0
440
 16777216
100
AcDbTrace
 10
269.1745168902331
 20
164.3191126822889
 30
0.0
 11
269.1745168902331
 21
163.9591126822889
 31
0.0
 12
268.0945168902332
 22
164.1391126822889
 32
0.0
 13
268.0945168902332
 23
164.1391126822889
 33
0.0
  0
SOLID
  5
14162
330
873C
100
AcDbEntity
  8
DIM
 62
     0
440
 16777216
100
AcDbTrace
 10
265.0145168902331
 20
164.3191126822889
 30
0.0
 11
265.0145168902331
 21
163.9591126822889
 31
0.0
 12
266.0945168902332
 22
164.1391126822889
 32
0.0
 13
266.0945168902332
 23
164.1391126822889
 33
0.0
  0
MTEXT
  5
14163
330
873C
100
AcDbEntity
  8
DIM
 62
     0
440
 16777216
100
AcDbMText
 10
258.9973740330903
 20
164.1391126822889
 30
0.0
 40
1.08
 41
0.0
 46
0.0
 71
     5
 72
     1
  1
\A1;2" [50.80]
  7
ROMANT
 73
     1
 44
1.0
  0
POINT
  5
14164
330
873C
100
AcDbEntity
  8
DEFPOINTS
 62
     0
440
 16777216
100
AcDbPoint
 10
268.0945168902332
 20
148.3385614390875
 30
0.0
  0
POINT
  5
14165
330
873C
100
AcDbEntity
  8
DEFPOINTS
 62
     0
440
 16777216
100
AcDbPoint
 10
266.0945168902332
 20
150.8385614390876
 30
0.0
  0
POINT
  5
14166
330
873C
100
AcDbEntity
  8
DEFPOINTS
 62
     0
440
 16777216
100
AcDbPoint
 10
266.0945168902332
 20
164.1391126822889
 30
0.0
  0
ENDBLK
  5
C35E
330
873C
100
AcDbEntity
  8
0
100
AcDbBlockEnd
  0
BLOCK
  5
D26E
330
8749
100
AcDbEntity
  8
0
100
AcDbBlockBegin
  2
*D19
 70
     1
 10
0.0
 20
0.0
 30
0.0
  3
*D19
  1

  0
LINE
  5
14167
330
8749
100
AcDbEntity
  8
DIM
 62
     0
440
 16777216
370
    -2
100
AcDbLine
 10
265.6570168902331
 20
150.8385614390876
 30
0.0
 11
240.6654515425826
 21
150.8385614390876
 31
0.0
  0
LINE
  5
14168
330
8749
100
AcDbEntity
  8
DIM
 62
     0
440
 16777216
370
    -2
100
AcDbLine
 10
265.6570168902331
 20
125.3385614390876
 30
0.0
 11
240.6654515425826
 21
125.3385614390876
 31
0.0
  0
LINE
  5
14169
330
8749
100
AcDbEntity
  8
DIM
 62
     0
440
 16777216
370
    -2
100
AcDbLine
 10
241.1029515425826
 20
149.5785614390876
 30
0.0
 11
241.1029515425826
 21
142.4107584140889
 31
0.0
  0
LINE
  5
1416A
330
8749
100
AcDbEntity
  8
DIM
 62
     0
440
 16777216
370
    -2
100
AcDbLine
 10
241.1029515425826
 20
126.5985614390876
 30
0.0
 11
241.1029515425826
 21
132.5842553466042
 31
0.0
  0
SOLID
  5
1416B
330
8749
100
AcDbEntity
  8
DIM
 62
     0
440
 16777216
100
AcDbTrace
 10
240.8929515425827
 20
149.5785614390876
 30
0.0
 11
241.3129515425826
 21
149.5785614390876
 31
0.0
 12
241.1029515425826
 22
150.8385614390876
 32
0.0
 13
241.1029515425826
 23
150.8385614390876
 33
0.0
  0
SOLID
  5
1416C
330
8749
100
AcDbEntity
  8
DIM
 62
     0
440
 16777216
100
AcDbTrace
 10
240.8929515425827
 20
126.5985614390876
 30
0.0
 11
241.3129515425826
 21
126.5985614390876
 31
0.0
 12
241.1029515425826
 22
125.3385614390876
 32
0.0
 13
241.1029515425826
 23
125.3385614390876
 33
0.0
  0
MTEXT
  5
1416D
330
8749
100
AcDbEntity
  8
DIM
 62
     0
440
 16777216
100
AcDbMText
 10
241.1029515425826
 20
137.4975068803466
 30
0.0
 40
1.26
 41
0.0
 46
0.0
 71
     5
 72
     1
  1
\A1;{\fSegoe Print|b0|i0|c0|p2;FINISHED\PHOISTWAY}\P25 1/2"\P\f [;[647.70]\f]
  7
ROMANS
 73
     1
 44
1.0
  0
POINT
  5
1416E
330
8749
100
AcDbEntity
  8
DEFPOINTS
 62
     0
440
 16777216
100
AcDbPoint
 10
266.0945168902332
 20
150.8385614390876
 30
0.0
  0
POINT
  5
1416F
330
8749
100
AcDbEntity
  8
DEFPOINTS
 62
     0
440
 16777216
100
AcDbPoint
 10
266.0945168902332
 20
125.3385614390876
 30
0.0
  0
POINT
  5
14170
330
8749
100
AcDbEntity
  8
DEFPOINTS
 62
     0
440
 16777216
100
AcDbPoint
 10
241.1029515425826
 20
125.3385614390876
 30
0.0
  0
ENDBLK
  5
D279
330
8749
100
AcDbEntity
  8
0
100
AcDbBlockEnd
  0
BLOCK
  5
D020
330
8756
100
AcDbEntity
  8
0
100
AcDbBlockBegin
  2
*D20
 70
     1
 10
0.0
 20
0.0
 30
0.0
  3
*D20
  1

  0
LINE
  5
14171
330
8756
100
AcDbEntity
  8
DIM
 62
     0
440
 16777216
370
    -2
100
AcDbLine
 10
265.7195168902331
 20
150.8385614390876
 30
0.0
 11
252.584496303261
 21
150.8385614390876
 31
0.0
  0
LINE
  5
14172
330
8756
100
AcDbEntity
  8
DIM
 62
     0
440
 16777216
370
    -2
100
AcDbLine
 10
267.7195168902331
 20
147.3385614390876
 30
0.0
 11
252.584496303261
 21
147.3385614390876
 31
0.0
  0
LINE
  5
14173
330
8756
100
AcDbEntity
  8
DIM
 62
     0
440
 16777216
370
    -2
100
AcDbLine
 10
252.959496303261
 20
151.9185614390876
 30
0.0
 11
252.959496303261
 21
152.9985614390876
 31
0.0
  0
LINE
  5
14174
330
8756
100
AcDbEntity
  8
DIM
 62
     0
440
 16777216
370
    -2
100
AcDbLine
 10
252.959496303261
 20
146.2585614390875
 30
0.0
 11
252.959496303261
 21
145.1785614390876
 31
0.0
  0
SOLID
  5
14175
330
8756
100
AcDbEntity
  8
DIM
 62
     0
440
 16777216
100
AcDbTrace
 10
252.779496303261
 20
151.9185614390876
 30
0.0
 11
253.139496303261
 21
151.9185614390876
 31
0.0
 12
252.959496303261
 22
150.8385614390876
 32
0.0
 13
252.959496303261
 23
150.8385614390876
 33
0.0
  0
SOLID
  5
14176
330
8756
100
AcDbEntity
  8
DIM
 62
     0
440
 16777216
100
AcDbTrace
 10
252.779496303261
 20
146.2585614390875
 30
0.0
 11
253.139496303261
 21
146.2585614390875
 31
0.0
 12
252.959496303261
 22
147.3385614390876
 32
0.0
 13
252.959496303261
 23
147.3385614390876
 33
0.0
  0
MTEXT
  5
14177
330
8756
100
AcDbEntity
  8
DIM
 62
     0
440
 16777216
100
AcDbMText
 10
252.9594963032609
 20
148.9245071655038
 30
0.0
 40
1.08
 41
0.0
 46
0.0
 71
     5
 72
     1
  1
\A1;3 1/2" [88.90]
  7
ROMANT
 73
     1
 44
1.0
  0
POINT
  5
14178
330
8756
100
AcDbEntity
  8
DEFPOINTS
 62
     0
440
 16777216
100
AcDbPoint
 10
266.0945168902332
 20
150.8385614390876
 30
0.0
  0
POINT
  5
14179
330
8756
100
AcDbEntity
  8
DEFPOINTS
 62
     0
440
 16777216
100
AcDbPoint
 10
268.0945168902332
 20
147.3385614390876
 30
0.0
  0
POINT
  5
1417A
330
8756
100
AcDbEntity
  8
DEFPOINTS
 62
     0
440
 16777216
100
AcDbPoint
 10
252.959496303261
 20
147.3385614390876
 30
0.0
  0
ENDBLK
  5
D02B
330
8756
100
AcDbEntity
  8
0
100
AcDbBlockEnd
  0
BLOCK
  5
A272
330
8763
100
AcDbEntity
  8
0
100
AcDbBlockBegin
  2
*D21
 70
     1
 10
0.0
 20
0.0
 30
0.0
  3
*D21
  1

  0
LINE
  5
141D6
330
8763
100
AcDbEntity
  8
DIM
 62
     0
440
 16777216
370
    -2
100
AcDbLine
 10
267.7195168902331
 20
127.3385614390876
 30
0.0
 11
252.5587820175468
 21
127.3385614390876
 31
0.0
  0
LINE
  5
141D7
330
8763
100
AcDbEntity
  8
DIM
 62
     0
440
 16777216
370
    -2
100
AcDbLine
 10
265.7195168902331
 20
125.3385614390876
 30
0.0
 11
252.5587820175468
 21
125.3385614390876
 31
0.0
  0
LINE
  5
141D8
330
8763
100
AcDbEntity
  8
DIM
 62
     0
440
 16777216
370
    -2
100
AcDbLine
 10
252.9337820175468
 20
128.4185614390876
 30
0.0
 11
252.9337820175468
 21
129.4985614390876
 31
0.0
  0
LINE
  5
141D9
330
8763
100
AcDbEntity
  8
DIM
 62
     0
440
 16777216
370
    -2
100
AcDbLine
 10
252.9337820175468
 20
124.2585614390876
 30
0.0
 11
252.9337820175468
 21
122.4593021782134
 31
0.0
  0
LINE
  5
141DA
330
8763
100
AcDbEntity
  8
DIM
 62
     0
440
 16777216
370
    -2
100
AcDbLine
 10
252.9337820175468
 20
122.4593021782134
 30
0.0
 11
251.8537820175468
 21
122.4593021782134
 31
0.0
  0
SOLID
  5
141DB
330
8763
100
AcDbEntity
  8
DIM
 62
     0
440
 16777216
100
AcDbTrace
 10
252.7537820175468
 20
128.4185614390876
 30
0.0
 11
253.1137820175468
 21
128.4185614390876
 31
0.0
 12
252.9337820175468
 22
127.3385614390876
 32
0.0
 13
252.9337820175468
 23
127.3385614390876
 33
0.0
  0
SOLID
  5
141DC
330
8763
100
AcDbEntity
  8
DIM
 62
     0
440
 16777216
100
AcDbTrace
 10
252.7537820175468
 20
124.2585614390876
 30
0.0
 11
253.1137820175468
 21
124.2585614390876
 31
0.0
 12
252.9337820175468
 22
125.3385614390876
 32
0.0
 13
252.9337820175468
 23
125.3385614390876
 33
0.0
  0
MTEXT
  5
141DD
330
8763
100
AcDbEntity
  8
DIM
 62
     0
440
 16777216
100
AcDbMText
 10
248.4337820175468
 20
122.4593021782135
 30
0.0
 40
1.08
 41
0.0
 46
0.0
 71
     5
 72
     1
  1
\A1;2"\P\f [;[50.80]\f]
  7
ROMANT
 73
     1
 44
1.0
  0
POINT
  5
141DE
330
8763
100
AcDbEntity
  8
DEFPOINTS
 62
     0
440
 16777216
100
AcDbPoint
 10
268.0945168902332
 20
127.3385614390876
 30
0.0
  0
POINT
  5
141DF
330
8763
100
AcDbEntity
  8
DEFPOINTS
 62
     0
440
 16777216
100
AcDbPoint
 10
266.0945168902332
 20
125.3385614390876
 30
0.0
  0
POINT
  5
141E0
330
8763
100
AcDbEntity
  8
DEFPOINTS
 62
     0
440
 16777216
100
AcDbPoint
 10
252.9337820175468
 20
125.3385614390876
 30
0.0
  0
ENDBLK
  5
A27D
330
8763
100
AcDbEntity
  8
0
100
AcDbBlockEnd
  0
BLOCK
  5
A2B8
330
A2B7
100
AcDbEntity
  8
0
100
AcDbBlockBegin
  2
*X22
 70
     1
 10
0.0
 20
0.0
 30
0.0
  3
*X22
  1

  0
ENDBLK
  5
A2B9
330
A2B7
100
AcDbEntity
  8
0
100
AcDbBlockEnd
  0
BLOCK
  5
A2BB
330
A2BA
100
AcDbEntity
  8
0
100
AcDbBlockBegin
  2
*X23
 70
     1
 10
0.0
 20
0.0
 30
0.0
  3
*X23
  1

  0
ENDBLK
  5
A2BC
330
A2BA
100
AcDbEntity
  8
0
100
AcDbBlockEnd
  0
BLOCK
  5
A2BE
330
A2BD
100
AcDbEntity
  8
0
100
AcDbBlockBegin
  2
*X24
 70
     1
 10
0.0
 20
0.0
 30
0.0
  3
*X24
  1

  0
ENDBLK
  5
A2BF
330
A2BD
100
AcDbEntity
  8
0
100
AcDbBlockEnd
  0
BLOCK
  5
A2C1
330
A2C0
100
AcDbEntity
  8
0
100
AcDbBlockBegin
  2
*X25
 70
     1
 10
0.0
 20
0.0
 30
0.0
  3
*X25
  1

  0
ENDBLK
  5
A2C2
330
A2C0
100
AcDbEntity
  8
0
100
AcDbBlockEnd
  0
BLOCK
  5
A3B8
330
A3B7
100
AcDbEntity
  8
0
100
AcDbBlockBegin
  2
*X26
 70
     1
 10
0.0
 20
0.0
 30
0.0
  3
*X26
  1

  0
ENDBLK
  5
A3B9
330
A3B7
100
AcDbEntity
  8
0
100
AcDbBlockEnd
  0
BLOCK
  5
A3BB
330
A3BA
100
AcDbEntity
  8
0
100
AcDbBlockBegin
  2
*X27
 70
     1
 10
0.0
 20
0.0
 30
0.0
  3
*X27
  1

  0
ENDBLK
  5
A3BC
330
A3BA
100
AcDbEntity
  8
0
100
AcDbBlockEnd
  0
BLOCK
  5
A3BE
330
A3BD
100
AcDbEntity
  8
0
100
AcDbBlockBegin
  2
*X28
 70
     1
 10
0.0
 20
0.0
 30
0.0
  3
*X28
  1

  0
ENDBLK
  5
A3BF
330
A3BD
100
AcDbEntity
  8
0
100
AcDbBlockEnd
  0
BLOCK
  5
A3C1
330
A3C0
100
AcDbEntity
  8
0
100
AcDbBlockBegin
  2
*X29
 70
     1
 10
0.0
 20
0.0
 30
0.0
  3
*X29
  1

  0
ENDBLK
  5
A3C2
330
A3C0
100
AcDbEntity
  8
0
100
AcDbBlockEnd
  0
BLOCK
  5
A3C4
330
A3C3
100
AcDbEntity
  8
0
100
AcDbBlockBegin
  2
*X30
 70
     1
 10
0.0
 20
0.0
 30
0.0
  3
*X30
  1

  0
ENDBLK
  5
A3C5
330
A3C3
100
AcDbEntity
  8
0
100
AcDbBlockEnd
  0
BLOCK
  5
A3C7
330
A3C6
100
AcDbEntity
  8
0
100
AcDbBlockBegin
  2
*X31
 70
     1
 10
0.0
 20
0.0
 30
0.0
  3
*X31
  1

  0
ENDBLK
  5
A3C8
330
A3C6
100
AcDbEntity
  8
0
100
AcDbBlockEnd
  0
BLOCK
  5
A3CA
330
A3C9
100
AcDbEntity
  8
0
100
AcDbBlockBegin
  2
*X32
 70
     1
 10
0.0
 20
0.0
 30
0.0
  3
*X32
  1

  0
ENDBLK
  5
A3CB
330
A3C9
100
AcDbEntity
  8
0
100
AcDbBlockEnd
  0
BLOCK
  5
A484
330
A483
100
AcDbEntity
  8
0
100
AcDbBlockBegin
  2
*X33
 70
     1
 10
0.0
 20
0.0
 30
0.0
  3
*X33
  1

  0
ENDBLK
  5
A485
330
A483
100
AcDbEntity
  8
0
100
AcDbBlockEnd
  0
BLOCK
  5
A487
330
A486
100
AcDbEntity
  8
0
100
AcDbBlockBegin
  2
*X34
 70
     1
 10
0.0
 20
0.0
 30
0.0
  3
*X34
  1

  0
ENDBLK
  5
A488
330
A486
100
AcDbEntity
  8
0
100
AcDbBlockEnd
  0
BLOCK
  5
A48A
330
A489
100
AcDbEntity
  8
0
100
AcDbBlockBegin
  2
*X35
 70
     1
 10
0.0
 20
0.0
 30
0.0
  3
*X35
  1

  0
ENDBLK
  5
A48B
330
A489
100
AcDbEntity
  8
0
100
AcDbBlockEnd
  0
BLOCK
  5
A48D
330
A48C
100
AcDbEntity
  8
0
100
AcDbBlockBegin
  2
*X36
 70
     1
 10
0.0
 20
0.0
 30
0.0
  3
*X36
  1

  0
ENDBLK
  5
A48E
330
A48C
100
AcDbEntity
  8
0
100
AcDbBlockEnd
  0
BLOCK
  5
A490
330
A48F
100
AcDbEntity
  8
0
100
AcDbBlockBegin
  2
*X37
 70
     1
 10
0.0
 20
0.0
 30
0.0
  3
*X37
  1

  0
ENDBLK
  5
A491
330
A48F
100
AcDbEntity
  8
0
100
AcDbBlockEnd
  0
BLOCK
  5
A493
330
A492
100
AcDbEntity
  8
0
100
AcDbBlockBegin
  2
*X38
 70
     1
 10
0.0
 20
0.0
 30
0.0
  3
*X38
  1

  0
ENDBLK
  5
A494
330
A492
100
AcDbEntity
  8
0
100
AcDbBlockEnd
  0
BLOCK
  5
A496
330
A495
100
AcDbEntity
  8
0
100
AcDbBlockBegin
  2
*X39
 70
     1
 10
0.0
 20
0.0
 30
0.0
  3
*X39
  1

  0
ENDBLK
  5
A497
330
A495
100
AcDbEntity
  8
0
100
AcDbBlockEnd
  0
BLOCK
  5
A499
330
A498
100
AcDbEntity
  8
0
100
AcDbBlockBegin
  2
*X40
 70
     1
 10
0.0
 20
0.0
 30
0.0
  3
*X40
  1

  0
ENDBLK
  5
A49A
330
A498
100
AcDbEntity
  8
0
100
AcDbBlockEnd
  0
BLOCK
  5
A49C
330
A49B
100
AcDbEntity
  8
0
100
AcDbBlockBegin
  2
*X41
 70
     1
 10
0.0
 20
0.0
 30
0.0
  3
*X41
  1

  0
ENDBLK
  5
A49D
330
A49B
100
AcDbEntity
  8
0
100
AcDbBlockEnd
  0
BLOCK
  5
A49F
330
A49E
100
AcDbEntity
  8
0
100
AcDbBlockBegin
  2
*X42
 70
     1
 10
0.0
 20
0.0
 30
0.0
  3
*X42
  1

  0
ENDBLK
  5
A4A0
330
A49E
100
AcDbEntity
  8
0
100
AcDbBlockEnd
  0
BLOCK
  5
A4A2
330
A4A1
100
AcDbEntity
  8
0
100
AcDbBlockBegin
  2
*X43
 70
     1
 10
0.0
 20
0.0
 30
0.0
  3
*X43
  1

  0
ENDBLK
  5
A4A3
330
A4A1
100
AcDbEntity
  8
0
100
AcDbBlockEnd
  0
BLOCK
  5
B84B
330
B84A
100
AcDbEntity
  8
0
100
AcDbBlockBegin
  2
*X44
 70
     1
 10
0.0
 20
0.0
 30
0.0
  3
*X44
  1

  0
ENDBLK
  5
B84C
330
B84A
100
AcDbEntity
  8
0
100
AcDbBlockEnd
  0
BLOCK
  5
B854
330
B853
100
AcDbEntity
  8
0
100
AcDbBlockBegin
  2
*X45
 70
     1
 10
0.0
 20
0.0
 30
0.0
  3
*X45
  1

  0
ENDBLK
  5
B855
330
B853
100
AcDbEntity
  8
0
100
AcDbBlockEnd
  0
BLOCK
  5
B857
330
B856
100
AcDbEntity
  8
0
100
AcDbBlockBegin
  2
*X46
 70
     1
 10
0.0
 20
0.0
 30
0.0
  3
*X46
  1

  0
ENDBLK
  5
B858
330
B856
100
AcDbEntity
  8
0
100
AcDbBlockEnd
  0
BLOCK
  5
B85A
330
B859
100
AcDbEntity
  8
0
100
AcDbBlockBegin
  2
*X47
 70
     1
 10
0.0
 20
0.0
 30
0.0
  3
*X47
  1

  0
ENDBLK
  5
B85B
330
B859
100
AcDbEntity
  8
0
100
AcDbBlockEnd
  0
BLOCK
  5
BC02
330
BC01
100
AcDbEntity
  8
0
100
AcDbBlockBegin
  2
*X48
 70
     1
 10
0.0
 20
0.0
 30
0.0
  3
*X48
  1

  0
ENDBLK
  5
BC03
330
BC01
100
AcDbEntity
  8
0
100
AcDbBlockEnd
  0
BLOCK
  5
BC05
330
BC04
100
AcDbEntity
  8
0
100
AcDbBlockBegin
  2
*X49
 70
     1
 10
0.0
 20
0.0
 30
0.0
  3
*X49
  1

  0
ENDBLK
  5
BC06
330
BC04
100
AcDbEntity
  8
0
100
AcDbBlockEnd
  0
BLOCK
  5
BC08
330
BC07
100
AcDbEntity
  8
0
100
AcDbBlockBegin
  2
*X50
 70
     1
 10
0.0
 20
0.0
 30
0.0
  3
*X50
  1

  0
ENDBLK
  5
BC09
330
BC07
100
AcDbEntity
  8
0
100
AcDbBlockEnd
  0
BLOCK
  5
BC0B
330
BC0A
100
AcDbEntity
  8
0
100
AcDbBlockBegin
  2
*X51
 70
     1
 10
0.0
 20
0.0
 30
0.0
  3
*X51
  1

  0
ENDBLK
  5
BC0C
330
BC0A
100
AcDbEntity
  8
0
100
AcDbBlockEnd
  0
BLOCK
  5
BD6E
330
BD6D
100
AcDbEntity
  8
0
100
AcDbBlockBegin
  2
*X52
 70
     1
 10
0.0
 20
0.0
 30
0.0
  3
*X52
  1

  0
ENDBLK
  5
BD6F
330
BD6D
100
AcDbEntity
  8
0
100
AcDbBlockEnd
  0
BLOCK
  5
BD71
330
BD70
100
AcDbEntity
  8
0
100
AcDbBlockBegin
  2
*X53
 70
     1
 10
0.0
 20
0.0
 30
0.0
  3
*X53
  1

  0
ENDBLK
  5
BD72
330
BD70
100
AcDbEntity
  8
0
100
AcDbBlockEnd
  0
BLOCK
  5
BD74
330
BD73
100
AcDbEntity
  8
0
100
AcDbBlockBegin
  2
*X54
 70
     1
 10
0.0
 20
0.0
 30
0.0
  3
*X54
  1

  0
ENDBLK
  5
BD75
330
BD73
100
AcDbEntity
  8
0
100
AcDbBlockEnd
  0
BLOCK
  5
BD77
330
BD76
100
AcDbEntity
  8
0
100
AcDbBlockBegin
  2
*X55
 70
     1
 10
0.0
 20
0.0
 30
0.0
  3
*X55
  1

  0
ENDBLK
  5
BD78
330
BD76
100
AcDbEntity
  8
0
100
AcDbBlockEnd
  0
BLOCK
  5
BD7A
330
BD79
100
AcDbEntity
  8
0
100
AcDbBlockBegin
  2
*X56
 70
     1
 10
0.0
 20
0.0
 30
0.0
  3
*X56
  1

  0
ENDBLK
  5
BD7B
330
BD79
100
AcDbEntity
  8
0
100
AcDbBlockEnd
  0
BLOCK
  5
BD7D
330
BD7C
100
AcDbEntity
  8
0
100
AcDbBlockBegin
  2
*X57
 70
     1
 10
0.0
 20
0.0
 30
0.0
  3
*X57
  1

  0
ENDBLK
  5
BD7E
330
BD7C
100
AcDbEntity
  8
0
100
AcDbBlockEnd
  0
BLOCK
  5
BD80
330
BD7F
100
AcDbEntity
  8
0
100
AcDbBlockBegin
  2
*X58
 70
     1
 10
0.0
 20
0.0
 30
0.0
  3
*X58
  1

  0
ENDBLK
  5
BD81
330
BD7F
100
AcDbEntity
  8
0
100
AcDbBlockEnd
  0
BLOCK
  5
BD83
330
BD82
100
AcDbEntity
  8
0
100
AcDbBlockBegin
  2
*X59
 70
     1
 10
0.0
 20
0.0
 30
0.0
  3
*X59
  1

  0
ENDBLK
  5
BD84
330
BD82
100
AcDbEntity
  8
0
100
AcDbBlockEnd
  0
BLOCK
  5
BD86
330
BD85
100
AcDbEntity
  8
0
100
AcDbBlockBegin
  2
*X60
 70
     1
 10
0.0
 20
0.0
 30
0.0
  3
*X60
  1

  0
ENDBLK
  5
BD87
330
BD85
100
AcDbEntity
  8
0
100
AcDbBlockEnd
  0
BLOCK
  5
BD89
330
BD88
100
AcDbEntity
  8
0
100
AcDbBlockBegin
  2
*X61
 70
     1
 10
0.0
 20
0.0
 30
0.0
  3
*X61
  1

  0
ENDBLK
  5
BD8A
330
BD88
100
AcDbEntity
  8
0
100
AcDbBlockEnd
  0
BLOCK
  5
BD8C
330
BD8B
100
AcDbEntity
  8
0
100
AcDbBlockBegin
  2
*X62
 70
     1
 10
0.0
 20
0.0
 30
0.0
  3
*X62
  1

  0
ENDBLK
  5
BD8D
330
BD8B
100
AcDbEntity
  8
0
100
AcDbBlockEnd
  0
BLOCK
  5
BD8F
330
BD8E
100
AcDbEntity
  8
0
100
AcDbBlockBegin
  2
*X63
 70
     1
 10
0.0
 20
0.0
 30
0.0
  3
*X63
  1

  0
ENDBLK
  5
BD90
330
BD8E
100
AcDbEntity
  8
0
100
AcDbBlockEnd
  0
BLOCK
  5
BD92
330
BD91
100
AcDbEntity
  8
0
100
AcDbBlockBegin
  2
*X64
 70
     1
 10
0.0
 20
0.0
 30
0.0
  3
*X64
  1

  0
ENDBLK
  5
BD93
330
BD91
100
AcDbEntity
  8
0
100
AcDbBlockEnd
  0
BLOCK
  5
BD95
330
BD94
100
AcDbEntity
  8
0
100
AcDbBlockBegin
  2
*X65
 70
     1
 10
0.0
 20
0.0
 30
0.0
  3
*X65
  1

  0
ENDBLK
  5
BD96
330
BD94
100
AcDbEntity
  8
0
100
AcDbBlockEnd
  0
BLOCK
  5
BD98
330
BD97
100
AcDbEntity
  8
0
100
AcDbBlockBegin
  2
*X66
 70
     1
 10
0.0
 20
0.0
 30
0.0
  3
*X66
  1

  0
ENDBLK
  5
BD99
330
BD97
100
AcDbEntity
  8
0
100
AcDbBlockEnd
  0
BLOCK
  5
BD9B
330
BD9A
100
AcDbEntity
  8
0
100
AcDbBlockBegin
  2
*X67
 70
     1
 10
0.0
 20
0.0
 30
0.0
  3
*X67
  1

  0
ENDBLK
  5
BD9C
330
BD9A
100
AcDbEntity
  8
0
100
AcDbBlockEnd
  0
BLOCK
  5
BD9E
330
BD9D
100
AcDbEntity
  8
0
100
AcDbBlockBegin
  2
*X68
 70
     1
 10
0.0
 20
0.0
 30
0.0
  3
*X68
  1

  0
ENDBLK
  5
BD9F
330
BD9D
100
AcDbEntity
  8
0
100
AcDbBlockEnd
  0
BLOCK
  5
BDA1
330
BDA0
100
AcDbEntity
  8
0
100
AcDbBlockBegin
  2
*X69
 70
     1
 10
0.0
 20
0.0
 30
0.0
  3
*X69
  1

  0
ENDBLK
  5
BDA2
330
BDA0
100
AcDbEntity
  8
0
100
AcDbBlockEnd
  0
BLOCK
  5
BDA4
330
BDA3
100
AcDbEntity
  8
0
100
AcDbBlockBegin
  2
*X70
 70
     1
 10
0.0
 20
0.0
 30
0.0
  3
*X70
  1

  0
ENDBLK
  5
BDA5
330
BDA3
100
AcDbEntity
  8
0
100
AcDbBlockEnd
  0
BLOCK
  5
BDA7
330
BDA6
100
AcDbEntity
  8
0
100
AcDbBlockBegin
  2
*X71
 70
     1
 10
0.0
 20
0.0
 30
0.0
  3
*X71
  1

  0
ENDBLK
  5
BDA8
330
BDA6
100
AcDbEntity
  8
0
100
AcDbBlockEnd
  0
BLOCK
  5
BDAA
330
BDA9
100
AcDbEntity
  8
0
100
AcDbBlockBegin
  2
*X72
 70
     1
 10
0.0
 20
0.0
 30
0.0
  3
*X72
  1

  0
ENDBLK
  5
BDAB
330
BDA9
100
AcDbEntity
  8
0
100
AcDbBlockEnd
  0
BLOCK
  5
BDAD
330
BDAC
100
AcDbEntity
  8
0
100
AcDbBlockBegin
  2
*X73
 70
     1
 10
0.0
 20
0.0
 30
0.0
  3
*X73
  1

  0
ENDBLK
  5
BDAE
330
BDAC
100
AcDbEntity
  8
0
100
AcDbBlockEnd
  0
BLOCK
  5
BDB0
330
BDAF
100
AcDbEntity
  8
0
100
AcDbBlockBegin
  2
*X74
 70
     1
 10
0.0
 20
0.0
 30
0.0
  3
*X74
  1

  0
ENDBLK
  5
BDB1
330
BDAF
100
AcDbEntity
  8
0
100
AcDbBlockEnd
  0
BLOCK
  5
BDB3
330
BDB2
100
AcDbEntity
  8
0
100
AcDbBlockBegin
  2
*X75
 70
     1
 10
0.0
 20
0.0
 30
0.0
  3
*X75
  1

  0
ENDBLK
  5
BDB4
330
BDB2
100
AcDbEntity
  8
0
100
AcDbBlockEnd
  0
BLOCK
  5
BDB6
330
BDB5
100
AcDbEntity
  8
0
100
AcDbBlockBegin
  2
*X76
 70
     1
 10
0.0
 20
0.0
 30
0.0
  3
*X76
  1

  0
ENDBLK
  5
BDB7
330
BDB5
100
AcDbEntity
  8
0
100
AcDbBlockEnd
  0
BLOCK
  5
BDB9
330
BDB8
100
AcDbEntity
  8
0
100
AcDbBlockBegin
  2
*X77
 70
     1
 10
0.0
 20
0.0
 30
0.0
  3
*X77
  1

  0
ENDBLK
  5
BDBA
330
BDB8
100
AcDbEntity
  8
0
100
AcDbBlockEnd
  0
BLOCK
  5
BDBC
330
BDBB
100
AcDbEntity
  8
0
100
AcDbBlockBegin
  2
*X78
 70
     1
 10
0.0
 20
0.0
 30
0.0
  3
*X78
  1

  0
ENDBLK
  5
BDBD
330
BDBB
100
AcDbEntity
  8
0
100
AcDbBlockEnd
  0
BLOCK
  5
BDBF
330
BDBE
100
AcDbEntity
  8
0
100
AcDbBlockBegin
  2
*X79
 70
     1
 10
0.0
 20
0.0
 30
0.0
  3
*X79
  1

  0
ENDBLK
  5
BDC0
330
BDBE
100
AcDbEntity
  8
0
100
AcDbBlockEnd
  0
BLOCK
  5
C32F
330
C315
100
AcDbEntity
  8
0
100
AcDbBlockBegin
  2
*D80
 70
     1
 10
0.0
 20
0.0
 30
0.0
  3
*D80
  1

  0
LINE
  5
14186
330
C315
100
AcDbEntity
  8
DIM
 62
     0
440
 16777216
370
    -2
100
AcDbLine
 10
278.0945168902331
 20
156.7760614390875
 30
0.0
 11
278.0945168902331
 21
159.3385971068815
 31
0.0
  0
LINE
  5
14187
330
C315
100
AcDbEntity
  8
DIM
 62
     0
440
 16777216
370
    -2
100
AcDbLine
 10
291.0945168902332
 20
151.2760614390875
 30
0.0
 11
291.0945168902332
 21
159.3385971068815
 31
0.0
  0
LINE
  5
14188
330
C315
100
AcDbEntity
  8
DIM
 62
     0
440
 16777216
370
    -2
100
AcDbLine
 10
279.3545168902331
 20
158.9010971068814
 30
0.0
 11
289.8345168902332
 21
158.9010971068814
 31
0.0
  0
LINE
  5
14189
330
C315
100
AcDbEntity
  8
DIM
 62
     0
440
 16777216
370
    -2
100
AcDbLine
 10
291.0945168902332
 20
158.9010971068814
 30
0.0
 11
292.3545168902332
 21
158.9010971068814
 31
0.0
  0
SOLID
  5
1418A
330
C315
100
AcDbEntity
  8
DIM
 62
     0
440
 16777216
100
AcDbTrace
 10
279.3545168902331
 20
159.1110971068815
 30
0.0
 11
279.3545168902331
 21
158.6910971068815
 31
0.0
 12
278.0945168902331
 22
158.9010971068814
 32
0.0
 13
278.0945168902331
 23
158.9010971068814
 33
0.0
  0
SOLID
  5
1418B
330
C315
100
AcDbEntity
  8
DIM
 62
     0
440
 16777216
100
AcDbTrace
 10
289.8345168902332
 20
159.1110971068815
 30
0.0
 11
289.8345168902332
 21
158.6910971068815
 31
0.0
 12
291.0945168902332
 22
158.9010971068814
 32
0.0
 13
291.0945168902332
 23
158.9010971068814
 33
0.0
  0
MTEXT
  5
1418C
330
C315
100
AcDbEntity
  8
DIM
 62
     0
440
 16777216
100
AcDbMText
 10
296.9445168902332
 20
158.9010971068814
 30
0.0
 40
1.26
 41
0.0
 46
0.0
 71
     5
 72
     1
  1
\A1;13"\P\f [;[330.20]\f]
  7
ROMANS
 73
     1
 44
1.0
  0
POINT
  5
1418D
330
C315
100
AcDbEntity
  8
DEFPOINTS
 62
     0
440
 16777216
100
AcDbPoint
 10
278.0945168902331
 20
156.3385614390875
 30
0.0
  0
POINT
  5
1418E
330
C315
100
AcDbEntity
  8
DEFPOINTS
 62
     0
440
 16777216
100
AcDbPoint
 10
291.0945168902332
 20
150.8385614390875
 30
0.0
  0
POINT
  5
1418F
330
C315
100
AcDbEntity
  8
DEFPOINTS
 62
     0
440
 16777216
100
AcDbPoint
 10
291.0945168902332
 20
158.9010971068814
 30
0.0
  0
ENDBLK
  5
C33A
330
C315
100
AcDbEntity
  8
0
100
AcDbBlockEnd
  0
BLOCK
  5
D319
330
D2BC
100
AcDbEntity
  8
0
100
AcDbBlockBegin
  2
A$C5E6C7229
 70
     0
 10
0.0
 20
0.0
 30
0.0
  3
A$C5E6C7229
  1

  0
HATCH
  5
D2BD
330
D2BC
100
AcDbEntity
  8
BORDER
100
AcDbHatch
 10
0.0
 20
0.0
 30
0.0
210
0.0
220
0.0
230
1.0
  2
ANSI31
 70
     0
 71
     1
 91
        1
 92
        7
 72
     0
 73
     1
 93
       13
 10
1.138345235758164
 20
1.514036562990535
 10
0.9335203705914416
 20
1.514036562990535
 10
0.7341514419333821
 20
0.8970869212779541
 10
0.5675902292958482
 20
1.514036562990534
 10
0.3057471942140006
 20
1.514036562990535
 10
0.6098990314516613
 20
0.553034989183006
 10
0.847233728860095
 20
0.5530349891830051
 10
1.031250529105251
 20
1.109661654880213
 10
1.215267329350404
 20
0.5530349891830051
 10
1.464828691310537
 20
0.553034989183006
 10
1.768980528548196
 20
1.514036562990533
 10
1.506269940005862
 20
1.514036562990534
 10
1.328349616277119
 20
0.8970869212779515
 97
       13
330
D2E7
330
D2CF
330
D2BE
330
D2C4
330
D2C3
330
D2BF
330
D2D5
330
D2D6
330
D2DA
330
D2D0
330
D2E6
330
D2D1
330
D2D2
 75
     0
 76
     1
 52
0.0
 41
0.01
 77
     0
 78
     1
 53
45.0
 43
-5.292718358303066
 44
-4.627344112226039
 45
-0.0008838834764832
 46
0.0008838834764832
 79
     0
 47
0.0065990708823471
 98
        1
 10
1.081117627216016
 20
1.305015614115505
  0
LINE
  5
D2BE
102
{ACAD_REACTORS
330
D2BD
102
}
330
D2BC
100
AcDbEntity
  8
BORDER
100
AcDbLine
 10
0.5675902292958491
 20
1.514036562990534
 30
0.0
 11
0.7341514419333813
 21
0.8970869212779541
 31
0.0
  0
LINE
  5
D2BF
102
{ACAD_REACTORS
330
D2BD
102
}
330
D2BC
100
AcDbEntity
  8
BORDER
100
AcDbLine
 10
0.6098990314516631
 20
0.5530349891830051
 30
0.0
 11
0.8472337288600959
 21
0.5530349891830051
 31
0.0
  0
HATCH
  5
D2C0
330
D2BC
100
AcDbEntity
  8
BORDER
100
AcDbHatch
 10
0.0
 20
0.0
 30
0.0
210
0.0
220
0.0
230
1.0
  2
ANSI31
 70
     0
 71
     1
 91
        1
 92
        7
 72
     1
 73
     1
 93
        4
 10
1.911491491027344
 20
1.33286586024981
 42
0.0
 10
2.028460521510151
 20
1.33286586024981
 42
1.94684309849424
 10
0.9140940972618372
 20
0.091051786378781
 42
0.0
 10
0.9140940972618372
 20
0.2080208168615902
 42
-1.89903968396117
 97
        4
330
D2D8
330
D2C1
330
D2E8
330
D2C2
 75
     0
 76
     1
 52
0.0
 41
0.01
 77
     0
 78
     1
 53
45.0
 43
-5.292718358303066
 44
-4.627344112226039
 45
-0.0008838834764832
 46
0.0008838834764832
 79
     0
 47
0.0045503027474481
 98
        1
 10
1.192595423495671
 20
2.054864768340002
  0
ARC
  5
D2C1
102
{ACAD_REACTORS
330
D2C0
102
}
330
D2BC
100
AcDbEntity
  8
BORDER
100
AcDbCircle
 10
1.026842221370137
 20
1.112664782896177
 30
0.0
 40
0.9116429371046159
100
AcDbArc
 50
13.97763433055847
 51
262.8957115435579
  0
ARC
  5
D2C2
102
{ACAD_REACTORS
330
D2C0
102
}
330
D2BC
100
AcDbEntity
  8
BORDER
100
AcDbCircle
 10
1.026338113945765
 20
1.111233811948499
 30
0.0
 40
1.026338192106712
100
AcDbArc
 50
12.47094267911863
 51
263.7213700729962
  0
LINE
  5
D2C3
102
{ACAD_REACTORS
330
D2BD
102
}
330
D2BC
100
AcDbEntity
  8
BORDER
100
AcDbLine
 10
0.6098990314516613
 20
0.5530349891830051
 30
0.0
 11
0.3057471942139998
 21
1.514036562990534
 31
0.0
  0
LINE
  5
D2C4
102
{ACAD_REACTORS
330
D2BD
102
}
330
D2BC
100
AcDbEntity
  8
BORDER
100
AcDbLine
 10
0.3057471942139998
 20
1.514036562990534
 30
0.0
 11
0.5675902292958491
 21
1.514036562990534
 31
0.0
  0
TEXT
  5
D2C5
330
D2BC
100
AcDbEntity
  8
BORDER
100
AcDbText
 10
4.3252720866744
 20
0.0894040491941448
 30
0.0
 40
0.285
  1
M
 41
1.3
  7
STYLE1
100
AcDbText
  0
HATCH
  5
D2C6
330
D2BC
100
AcDbEntity
  8
BORDER
100
AcDbHatch
 10
0.0
 20
0.0
 30
0.0
210
0.0
220
0.0
230
1.0
  2
ANSI31
 70
     0
 71
     1
 91
        2
 92
        7
 72
     1
 73
     1
 93
        7
 10
4.613061472142543
 20
1.150812264554938
 42
0.6909438751418885
 10
4.080216125046655
 20
0.8818297943702857
 42
0.6909438751418913
 10
4.613061472142545
 20
0.6128473241856352
 42
0.0
 10
4.613061472142547
 20
0.5528361987393922
 42
0.0
 10
4.850541574047026
 20
0.5528361987393949
 42
0.0
 10
4.850541574047026
 20
1.210823390001176
 42
0.0
 10
4.613061472142545
 20
1.210823390001175
 42
0.0
 97
        7
330
D30C
330
D30D
330
D2C9
330
D2C8
330
D308
330
D30B
330
D307
 92
       22
 72
     1
 73
     1
 93
        2
 10
4.614184606306464
 20
0.8818297943702857
 42
-1.0
 10
4.314004716591531
 20
0.8818297943702857
 42
-1.0
 97
        1
330
D2C7
 75
     0
 76
     1
 52
0.0
 41
0.01
 77
     0
 78
     1
 53
45.0
 43
-6.652936566196117
 44
-4.627344112226039
 45
-0.0008838834764832
 46
0.0008838834764832
 79
     0
 47
0.0025121746057047
 98
        2
 10
4.688530096888634
 20
1.078946274350886
 10
4.688530096888634
 20
1.078946274350886
  0
CIRCLE
  5
D2C7
102
{ACAD_REACTORS
330
D2C6
102
}
330
D2BC
100
AcDbEntity
  8
BORDER
100
AcDbCircle
 10
4.464094661448998
 20
0.8818297943702857
 30
0.0
 40
0.1500899448574664
  0
LWPOLYLINE
  5
D2C8
102
{ACAD_REACTORS
330
D2C6
102
}
330
D2BC
100
AcDbEntity
  8
BORDER
100
AcDbPolyline
 90
        2
 70
     0
 43
0.0
 10
4.613061472142545
 20
0.6128473241856352
 42
-0.6909438751418913
 10
4.080216125046655
 20
0.8818297943702857
 42
0.5048040142428894
  0
LWPOLYLINE
  5
D2C9
102
{ACAD_REACTORS
330
D2C6
102
}
330
D2BC
100
AcDbEntity
  8
BORDER
100
AcDbPolyline
 90
        2
 70
     0
 43
0.0
 10
4.613061472142545
 20
1.150812264554936
 42
0.6909438751418913
 10
4.080216125046655
 20
0.8818297943702857
 42
-0.5048040142428894
  0
HATCH
  5
D2CA
330
D2BC
100
AcDbEntity
  8
BORDER
100
AcDbHatch
 10
0.0
 20
0.0
 30
0.0
210
0.0
220
0.0
230
1.0
  2
ANSI31
 70
     0
 71
     1
 91
        1
 92
        7
 72
     1
 73
     1
 93
       12
 10
2.97068992403447
 20
0.8103116902278593
 42
-0.4200313539007589
 10
2.856642861657119
 20
0.7143926244696806
 42
-0.4200313539007589
 10
2.742595799279769
 20
0.8103116902278593
 42
0.0
 10
2.742595799279767
 20
1.210823390001177
 42
0.0
 10
2.505716249674239
 20
1.210823390001177
 42
0.0
 10
2.50571624967424
 20
0.7729010026872381
 42
0.3701462908613022
 10
2.781022933641443
 20
0.5282791289380518
 42
0.0
 10
2.856642861657119
 20
0.5282791289380518
 42
0.0
 10
2.932262789672844
 20
0.5282791289380518
 42
0.3701462908612548
 10
3.207569473639999
 20
0.7729010026872381
 42
0.0
 10
3.207569473639999
 20
1.210823390001176
 42
0.0
 10
2.970689924034468
 20
1.210823390001176
 42
0.0
 97
       12
330
D2F3
330
D2F4
330
D2F7
330
D2F6
330
D2F5
330
D2CD
330
D2E3
330
D2CB
330
D2F1
330
D2F2
330
D2EE
330
D2F8
 75
     0
 76
     1
 52
0.0
 41
0.01
 77
     0
 78
     1
 53
45.0
 43
-5.292718358303066
 44
-4.627344112226039
 45
-0.0008838834764832
 46
0.0008838834764832
 79
     0
 47
0.0018223849227092
 98
        1
 10
3.079720674334129
 20
1.01768437473231
  0
LWPOLYLINE
  5
D2CB
102
{ACAD_REACTORS
330
D2CA
102
}
330
D2BC
100
AcDbEntity
  8
BORDER
100
AcDbPolyline
 90
        2
 70
     0
 43
0.0
 10
2.50571624967424
 20
0.772901002687239
 42
0.3701462908612907
 10
2.78102293364143
 20
0.5282791289380518
 42
5.602276019182287
  0
TEXT
  5
D2CC
330
D2BC
100
AcDbEntity
  8
BORDER
100
AcDbText
 10
2.50374286057664
 20
0.0894040491941448
 30
0.0
 40
0.285
  1
O
 41
1.399999999999999
  7
STYLE1
100
AcDbText
  0
LINE
  5
D2CD
102
{ACAD_REACTORS
330
D2CA
102
}
330
D2BC
100
AcDbEntity
  8
BORDER
100
AcDbLine
 10
2.50571624967424
 20
1.210823390001177
 30
0.0
 11
2.742595799279769
 21
1.210823390001177
 31
0.0
  0
LWPOLYLINE
  5
D2CE
102
{ACAD_REACTORS
330
D2DB
102
}
330
D2BC
100
AcDbEntity
  8
BORDER
100
AcDbPolyline
 90
        2
 70
     0
 43
0.0
 10
2.191593377458525
 20
1.150812264554936
 42
0.6909438751418913
 10
1.658748030362636
 20
0.8818297943702857
 42
-0.5048040142428894
  0
LINE
  5
D2CF
102
{ACAD_REACTORS
330
D2BD
102
}
330
D2BC
100
AcDbEntity
  8
BORDER
100
AcDbLine
 10
0.9335203705914416
 20
1.514036562990534
 30
0.0
 11
0.7341514419333813
 21
0.8970869212779541
 31
0.0
  0
LINE
  5
D2D0
102
{ACAD_REACTORS
330
D2BD
102
}
330
D2BC
100
AcDbEntity
  8
BORDER
100
AcDbLine
 10
1.464828691310536
 20
0.5530349891830051
 30
0.0
 11
1.768980528548198
 21
1.514036562990534
 31
0.0
  0
LINE
  5
D2D1
102
{ACAD_REACTORS
330
D2BD
102
}
330
D2BC
100
AcDbEntity
  8
BORDER
100
AcDbLine
 10
1.506269940005861
 20
1.514036562990534
 30
0.0
 11
1.328349616277119
 21
0.8970869212779541
 31
0.0
  0
LINE
  5
D2D2
102
{ACAD_REACTORS
330
D2BD
102
}
330
D2BC
100
AcDbEntity
  8
BORDER
100
AcDbLine
 10
1.138345235758166
 20
1.514036562990534
 30
0.0
 11
1.328349616277119
 21
0.8970869212779541
 31
0.0
  0
LWPOLYLINE
  5
D2D3
102
{ACAD_REACTORS
330
D2DB
102
}
330
D2BC
100
AcDbEntity
  8
BORDER
100
AcDbPolyline
 90
        2
 70
     0
 43
0.0
 10
2.191593377458525
 20
0.6128473241856352
 42
-0.6909438751418913
 10
1.658748030362636
 20
0.8818297943702857
 42
0.5048040142428894
  0
TEXT
  5
D2D4
330
D2BC
100
AcDbEntity
  8
BORDER
100
AcDbText
 10
1.447760460210798
 20
0.0894040491941448
 30
0.0
 40
0.285
  1
E
 41
0.9699999999999999
  7
STYLE1
100
AcDbText
  0
LINE
  5
D2D5
102
{ACAD_REACTORS
330
D2BD
102
}
330
D2BC
100
AcDbEntity
  8
BORDER
100
AcDbLine
 10
0.8472337288600968
 20
0.5530349891830051
 30
0.0
 11
1.03125052910525
 21
1.109661654880212
 31
0.0
  0
LINE
  5
D2D6
102
{ACAD_REACTORS
330
D2BD
102
}
330
D2BC
100
AcDbEntity
  8
BORDER
100
AcDbLine
 10
1.215267329350403
 20
0.5530349891830051
 30
0.0
 11
1.03125052910525
 21
1.109661654880212
 31
0.0
  0
TEXT
  5
D2D7
330
D2BC
100
AcDbEntity
  8
BORDER
100
AcDbText
 10
0.9953918360299631
 20
0.0894040491941448
 30
0.0
 40
0.285
  1
E
 41
0.9699999999999999
  7
STYLE1
100
AcDbText
  0
LINE
  5
D2D8
102
{ACAD_REACTORS
330
D2C0
102
}
330
D2BC
100
AcDbEntity
  8
BORDER
100
AcDbLine
 10
0.9140940972618372
 20
0.2080208168615893
 30
0.0
 11
0.9140940972618372
 21
0.0910517863787828
 31
0.0
  0
TEXT
  5
D2D9
330
D2BC
100
AcDbEntity
  8
BORDER
100
AcDbText
 10
1.253230443386721
 20
0.0894040491941448
 30
0.0
 40
0.285
  1
L
 41
0.85
  7
STYLE1
100
AcDbText
  0
LINE
  5
D2DA
102
{ACAD_REACTORS
330
D2BD
102
}
330
D2BC
100
AcDbEntity
  8
BORDER
100
AcDbLine
 10
1.215267329350403
 20
0.5530349891830051
 30
0.0
 11
1.464828691310536
 21
0.5530349891830051
 31
0.0
  0
HATCH
  5
D2DB
330
D2BC
100
AcDbEntity
  8
BORDER
100
AcDbHatch
 10
0.0
 20
0.0
 30
0.0
210
0.0
220
0.0
230
1.0
  2
ANSI31
 70
     0
 71
     1
 91
        2
 92
        7
 72
     1
 73
     1
 93
        7
 10
2.191593377458524
 20
1.150812264554938
 42
0.6909438751418885
 10
1.658748030362636
 20
0.8818297943702857
 42
0.6909438751418913
 10
2.191593377458525
 20
0.6128473241856352
 42
0.0
 10
2.191593377458525
 20
0.5528361987393931
 42
0.0
 10
2.429073479363005
 20
0.552836198739394
 42
0.0
 10
2.429073479363007
 20
1.210823390001176
 42
0.0
 10
2.191593377458525
 20
1.210823390001176
 42
0.0
 97
        7
330
D2E4
330
D2E5
330
D2CE
330
D2D3
330
D2DD
330
D2E1
330
D2DC
 92
       22
 72
     1
 73
     1
 93
        2
 10
2.192716511622444
 20
0.8818297943702857
 42
-1.0
 10
1.892536621907511
 20
0.8818297943702857
 42
-1.0
 97
        1
330
D2E2
 75
     0
 76
     1
 52
0.0
 41
0.01
 77
     0
 78
     1
 53
45.0
 43
-9.074404660880137
 44
-4.627344112226039
 45
-0.0008838834764832
 46
0.0008838834764832
 79
     0
 47
0.0025121746057047
 98
        2
 10
2.267062002204614
 20
1.078946274350886
 10
2.267062002204614
 20
1.078946274350886
  0
LINE
  5
D2DC
102
{ACAD_REACTORS
330
D2DB
102
}
330
D2BC
100
AcDbEntity
  8
BORDER
100
AcDbLine
 10
2.429073479363006
 20
1.210823390001176
 30
0.0
 11
2.429073479363006
 21
0.552836198739394
 31
0.0
  0
LINE
  5
D2DD
102
{ACAD_REACTORS
330
D2DB
102
}
330
D2BC
100
AcDbEntity
  8
BORDER
100
AcDbLine
 10
2.191593377458525
 20
0.552836198739394
 30
0.0
 11
2.191593377458525
 21
0.6128473241856796
 31
0.0
  0
TEXT
  5
D2DE
330
D2BC
100
AcDbEntity
  8
BORDER
100
AcDbText
 10
1.976153170121573
 20
0.0894040491941448
 30
0.0
 40
0.285
  1
A
 41
1.199999999999999
  7
STYLE1
100
AcDbText
  0
TEXT
  5
D2DF
330
D2BC
100
AcDbEntity
  8
BORDER
100
AcDbText
 10
1.703258235700069
 20
0.0894040491941448
 30
0.0
 40
0.285
  1
V
 41
1.199999999999999
  7
STYLE1
100
AcDbText
  0
TEXT
  5
D2E0
330
D2BC
100
AcDbEntity
  8
BORDER
100
AcDbText
 10
2.281467630746153
 20
0.0894040491941448
 30
0.0
 40
0.285
  1
T
 41
0.9699999999999999
  7
STYLE1
100
AcDbText
  0
LINE
  5
D2E1
102
{ACAD_REACTORS
330
D2DB
102
}
330
D2BC
100
AcDbEntity
  8
BORDER
100
AcDbLine
 10
2.429073479363006
 20
0.552836198739394
 30
0.0
 11
2.191593377458524
 21
0.5528361987393931
 31
0.0
  0
CIRCLE
  5
D2E2
102
{ACAD_REACTORS
330
D2DB
102
}
330
D2BC
100
AcDbEntity
  8
BORDER
100
AcDbCircle
 10
2.042626566764978
 20
0.8818297943702857
 30
0.0
 40
0.1500899448574664
  0
LINE
  5
D2E3
102
{ACAD_REACTORS
330
D2CA
102
}
330
D2BC
100
AcDbEntity
  8
BORDER
100
AcDbLine
 10
2.50571624967424
 20
1.210823390001178
 30
0.0
 11
2.50571624967424
 21
0.772901002687239
 31
0.0
  0
LINE
  5
D2E4
102
{ACAD_REACTORS
330
D2DB
102
}
330
D2BC
100
AcDbEntity
  8
BORDER
100
AcDbLine
 10
2.429073479363006
 20
1.210823390001176
 30
0.0
 11
2.191593377458525
 21
1.210823390001176
 31
0.0
  0
LINE
  5
D2E5
102
{ACAD_REACTORS
330
D2DB
102
}
330
D2BC
100
AcDbEntity
  8
BORDER
100
AcDbLine
 10
2.191593377458525
 20
1.15081226455498
 30
0.0
 11
2.191593377458525
 21
1.210823390001176
 31
0.0
  0
LINE
  5
D2E6
102
{ACAD_REACTORS
330
D2BD
102
}
330
D2BC
100
AcDbEntity
  8
BORDER
100
AcDbLine
 10
1.50626994000586
 20
1.514036562990535
 30
0.0
 11
1.768980528548198
 21
1.514036562990534
 31
0.0
  0
LINE
  5
D2E7
102
{ACAD_REACTORS
330
D2BD
102
}
330
D2BC
100
AcDbEntity
  8
BORDER
100
AcDbLine
 10
0.9335203705914416
 20
1.514036562990535
 30
0.0
 11
1.138345235758165
 21
1.514036562990535
 31
0.0
  0
LINE
  5
D2E8
102
{ACAD_REACTORS
330
D2C0
102
}
330
D2BC
100
AcDbEntity
  8
BORDER
100
AcDbLine
 10
1.911491491027344
 20
1.33286586024981
 30
0.0
 11
2.028460521510151
 21
1.33286586024981
 31
0.0
  0
HATCH
  5
D2E9
330
D2BC
100
AcDbEntity
  8
BORDER
100
AcDbHatch
 10
0.0
 20
0.0
 30
0.0
210
0.0
220
0.0
230
1.0
  2
ANSI31
 70
     0
 71
     1
 91
        1
 92
        7
 72
     1
 73
     1
 93
       11
 10
3.511746224409179
 20
1.176745457618272
 42
0.0
 10
3.511746224409179
 20
1.210823390001175
 42
0.0
 10
3.283593305412015
 20
1.210823390001175
 42
0.0
 10
3.283593305412015
 20
0.2247896168944052
 42
0.0
 10
3.543552027320888
 20
0.2247896168944043
 42
0.0
 10
3.543552027320888
 20
0.7804715789202224
 42
0.0
 10
3.444471229704014
 20
0.7804715789202215
 42
0.0
 10
3.659452863703549
 20
1.067198966848452
 42
0.0
 10
3.86747457619468
 20
0.7804715789202224
 42
0.0
 10
3.772608220453182
 20
0.7804715789202224
 42
0.0
 10
3.772608220453182
 20
0.5359676872847592
 42
1.176376039828213
 97
       11
330
D2FA
330
D2F9
330
D2EF
330
D2EA
330
D2FB
330
D2EB
330
D2EC
330
D2FF
330
D300
330
D2FC
330
D2ED
 75
     0
 76
     1
 52
0.0
 41
0.01
 77
     0
 78
     1
 53
45.0
 43
-5.292718358303066
 44
-4.627344112226039
 45
-0.0008838834764832
 46
0.0008838834764832
 79
     0
 47
0.0065990708823471
 98
        1
 10
3.504721581375125
 20
1.07404813902949
  0
LINE
  5
D2EA
102
{ACAD_REACTORS
330
D2E9
102
}
330
D2BC
100
AcDbEntity
  8
BORDER
100
AcDbLine
 10
3.283593305412015
 20
0.2247896168944043
 30
0.0
 11
3.543552027320888
 21
0.2247896168944043
 31
0.0
  0
LINE
  5
D2EB
102
{ACAD_REACTORS
330
D2E9
102
}
330
D2BC
100
AcDbEntity
  8
BORDER
100
AcDbLine
 10
3.543552027320888
 20
0.7804715789202224
 30
0.0
 11
3.444471229704014
 21
0.7804715789202215
 31
0.0
  0
LINE
  5
D2EC
102
{ACAD_REACTORS
330
D2E9
102
}
330
D2BC
100
AcDbEntity
  8
BORDER
100
AcDbLine
 10
3.444471229704014
 20
0.7804715789202215
 30
0.0
 11
3.659452863703549
 21
1.067198966848452
 31
0.0
  0
LWPOLYLINE
  5
D2ED
102
{ACAD_REACTORS
330
D2E9
102
}
330
D2BC
100
AcDbEntity
  8
BORDER
100
AcDbPolyline
 90
        2
 70
     0
 43
0.0
 10
3.511746224409179
 20
1.17674545761826
 42
-1.176376039828327
 10
3.772608220453182
 20
0.5359676872847592
 42
0.421360934218637
  0
LWPOLYLINE
  5
D2EE
102
{ACAD_REACTORS
330
D2CA
102
}
330
D2BC
100
AcDbEntity
  8
BORDER
100
AcDbPolyline
 90
        2
 70
     0
 43
0.0
 10
3.207569473639999
 20
0.772901002687239
 42
-0.3701462908612907
 10
2.932262789672808
 20
0.5282791289380518
 42
-5.602276019182287
  0
LINE
  5
D2EF
102
{ACAD_REACTORS
330
D2E9
102
}
330
D2BC
100
AcDbEntity
  8
BORDER
100
AcDbLine
 10
3.283593305412015
 20
1.210823390001175
 30
0.0
 11
3.283593305412015
 21
0.2247896168944043
 31
0.0
  0
TEXT
  5
D2F0
330
D2BC
100
AcDbEntity
  8
BORDER
100
AcDbText
 10
2.932174126816903
 20
0.0894040491941448
 30
0.0
 40
0.285
  1
R
 41
0.9699999999999999
  7
STYLE1
100
AcDbText
  0
LINE
  5
D2F1
102
{ACAD_REACTORS
330
D2CA
102
}
330
D2BC
100
AcDbEntity
  8
BORDER
100
AcDbLine
 10
2.78102293364143
 20
0.5282791289380518
 30
0.0
 11
2.856642861657119
 21
0.5282791289380518
 31
0.0
  0
LINE
  5
D2F2
102
{ACAD_REACTORS
330
D2CA
102
}
330
D2BC
100
AcDbEntity
  8
BORDER
100
AcDbLine
 10
2.932262789672808
 20
0.5282791289380518
 30
0.0
 11
2.856642861657119
 21
0.5282791289380518
 31
0.0
  0
LINE
  5
D2F3
102
{ACAD_REACTORS
330
D2CA
102
}
330
D2BC
100
AcDbEntity
  8
BORDER
100
AcDbLine
 10
3.207569473639999
 20
1.210823390001177
 30
0.0
 11
2.97068992403447
 21
1.210823390001177
 31
0.0
  0
LINE
  5
D2F4
102
{ACAD_REACTORS
330
D2CA
102
}
330
D2BC
100
AcDbEntity
  8
BORDER
100
AcDbLine
 10
2.97068992403447
 20
1.210823390001177
 30
0.0
 11
2.97068992403447
 21
0.8103116902278602
 31
0.0
  0
LINE
  5
D2F5
102
{ACAD_REACTORS
330
D2CA
102
}
330
D2BC
100
AcDbEntity
  8
BORDER
100
AcDbLine
 10
2.742595799279769
 20
1.210823390001177
 30
0.0
 11
2.742595799279769
 21
0.8103116902278602
 31
0.0
  0
LWPOLYLINE
  5
D2F6
102
{ACAD_REACTORS
330
D2CA
102
}
330
D2BC
100
AcDbEntity
  8
BORDER
100
AcDbPolyline
 90
        2
 70
     0
 43
0.0
 10
2.742595799279769
 20
0.8103116902278602
 42
0.4200313539007612
 10
2.856642861657119
 20
0.7143926244696806
 42
11.58242317374937
  0
LWPOLYLINE
  5
D2F7
102
{ACAD_REACTORS
330
D2CA
102
}
330
D2BC
100
AcDbEntity
  8
BORDER
100
AcDbPolyline
 90
        2
 70
     0
 43
0.0
 10
2.97068992403447
 20
0.8103116902278602
 42
-0.4200313539007612
 10
2.856642861657119
 20
0.7143926244696806
 42
-11.58242317374937
  0
LINE
  5
D2F8
102
{ACAD_REACTORS
330
D2CA
102
}
330
D2BC
100
AcDbEntity
  8
BORDER
100
AcDbLine
 10
3.207569473639999
 20
1.210823390001178
 30
0.0
 11
3.207569473639999
 21
0.772901002687239
 31
0.0
  0
LINE
  5
D2F9
102
{ACAD_REACTORS
330
D2E9
102
}
330
D2BC
100
AcDbEntity
  8
BORDER
100
AcDbLine
 10
3.283593305412015
 20
1.210823390001174
 30
0.0
 11
3.511746224409179
 21
1.210823390001175
 31
0.0
  0
LINE
  5
D2FA
102
{ACAD_REACTORS
330
D2E9
102
}
330
D2BC
100
AcDbEntity
  8
BORDER
100
AcDbLine
 10
3.511746224409179
 20
1.210823390001175
 30
0.0
 11
3.511746224409179
 21
1.17674545761826
 31
0.0
  0
LINE
  5
D2FB
102
{ACAD_REACTORS
330
D2E9
102
}
330
D2BC
100
AcDbEntity
  8
BORDER
100
AcDbLine
 10
3.543552027320888
 20
0.2247896168944043
 30
0.0
 11
3.543552027320888
 21
0.7804715789202215
 31
0.0
  0
LINE
  5
D2FC
102
{ACAD_REACTORS
330
D2E9
102
}
330
D2BC
100
AcDbEntity
  8
BORDER
100
AcDbLine
 10
3.772608220453182
 20
0.7804715789202224
 30
0.0
 11
3.772608220453182
 21
0.5359676872847592
 31
0.0
  0
TEXT
  5
D2FD
330
D2BC
100
AcDbEntity
  8
BORDER
100
AcDbText
 10
3.927258038517418
 20
0.0894040491941448
 30
0.0
 40
0.285
  1
O
 41
1.399999999999999
  7
STYLE1
100
AcDbText
  0
TEXT
  5
D2FE
330
D2BC
100
AcDbEntity
  8
BORDER
100
AcDbText
 10
3.616382320200756
 20
0.0894040491941448
 30
0.0
 40
0.285
  1
C
 41
1.199999999999999
  7
STYLE1
100
AcDbText
  0
LINE
  5
D2FF
102
{ACAD_REACTORS
330
D2E9
102
}
330
D2BC
100
AcDbEntity
  8
BORDER
100
AcDbLine
 10
3.659452863703549
 20
1.067198966848452
 30
0.0
 11
3.867474576194682
 21
0.7804715789202215
 31
0.0
  0
LINE
  5
D300
102
{ACAD_REACTORS
330
D2E9
102
}
330
D2BC
100
AcDbEntity
  8
BORDER
100
AcDbLine
 10
3.867474576194684
 20
0.7804715789202224
 30
0.0
 11
3.772608220453182
 21
0.7804715789202224
 31
0.0
  0
LWPOLYLINE
  5
D301
102
{ACAD_REACTORS
330
D30F
102
}
330
D2BC
100
AcDbEntity
  8
BORDER
100
AcDbPolyline
 90
        2
 70
     0
 43
0.0
 10
5.973279680035597
 20
1.150812264554936
 42
0.6909438751418913
 10
5.440434332939707
 20
0.8818297943702857
 42
-0.5048040142428894
  0
TEXT
  5
D302
330
D2BC
100
AcDbEntity
  8
BORDER
100
AcDbText
 10
5.241307695552828
 20
0.0894040491941448
 30
0.0
 40
0.285
  1
N
 41
1.399999999999999
  7
STYLE1
100
AcDbText
  0
HATCH
  5
D303
330
D2BC
100
AcDbEntity
  8
BORDER
100
AcDbHatch
 10
0.0
 20
0.0
 30
0.0
210
0.0
220
0.0
230
1.0
  2
ANSI31
 70
     0
 71
     1
 91
        1
 92
        7
 72
     1
 73
     1
 93
        4
 10
5.406875676888972
 20
0.9985006720278359
 42
0.0
 10
5.406875676888972
 20
1.193069413294879
 42
1.650530424535229
 10
5.406875676888972
 20
0.561525602554343
 42
0.0
 10
5.406875676888972
 20
0.7610711911541639
 42
-2.336901821186075
 97
        4
330
D304
330
D30E
330
D305
330
D316
 75
     0
 76
     1
 52
0.0
 41
0.01
 77
     0
 78
     1
 53
45.0
 43
-5.292718358303066
 44
-4.627344112226039
 45
-0.0008838834764832
 46
0.0008838834764832
 79
     0
 47
0.0013045575780811
 98
        1
 10
5.314274491218899
 20
1.093733382300416
  0
LWPOLYLINE
  5
D304
102
{ACAD_REACTORS
330
D303
102
}
330
D2BC
100
AcDbEntity
  8
BORDER
100
AcDbPolyline
 90
        2
 70
     0
 43
0.0
 10
5.406875676888972
 20
1.193069413294879
 42
1.650530424535229
 10
5.406875676888972
 20
0.561525602554343
 42
0.5256020146743076
  0
LWPOLYLINE
  5
D305
102
{ACAD_REACTORS
330
D303
102
}
330
D2BC
100
AcDbEntity
  8
BORDER
100
AcDbPolyline
 90
        2
 70
     0
 43
0.0
 10
5.406875676888972
 20
0.9985006720278359
 42
2.336901821186075
 10
5.406875676888972
 20
0.7610711911541639
 42
-1.34460690001456
  0
LWPOLYLINE
  5
D306
102
{ACAD_REACTORS
330
D30F
102
}
330
D2BC
100
AcDbEntity
  8
BORDER
100
AcDbPolyline
 90
        2
 70
     0
 43
0.0
 10
5.973279680035597
 20
0.6128473241856352
 42
-0.6909438751418913
 10
5.440434332939707
 20
0.8818297943702857
 42
0.5048040142428894
  0
LINE
  5
D307
102
{ACAD_REACTORS
330
D2C6
102
}
330
D2BC
100
AcDbEntity
  8
BORDER
100
AcDbLine
 10
4.850541574047026
 20
1.210823390001176
 30
0.0
 11
4.850541574047026
 21
0.552836198739394
 31
0.0
  0
LINE
  5
D308
102
{ACAD_REACTORS
330
D2C6
102
}
330
D2BC
100
AcDbEntity
  8
BORDER
100
AcDbLine
 10
4.613061472142545
 20
0.552836198739394
 30
0.0
 11
4.613061472142545
 21
0.6128473241856796
 31
0.0
  0
TEXT
  5
D309
330
D2BC
100
AcDbEntity
  8
BORDER
100
AcDbText
 10
4.915806984056283
 20
0.0894040491941448
 30
0.0
 40
0.285
  1
A
 41
1.199999999999999
  7
STYLE1
100
AcDbText
  0
TEXT
  5
D30A
330
D2BC
100
AcDbEntity
  8
BORDER
100
AcDbText
 10
4.733771086927012
 20
0.0894040491941448
 30
0.0
 40
0.285
  1
P
 41
0.95
  7
STYLE1
100
AcDbText
  0
LINE
  5
D30B
102
{ACAD_REACTORS
330
D2C6
102
}
330
D2BC
100
AcDbEntity
  8
BORDER
100
AcDbLine
 10
4.850541574047026
 20
0.552836198739394
 30
0.0
 11
4.613061472142543
 21
0.5528361987393931
 31
0.0
  0
LINE
  5
D30C
102
{ACAD_REACTORS
330
D2C6
102
}
330
D2BC
100
AcDbEntity
  8
BORDER
100
AcDbLine
 10
4.850541574047026
 20
1.210823390001176
 30
0.0
 11
4.613061472142545
 21
1.210823390001176
 31
0.0
  0
LINE
  5
D30D
102
{ACAD_REACTORS
330
D2C6
102
}
330
D2BC
100
AcDbEntity
  8
BORDER
100
AcDbLine
 10
4.613061472142545
 20
1.15081226455498
 30
0.0
 11
4.613061472142545
 21
1.210823390001176
 31
0.0
  0
LINE
  5
D30E
102
{ACAD_REACTORS
330
D303
102
}
330
D2BC
100
AcDbEntity
  8
BORDER
100
AcDbLine
 10
5.406875676888972
 20
0.561525602554343
 30
0.0
 11
5.406875676888972
 21
0.761071191154187
 31
0.0
  0
HATCH
  5
D30F
330
D2BC
100
AcDbEntity
  8
BORDER
100
AcDbHatch
 10
0.0
 20
0.0
 30
0.0
210
0.0
220
0.0
230
1.0
  2
ANSI31
 70
     0
 71
     1
 91
        2
 92
        7
 72
     1
 73
     1
 93
        7
 10
6.210759781940078
 20
1.210823390001175
 42
0.0
 10
5.973279680035597
 20
1.210823390001177
 42
0.0
 10
5.973279680035597
 20
1.150812264554936
 42
0.6909438751418913
 10
5.440434332939707
 20
0.8818297943702857
 42
0.6909438751418913
 10
5.973279680035597
 20
0.6128473241856352
 42
0.0
 10
5.973279680035599
 20
0.5528361987393931
 42
0.0
 10
6.210759781940078
 20
0.5528361987393949
 42
0.0
 97
        7
330
D317
330
D318
330
D301
330
D306
330
D310
330
D313
330
D311
 92
       22
 72
     1
 73
     1
 93
        2
 10
5.974402814199516
 20
0.8818297943702857
 42
-1.0
 10
5.674222924484583
 20
0.8818297943702857
 42
-1.0
 97
        1
330
D315
 75
     0
 76
     1
 52
0.0
 41
0.01
 77
     0
 78
     1
 53
45.0
 43
-5.292718358303066
 44
-4.627344112226039
 45
-0.0008838834764832
 46
0.0008838834764832
 79
     0
 47
0.0025121746057047
 98
        2
 10
6.048748304781685
 20
1.078946274350886
 10
6.048748304781685
 20
1.078946274350886
  0
LINE
  5
D310
102
{ACAD_REACTORS
330
D30F
102
}
330
D2BC
100
AcDbEntity
  8
BORDER
100
AcDbLine
 10
5.973279680035597
 20
0.552836198739394
 30
0.0
 11
5.973279680035597
 21
0.6128473241856796
 31
0.0
  0
LINE
  5
D311
102
{ACAD_REACTORS
330
D30F
102
}
330
D2BC
100
AcDbEntity
  8
BORDER
100
AcDbLine
 10
6.210759781940078
 20
1.210823390001176
 30
0.0
 11
6.210759781940078
 21
0.552836198739394
 31
0.0
  0
TEXT
  5
D312
330
D2BC
100
AcDbEntity
  8
BORDER
100
AcDbText
 10
5.62148292330966
 20
0.0894040491941448
 30
0.0
 40
0.285
  1
Y
  7
STYLE1
100
AcDbText
  0
LINE
  5
D313
102
{ACAD_REACTORS
330
D30F
102
}
330
D2BC
100
AcDbEntity
  8
BORDER
100
AcDbLine
 10
6.210759781940078
 20
0.552836198739394
 30
0.0
 11
5.973279680035595
 21
0.5528361987393931
 31
0.0
  0
TEXT
  5
D314
330
D2BC
100
AcDbEntity
  8
BORDER
100
AcDbText
 10
5.928229672617966
 20
0.3716965974513329
 30
0.0
 40
0.07125
  1
TM
 41
1.1
  7
STYLE1
100
AcDbText
  0
CIRCLE
  5
D315
102
{ACAD_REACTORS
330
D30F
102
}
330
D2BC
100
AcDbEntity
  8
BORDER
100
AcDbCircle
 10
5.824312869342049
 20
0.8818297943702857
 30
0.0
 40
0.1500899448574664
  0
LINE
  5
D316
102
{ACAD_REACTORS
330
D303
102
}
330
D2BC
100
AcDbEntity
  8
BORDER
100
AcDbLine
 10
5.406875676888972
 20
0.998500672027859
 30
0.0
 11
5.406875676888972
 21
1.193069413294879
 31
0.0
  0
LINE
  5
D317
102
{ACAD_REACTORS
330
D30F
102
}
330
D2BC
100
AcDbEntity
  8
BORDER
100
AcDbLine
 10
6.210759781940078
 20
1.210823390001176
 30
0.0
 11
5.973279680035597
 21
1.210823390001176
 31
0.0
  0
LINE
  5
D318
102
{ACAD_REACTORS
330
D30F
102
}
330
D2BC
100
AcDbEntity
  8
BORDER
100
AcDbLine
 10
5.973279680035597
 20
1.15081226455498
 30
0.0
 11
5.973279680035597
 21
1.210823390001176
 31
0.0
  0
ENDBLK
  5
D31A
330
D2BC
100
AcDbEntity
  8
0
100
AcDbBlockEnd
  0
BLOCK
  5
D34D
330
D31B
100
AcDbEntity
  8
0
100
AcDbBlockBegin
  2
A$C45FA2CBB
 70
     2
 10
0.0
 20
0.0
 30
0.0
  3
A$C45FA2CBB
  1

  0
ATTDEF
  5
D31C
330
D31B
100
AcDbEntity
  8
BORDER
100
AcDbText
 10
2.602259108042209
 20
1.152207951334488
 30
0.0
 40
0.0778305
  1

  7
STYLE1
 72
     1
 11
2.602259108042209
 21
1.191123201334488
 31
0.0
100
AcDbAttributeDefinition
280
     0
  3
ELEVATOR CONTRACTOR
  2
NAME
 70
     0
 74
     2
280
     0
  0
ATTDEF
  5
D31D
330
D31B
100
AcDbEntity
  8
BORDER
100
AcDbText
 10
1.42748491402852
 20
0.9616283846896434
 30
0.0
 40
0.0778305
  1

  7
STYLE1
 72
     1
 11
1.42748491402852
 21
1.000543634689643
 31
0.0
100
AcDbAttributeDefinition
280
     0
  3
JOB NAME
  2
NAME
 70
     0
 74
     2
280
     0
  0
ATTDEF
  5
D31E
330
D31B
100
AcDbEntity
  8
BORDER
100
AcDbText
 10
3.385018844706094
 20
0.9616283846896434
 30
0.0
 40
0.0778305
  1

  7
STYLE1
 72
     1
 11
3.385018844706094
 21
1.000543634689643
 31
0.0
100
AcDbAttributeDefinition
280
     0
  3
ORDER NUMBER
  2
000000
 70
     0
 74
     2
280
     0
  0
ATTDEF
  5
D31F
330
D31B
100
AcDbEntity
  8
BORDER
100
AcDbText
 10
0.3702518885642885
 20
0.0421102961156979
 30
0.0
 40
0.0778305
  1

  7
STYLE1
 72
     1
 11
0.3702518885642885
 21
0.0810255461156979
 31
0.0
100
AcDbAttributeDefinition
280
     0
  3
DRAWN BY:
  2
MLK.
 70
     0
 74
     2
280
     0
  0
ATTDEF
  5
D320
330
D31B
100
AcDbEntity
  8
BORDER
100
AcDbText
 10
0.9882669056348643
 20
0.0421102961156979
 30
0.0
 40
0.0778305
  1

  7
STYLE1
 72
     1
 11
0.9882669056348643
 21
0.0810255461156979
 31
0.0
100
AcDbAttributeDefinition
280
     0
  3
DATE:
  2
00/00/00
 70
     0
 74
     2
280
     0
  0
ATTDEF
  5
D321
330
D31B
100
AcDbEntity
  8
BORDER
100
AcDbText
 10
1.795086183149413
 20
0.7140110640229583
 30
0.0
 40
0.11
  1

  7
STYLE1
 72
     1
 11
1.795086183149413
 21
0.7690110640229584
 31
0.0
100
AcDbAttributeDefinition
280
     0
  3
TITLE BLOCK 1ST LINE
  2
NAME
 70
     0
 74
     2
280
     0
  0
ATTDEF
  5
D322
330
D31B
100
AcDbEntity
  8
BORDER
100
AcDbText
 10
1.795086183149413
 20
0.4091644631502855
 30
0.0
 40
0.11
  1

  7
STYLE1
 72
     1
 11
1.795086183149413
 21
0.4641644631502855
 31
0.0
100
AcDbAttributeDefinition
280
     0
  3
TITLE BLOCK 2ND LINE
  2
NAME
 70
     0
 74
     2
280
     0
  0
ATTDEF
  5
D323
330
D31B
100
AcDbEntity
  8
BORDER
100
AcDbText
 10
3.170227345187038
 20
0.1107312090050261
 30
0.0
 40
0.1
  1

  7
STYLE1
 72
     4
 11
3.170227345187038
 21
0.1107312090050261
 31
0.0
100
AcDbAttributeDefinition
280
     0
  3
DRAWING NUMBER
  2
C-003015
 70
     0
280
     0
  0
ARC
  5
D324
330
D31B
100
AcDbEntity
  8
BORDER
100
AcDbCircle
 10
0.4316347015782629
 20
1.774995508309271
 30
0.0
 40
0.4226412776318015
100
AcDbArc
 50
21.38648137766207
 51
175.9212681707675
  0
ARC
  5
D325
330
D31B
100
AcDbEntity
  8
BORDER
100
AcDbCircle
 10
0.4316347015782629
 20
1.774995508309271
 30
0.0
 40
0.4302802514480037
100
AcDbArc
 50
22.08221518144672
 51
175.9576513202748
  0
INSERT
  5
D326
330
D31B
100
AcDbEntity
  8
BORDER
100
AcDbBlockReference
  2
A$C5E6C7229
 10
0.0480674510856414
 20
1.359700692583424
 30
0.0
 41
0.37372406352327
 42
0.37372406352327
 43
0.37372406352327
  0
TEXT
  5
D327
330
D31B
100
AcDbEntity
  8
BORDER
100
AcDbText
 10
0.0318892695947266
 20
1.152207951334488
 30
0.0
 40
0.0778305
  1
DUMBWAITER CONTRACTOR:
  7
STYLE1
 11
0.0318892695947266
 21
1.191123201334488
 31
0.0
100
AcDbText
 73
     2
  0
LINE
  5
D328
330
D31B
100
AcDbEntity
  8
BORDER
100
AcDbLine
 10
0.0100638669369282
 20
0.9090733382751459
 30
0.0
 11
2.221144700747489
 21
0.9090733382751441
 31
0.0
  0
LINE
  5
D329
330
D31B
100
AcDbEntity
  8
BORDER
100
AcDbLine
 10
0.0100638669369282
 20
1.092013931104141
 30
0.0
 11
2.221144700747489
 21
1.092013931104141
 31
0.0
  0
LINE
  5
D32A
330
D31B
100
AcDbEntity
  8
BORDER
100
AcDbLine
 10
2.7693387165717
 20
0.3241021888980979
 30
0.0
 11
1.246093901078074
 21
0.3241021888980979
 31
0.0
  0
LINE
  5
D32B
330
D31B
100
AcDbEntity
  8
BORDER
100
AcDbLine
 10
0.0100638669369282
 20
1.282593497748986
 30
0.0
 11
3.5801084993619
 21
1.282593497748986
 31
0.0
  0
LINE
  5
D32C
330
D31B
100
AcDbEntity
  8
BORDER
100
AcDbLine
 10
0.0100638669369282
 20
1.290232471564836
 30
0.0
 11
3.5801084993619
 21
1.290232471564836
 31
0.0
  0
LINE
  5
D32D
330
D31B
100
AcDbEntity
  8
BORDER
100
AcDbLine
 10
0.0024248931209137
 20
-0.0000000014784352
 30
0.0
 11
3.5801084993619
 21
-0.0000000014784369
 31
0.0
  0
LINE
  5
D32E
330
D31B
100
AcDbEntity
  8
BORDER
100
AcDbLine
 10
0.0100638669369282
 20
1.099652904919991
 30
0.0
 11
3.5801084993619
 21
1.099652904919991
 31
0.0
  0
LINE
  5
D32F
330
D31B
100
AcDbEntity
  8
BORDER
100
AcDbLine
 10
0.0100638669369282
 20
0.9014343644592948
 30
0.0
 11
3.5801084993619
 21
0.9014343644592948
 31
0.0
  0
LINE
  5
D330
330
D31B
100
AcDbEntity
  8
BORDER
100
AcDbLine
 10
3.580108499361903
 20
0.3317411627139482
 30
0.0
 11
0.0100638669369282
 21
0.331741162713949
 31
0.0
  0
LINE
  5
D331
330
D31B
100
AcDbEntity
  8
BORDER
100
AcDbLine
 10
0.8303519033588688
 20
1.936753623377422
 30
0.0
 11
3.580108499361903
 21
1.936753623377424
 31
0.0
  0
LINE
  5
D332
330
D31B
100
AcDbEntity
  8
BORDER
100
AcDbLine
 10
0.825173695653822
 20
1.929114649561225
 30
0.0
 11
3.580108499361903
 21
1.929114649561181
 31
0.0
  0
TEXT
  5
D333
330
D31B
100
AcDbEntity
  8
BORDER
100
AcDbText
 10
1.421047891362404
 20
0.2292125692573034
 30
0.0
 40
0.066
  1
%%USIGNATURE OF APPROVAL%%u
 41
0.95
  7
STYLE1
 72
     1
 11
2.007716308824887
 21
0.2622125692573034
 31
0.0
100
AcDbText
 73
     2
  0
LINE
  5
D334
330
D31B
100
AcDbEntity
  8
BORDER
100
AcDbLine
 10
0.0100638669369282
 20
0.331741162713949
 30
0.0
 11
0.0100638669369282
 21
0.9014343644592948
 31
0.0
  0
LINE
  5
D335
330
D31B
100
AcDbEntity
  8
BORDER
100
AcDbLine
 10
0.0024248931209137
 20
-0.0000000014784352
 30
0.0
 11
0.0024248931209137
 21
1.805327588853837
 31
0.0
  0
LINE
  5
D336
330
D31B
100
AcDbEntity
  8
BORDER
100
AcDbLine
 10
0.7304399101916541
 20
0.3241021888980979
 30
0.0
 11
0.0100638669369282
 21
0.3241021888980988
 31
0.0
  0
TEXT
  5
D337
330
D31B
100
AcDbEntity
  8
BORDER
100
AcDbText
 10
0.0545499320499637
 20
0.2041613913039649
 30
0.0
 40
0.0778305
  1
DRAWN BY:
  7
STYLE1
 72
     1
 11
0.3702518885642885
 21
0.2430766413039649
 31
0.0
100
AcDbText
 73
     2
  0
LINE
  5
D338
330
D31B
100
AcDbEntity
  8
BORDER
100
AcDbLine
 10
0.0100638669369282
 20
-0.0000000014784352
 30
0.0
 11
0.0100638669369282
 21
0.3241021888980979
 31
0.0
  0
LINE
  5
D339
330
D31B
100
AcDbEntity
  8
BORDER
100
AcDbLine
 10
1.238454927262226
 20
0.3241021888980979
 30
0.0
 11
0.7380788840075017
 21
0.3241021888980979
 31
0.0
  0
TEXT
  5
D33A
330
D31B
100
AcDbEntity
  8
BORDER
100
AcDbText
 10
0.8235539955052598
 20
0.2041613913039649
 30
0.0
 40
0.0778305
  1
DATE:
  7
STYLE1
 72
     1
 11
0.9882669056348643
 21
0.2430766413039649
 31
0.0
100
AcDbText
 73
     2
  0
LINE
  5
D33B
330
D31B
100
AcDbEntity
  8
BORDER
100
AcDbLine
 10
0.7304399101916506
 20
0.3241021888980988
 30
0.0
 11
0.7304399101916506
 21
-0.000000001478436
 31
0.0
  0
LINE
  5
D33C
330
D31B
100
AcDbEntity
  8
BORDER
100
AcDbLine
 10
0.7380788840075017
 20
0.3241021888980988
 30
0.0
 11
0.7380788840075017
 21
-0.000000001478436
 31
0.0
  0
LINE
  5
D33D
330
D31B
100
AcDbEntity
  8
BORDER
100
AcDbLine
 10
1.246093901078074
 20
0.3241021888980988
 30
0.0
 11
1.246093901078074
 21
-0.000000001478436
 31
0.0
  0
LINE
  5
D33E
330
D31B
100
AcDbEntity
  8
BORDER
100
AcDbLine
 10
1.238454927262226
 20
0.3241021888980988
 30
0.0
 11
1.238454927262226
 21
-0.000000001478436
 31
0.0
  0
LINE
  5
D33F
330
D31B
100
AcDbEntity
  8
BORDER
100
AcDbLine
 10
0.01006386693693
 20
1.099652904919991
 30
0.0
 11
0.01006386693693
 21
1.805056794676477
 31
0.0
  0
TEXT
  5
D340
330
D31B
100
AcDbEntity
  8
BORDER
100
AcDbText
 10
0.0318892695947266
 20
0.9616283846896434
 30
0.0
 40
0.0778305
  1
JOB NAME:
  7
STYLE1
 11
0.0318892695947266
 21
1.000543634689643
 31
0.0
100
AcDbText
 73
     2
  0
LINE
  5
D341
330
D31B
100
AcDbEntity
  8
BORDER
100
AcDbLine
 10
0.0100638669369282
 20
0.9090733382751468
 30
0.0
 11
0.01006386693693
 21
1.092013931104141
 31
0.0
  0
LINE
  5
D342
330
D31B
100
AcDbEntity
  8
BORDER
100
AcDbLine
 10
2.228783674563343
 20
0.9090733382751441
 30
0.0
 11
3.5801084993619
 21
0.9090733382751459
 31
0.0
  0
LINE
  5
D343
330
D31B
100
AcDbEntity
  8
BORDER
100
AcDbLine
 10
2.228783674563343
 20
1.092013931104141
 30
0.0
 11
3.5801084993619
 21
1.092013931104141
 31
0.0
  0
MTEXT
  5
D344
330
D31B
100
AcDbEntity
  8
BORDER
100
AcDbMText
 10
2.982225244568679
 20
1.609673560563016
 30
0.0
 40
0.066
 41
1.730938253798231
 46
0.0
 71
     5
 72
     5
  1
1726 North Ballard Road\PAppleton, WI 54911\PPhone: 800-238-8739
  7
STYLE1
 73
     1
 44
1.0
  0
LINE
  5
D345
330
D31B
100
AcDbEntity
  8
BORDER
100
AcDbLine
 10
3.580108499361903
 20
0.3241021888980979
 30
0.0
 11
2.776977690387552
 21
0.3241021888980979
 31
0.0
  0
TEXT
  5
D346
330
D31B
100
AcDbEntity
  8
BORDER
100
AcDbText
 10
2.797966832567338
 20
0.221125390050917
 30
0.0
 40
0.066
  1
DWG. NO.
  7
STYLE1
 11
2.797966832567338
 21
0.254125390050917
 31
0.0
100
AcDbText
 73
     2
  0
LINE
  5
D347
330
D31B
100
AcDbEntity
  8
BORDER
100
AcDbLine
 10
2.7693387165717
 20
0.3241021888980979
 30
0.0
 11
2.7693387165717
 21
-0.0000000014784352
 31
0.0
  0
LINE
  5
D348
330
D31B
100
AcDbEntity
  8
BORDER
100
AcDbLine
 10
2.776977690387548
 20
0.3241021888980979
 30
0.0
 11
2.776977690387552
 21
-0.0000000014784352
 31
0.0
  0
TEXT
  5
D349
330
D31B
100
AcDbEntity
  8
BORDER
100
AcDbText
 10
2.242969523303569
 20
0.9616283846896434
 30
0.0
 40
0.0778305
  1
ORDER NUMBER:
  7
STYLE1
 11
2.242969523303569
 21
1.000543634689643
 31
0.0
100
AcDbText
 73
     2
  0
LINE
  5
D34A
330
D31B
100
AcDbEntity
  8
BORDER
100
AcDbLine
 10
2.228783674563343
 20
0.9090733382751459
 30
0.0
 11
2.228783674563343
 21
1.092013931104141
 31
0.0
  0
LINE
  5
D34B
330
D31B
100
AcDbEntity
  8
BORDER
100
AcDbLine
 10
2.221144700747492
 20
0.9090733382751459
 30
0.0
 11
2.221144700747492
 21
1.092013931104141
 31
0.0
  0
LINE
  5
D34C
330
D31B
100
AcDbEntity
  8
BORDER
100
AcDbLine
 10
3.5801084993619
 20
-0.0000000014784369
 30
0.0
 11
3.580108499361903
 21
1.936753623377424
 31
0.0
  0
ENDBLK
  5
D34E
330
D31B
100
AcDbEntity
  8
0
100
AcDbBlockEnd
  0
BLOCK
  5
13360
330
1335F
100
AcDbEntity
  8
0
100
AcDbBlockBegin
  2
*D83
 70
     1
 10
0.0
 20
0.0
 30
0.0
  3
*D83
  1

  0
LINE
  5
14190
330
1335F
100
AcDbEntity
  8
DIM
 62
     0
440
 16777216
370
    -2
100
AcDbLine
 10
267.6570168902332
 20
147.3385614390876
 30
0.0
 11
252.4962820175467
 21
147.3385614390876
 31
0.0
  0
LINE
  5
14191
330
1335F
100
AcDbEntity
  8
DIM
 62
     0
440
 16777216
370
    -2
100
AcDbLine
 10
267.6570168902332
 20
127.3385614390876
 30
0.0
 11
252.4962820175467
 21
127.3385614390876
 31
0.0
  0
LINE
  5
14192
330
1335F
100
AcDbEntity
  8
DIM
 62
     0
440
 16777216
370
    -2
100
AcDbLine
 10
252.9337820175467
 20
146.0785614390876
 30
0.0
 11
252.9337820175467
 21
142.3371293231549
 31
0.0
  0
LINE
  5
14193
330
1335F
100
AcDbEntity
  8
DIM
 62
     0
440
 16777216
370
    -2
100
AcDbLine
 10
252.9337820175467
 20
128.5985614390876
 30
0.0
 11
252.9337820175467
 21
132.5389698139525
 31
0.0
  0
SOLID
  5
14194
330
1335F
100
AcDbEntity
  8
DIM
 62
     0
440
 16777216
100
AcDbTrace
 10
252.7237820175467
 20
146.0785614390876
 30
0.0
 11
253.1437820175467
 21
146.0785614390876
 31
0.0
 12
252.9337820175467
 22
147.3385614390876
 32
0.0
 13
252.9337820175467
 23
147.3385614390876
 33
0.0
  0
SOLID
  5
14195
330
1335F
100
AcDbEntity
  8
DIM
 62
     0
440
 16777216
100
AcDbTrace
 10
252.7237820175467
 20
128.5985614390876
 30
0.0
 11
253.1437820175467
 21
128.5985614390876
 31
0.0
 12
252.9337820175467
 22
127.3385614390876
 32
0.0
 13
252.9337820175467
 23
127.3385614390876
 33
0.0
  0
MTEXT
  5
14196
330
1335F
100
AcDbEntity
  8
DIM
 62
     0
440
 16777216
100
AcDbMText
 10
252.9337820175467
 20
137.4380495685537
 30
0.0
 40
1.26
 41
0.0
 46
0.0
 71
     5
 72
     1
  1
\A1;{\fSegoe Print|b0|i0|c0|p2;CLEAR CAR\PINSIDE\P}20"\P\f\P [;[508.00]\f]
  7
ROMANS
 73
     1
 44
1.0
  0
POINT
  5
14197
330
1335F
100
AcDbEntity
  8
DEFPOINTS
 62
     0
440
 16777216
100
AcDbPoint
 10
268.0945168902332
 20
147.3385614390876
 30
0.0
  0
POINT
  5
14198
330
1335F
100
AcDbEntity
  8
DEFPOINTS
 62
     0
440
 16777216
100
AcDbPoint
 10
268.0945168902332
 20
127.3385614390876
 30
0.0
  0
POINT
  5
14199
330
1335F
100
AcDbEntity
  8
DEFPOINTS
 62
     0
440
 16777216
100
AcDbPoint
 10
252.9337820175467
 20
127.3385614390876
 30
0.0
  0
ENDBLK
  5
13361
330
1335F
100
AcDbEntity
  8
0
100
AcDbBlockEnd
  0
BLOCK
  5
1374B
330
1374A
100
AcDbEntity
  8
0
100
AcDbBlockBegin
  2
*D84
 70
     1
 10
0.0
 20
0.0
 30
0.0
  3
*D84
  1

  0
LINE
  5
1419A
330
1374A
100
AcDbEntity
  8
DIM
 62
     0
440
 16777216
370
    -2
100
AcDbLine
 10
268.0945168902332
 20
148.7760614390875
 30
0.0
 11
268.0945168902332
 21
164.5766126822889
 31
0.0
  0
LINE
  5
1419B
330
1374A
100
AcDbEntity
  8
DIM
 62
     0
440
 16777216
370
    -2
100
AcDbLine
 10
288.0945168902331
 20
148.7760614390875
 30
0.0
 11
288.0945168902331
 21
164.5766126822889
 31
0.0
  0
LINE
  5
1419C
330
1374A
100
AcDbEntity
  8
DIM
 62
     0
440
 16777216
370
    -2
100
AcDbLine
 10
269.3545168902331
 20
164.1391126822889
 30
0.0
 11
271.4500863121434
 21
164.1391126822889
 31
0.0
  0
LINE
  5
1419D
330
1374A
100
AcDbEntity
  8
DIM
 62
     0
440
 16777216
370
    -2
100
AcDbLine
 10
286.8345168902331
 20
164.1391126822889
 30
0.0
 11
285.0100863121434
 21
164.1391126822889
 31
0.0
  0
SOLID
  5
1419E
330
1374A
100
AcDbEntity
  8
DIM
 62
     0
440
 16777216
100
AcDbTrace
 10
269.3545168902331
 20
164.3491126822889
 30
0.0
 11
269.3545168902331
 21
163.9291126822889
 31
0.0
 12
268.0945168902332
 22
164.1391126822889
 32
0.0
 13
268.0945168902332
 23
164.1391126822889
 33
0.0
  0
SOLID
  5
1419F
330
1374A
100
AcDbEntity
  8
DIM
 62
     0
440
 16777216
100
AcDbTrace
 10
286.8345168902331
 20
164.3491126822889
 30
0.0
 11
286.8345168902331
 21
163.9291126822889
 31
0.0
 12
288.0945168902331
 22
164.1391126822889
 32
0.0
 13
288.0945168902331
 23
164.1391126822889
 33
0.0
  0
MTEXT
  5
141A0
330
1374A
100
AcDbEntity
  8
DIM
 62
     0
440
 16777216
100
AcDbMText
 10
278.2300863121434
 20
164.1391126822889
 30
0.0
 40
1.26
 41
0.0
 46
0.0
 71
     5
 72
     1
  1
\A1;{\fSegoe Print|b0|i0|c0|p2;CLEAR CAR \PINSIDE}\P20" [508.00]
  7
ROMANS
 73
     1
 44
1.0
  0
POINT
  5
141A1
330
1374A
100
AcDbEntity
  8
DEFPOINTS
 62
     0
440
 16777216
100
AcDbPoint
 10
268.0945168902332
 20
148.3385614390875
 30
0.0
  0
POINT
  5
141A2
330
1374A
100
AcDbEntity
  8
DEFPOINTS
 62
     0
440
 16777216
100
AcDbPoint
 10
288.0945168902331
 20
148.3385614390875
 30
0.0
  0
POINT
  5
141A3
330
1374A
100
AcDbEntity
  8
DEFPOINTS
 62
     0
440
 16777216
100
AcDbPoint
 10
288.0945168902331
 20
164.1391126822889
 30
0.0
  0
ENDBLK
  5
1374C
330
1374A
100
AcDbEntity
  8
0
100
AcDbBlockEnd
  0
BLOCK
  5
13836
330
13835
100
AcDbEntity
  8
0
100
AcDbBlockBegin
  2
*D85
 70
     1
 10
0.0
 20
0.0
 30
0.0
  3
*D85
  1

  0
LINE
  5
141A4
330
13835
100
AcDbEntity
  8
DIM
 62
     0
440
 16777216
370
    -2
100
AcDbLine
 10
296.0320168902332
 20
147.3385614390875
 30
0.0
 11
305.9058519269652
 21
147.3385614390875
 31
0.0
  0
LINE
  5
141A5
330
13835
100
AcDbEntity
  8
DIM
 62
     0
440
 16777216
370
    -2
100
AcDbLine
 10
291.5320168902331
 20
150.8385614390875
 30
0.0
 11
305.9058519269652
 21
150.8385614390875
 31
0.0
  0
LINE
  5
141A6
330
13835
100
AcDbEntity
  8
DIM
 62
     0
440
 16777216
370
    -2
100
AcDbLine
 10
305.4683519269652
 20
146.0785614390875
 30
0.0
 11
305.4683519269652
 21
144.8185614390875
 31
0.0
  0
LINE
  5
141A7
330
13835
100
AcDbEntity
  8
DIM
 62
     0
440
 16777216
370
    -2
100
AcDbLine
 10
305.4683519269652
 20
152.0985614390875
 30
0.0
 11
305.4683519269652
 21
153.3585614390875
 31
0.0
  0
SOLID
  5
141A8
330
13835
100
AcDbEntity
  8
DIM
 62
     0
440
 16777216
100
AcDbTrace
 10
305.2583519269652
 20
146.0785614390875
 30
0.0
 11
305.6783519269652
 21
146.0785614390875
 31
0.0
 12
305.4683519269652
 22
147.3385614390875
 32
0.0
 13
305.4683519269652
 23
147.3385614390875
 33
0.0
  0
SOLID
  5
141A9
330
13835
100
AcDbEntity
  8
DIM
 62
     0
440
 16777216
100
AcDbTrace
 10
305.2583519269652
 20
152.0985614390875
 30
0.0
 11
305.6783519269652
 21
152.0985614390875
 31
0.0
 12
305.4683519269652
 22
150.8385614390875
 32
0.0
 13
305.4683519269652
 23
150.8385614390875
 33
0.0
  0
MTEXT
  5
141AA
330
13835
100
AcDbEntity
  8
DIM
 62
     0
440
 16777216
100
AcDbMText
 10
305.4683519269652
 20
149.0885614390876
 30
0.0
 40
1.26
 41
0.0
 46
0.0
 71
     5
 72
     1
  1
\A1;3 1/2" [88.90]
  7
ROMANS
 73
     1
 44
1.0
  0
POINT
  5
141AB
330
13835
100
AcDbEntity
  8
DEFPOINTS
 62
     0
440
 16777216
100
AcDbPoint
 10
295.5945168902332
 20
147.3385614390875
 30
0.0
  0
POINT
  5
141AC
330
13835
100
AcDbEntity
  8
DEFPOINTS
 62
     0
440
 16777216
100
AcDbPoint
 10
291.0945168902332
 20
150.8385614390875
 30
0.0
  0
POINT
  5
141AD
330
13835
100
AcDbEntity
  8
DEFPOINTS
 62
     0
440
 16777216
100
AcDbPoint
 10
305.4683519269652
 20
150.8385614390875
 30
0.0
  0
ENDBLK
  5
13837
330
13835
100
AcDbEntity
  8
0
100
AcDbBlockEnd
  0
BLOCK
  5
13862
330
13861
100
AcDbEntity
  8
0
100
AcDbBlockBegin
  2
*D86
 70
     1
 10
0.0
 20
0.0
 30
0.0
  3
*D86
  1

  0
LINE
  5
141AE
330
13861
100
AcDbEntity
  8
DIM
 62
     0
440
 16777216
370
    -2
100
AcDbLine
 10
296.0320168902331
 20
127.3385614390876
 30
0.0
 11
305.9058519269651
 21
127.3385614390876
 31
0.0
  0
LINE
  5
141AF
330
13861
100
AcDbEntity
  8
DIM
 62
     0
440
 16777216
370
    -2
100
AcDbLine
 10
296.0320168902332
 20
147.3385614390875
 30
0.0
 11
305.9058519269652
 21
147.3385614390875
 31
0.0
  0
LINE
  5
141B0
330
13861
100
AcDbEntity
  8
DIM
 62
     0
440
 16777216
370
    -2
100
AcDbLine
 10
305.4683519269652
 20
128.5985614390876
 30
0.0
 11
305.4683519269652
 21
132.4192976354065
 31
0.0
  0
LINE
  5
141B1
330
13861
100
AcDbEntity
  8
DIM
 62
     0
440
 16777216
370
    -2
100
AcDbLine
 10
305.4683519269652
 20
146.0785614390875
 30
0.0
 11
305.4683519269652
 21
142.2578252427685
 31
0.0
  0
SOLID
  5
141B2
330
13861
100
AcDbEntity
  8
DIM
 62
     0
440
 16777216
100
AcDbTrace
 10
305.2583519269652
 20
128.5985614390876
 30
0.0
 11
305.6783519269652
 21
128.5985614390876
 31
0.0
 12
305.4683519269652
 22
127.3385614390876
 32
0.0
 13
305.4683519269652
 23
127.3385614390876
 33
0.0
  0
SOLID
  5
141B3
330
13861
100
AcDbEntity
  8
DIM
 62
     0
440
 16777216
100
AcDbTrace
 10
305.2583519269652
 20
146.0785614390875
 30
0.0
 11
305.6783519269652
 21
146.0785614390875
 31
0.0
 12
305.4683519269652
 22
147.3385614390875
 32
0.0
 13
305.4683519269652
 23
147.3385614390875
 33
0.0
  0
MTEXT
  5
141B4
330
13861
100
AcDbEntity
  8
DIM
 62
     0
440
 16777216
100
AcDbMText
 10
305.4683519269652
 20
137.3385614390876
 30
0.0
 40
1.26
 41
0.0
 46
0.0
 71
     5
 72
     1
  1
\A1;{\fSegoe Print|b0|i0|c0|p2;CLEAR DOOR\POPENING}\P20"\P\f [;[508.00]\f]
  7
ROMANS
 73
     1
 44
1.0
  0
POINT
  5
141B5
330
13861
100
AcDbEntity
  8
DEFPOINTS
 62
     0
440
 16777216
100
AcDbPoint
 10
295.5945168902331
 20
127.3385614390876
 30
0.0
  0
POINT
  5
141B6
330
13861
100
AcDbEntity
  8
DEFPOINTS
 62
     0
440
 16777216
100
AcDbPoint
 10
295.5945168902332
 20
147.3385614390875
 30
0.0
  0
POINT
  5
141B7
330
13861
100
AcDbEntity
  8
DEFPOINTS
 62
     0
440
 16777216
100
AcDbPoint
 10
305.4683519269652
 20
147.3385614390875
 30
0.0
  0
ENDBLK
  5
13863
330
13861
100
AcDbEntity
  8
0
100
AcDbBlockEnd
  0
BLOCK
  5
138BA
330
138B9
100
AcDbEntity
  8
0
100
AcDbBlockBegin
  2
*D87
 70
     1
 10
0.0
 20
0.0
 30
0.0
  3
*D87
  1

  0
LINE
  5
141CB
330
138B9
100
AcDbEntity
  8
DIM
 62
     0
440
 16777216
370
    -2
100
AcDbLine
 10
296.0320168902331
 20
127.3385614390876
 30
0.0
 11
305.9058519269651
 21
127.3385614390876
 31
0.0
  0
LINE
  5
141CC
330
138B9
100
AcDbEntity
  8
DIM
 62
     0
440
 16777216
370
    -2
100
AcDbLine
 10
291.5320168902331
 20
125.3385614390875
 30
0.0
 11
305.9058519269651
 21
125.3385614390875
 31
0.0
  0
LINE
  5
141CD
330
138B9
100
AcDbEntity
  8
DIM
 62
     0
440
 16777216
370
    -2
100
AcDbLine
 10
305.4683519269652
 20
128.5985614390876
 30
0.0
 11
305.4683519269652
 21
129.8585614390876
 31
0.0
  0
LINE
  5
141CE
330
138B9
100
AcDbEntity
  8
DIM
 62
     0
440
 16777216
370
    -2
100
AcDbLine
 10
305.4683519269652
 20
124.0785614390875
 30
0.0
 11
305.4683519269652
 21
122.2177331426824
 31
0.0
  0
LINE
  5
141CF
330
138B9
100
AcDbEntity
  8
DIM
 62
     0
440
 16777216
370
    -2
100
AcDbLine
 10
305.4683519269652
 20
122.2177331426824
 30
0.0
 11
304.2083519269652
 21
122.2177331426824
 31
0.0
  0
SOLID
  5
141D0
330
138B9
100
AcDbEntity
  8
DIM
 62
     0
440
 16777216
100
AcDbTrace
 10
305.2583519269652
 20
128.5985614390876
 30
0.0
 11
305.6783519269652
 21
128.5985614390876
 31
0.0
 12
305.4683519269652
 22
127.3385614390876
 32
0.0
 13
305.4683519269652
 23
127.3385614390876
 33
0.0
  0
SOLID
  5
141D1
330
138B9
100
AcDbEntity
  8
DIM
 62
     0
440
 16777216
100
AcDbTrace
 10
305.2583519269652
 20
124.0785614390875
 30
0.0
 11
305.6783519269651
 21
124.0785614390875
 31
0.0
 12
305.4683519269652
 22
125.3385614390875
 32
0.0
 13
305.4683519269652
 23
125.3385614390875
 33
0.0
  0
MTEXT
  5
141D2
330
138B9
100
AcDbEntity
  8
DIM
 62
     0
440
 16777216
100
AcDbMText
 10
300.2183519269652
 20
122.2177331426825
 30
0.0
 40
1.26
 41
0.0
 46
0.0
 71
     5
 72
     1
  1
\A1;2"\P\f [;[50.80]\f]
  7
ROMANS
 73
     1
 44
1.0
  0
POINT
  5
141D3
330
138B9
100
AcDbEntity
  8
DEFPOINTS
 62
     0
440
 16777216
100
AcDbPoint
 10
295.5945168902331
 20
127.3385614390876
 30
0.0
  0
POINT
  5
141D4
330
138B9
100
AcDbEntity
  8
DEFPOINTS
 62
     0
440
 16777216
100
AcDbPoint
 10
291.0945168902332
 20
125.3385614390875
 30
0.0
  0
POINT
  5
141D5
330
138B9
100
AcDbEntity
  8
DEFPOINTS
 62
     0
440
 16777216
100
AcDbPoint
 10
305.4683519269652
 20
125.3385614390875
 30
0.0
  0
ENDBLK
  5
138BB
330
138B9
100
AcDbEntity
  8
0
100
AcDbBlockEnd
  0
BLOCK
  5
13A5F
330
13A5E
100
AcDbEntity
  8
0
100
AcDbBlockBegin
  2
*D88
 70
     1
 10
0.0
 20
0.0
 30
0.0
  3
*D88
  1

  0
LINE
  5
141C3
330
13A5E
100
AcDbEntity
  8
DIM
 62
     0
440
 16777216
370
    -2
100
AcDbLine
 10
290.6745168902331
 20
136.0555810895811
 30
0.0
 11
291.7545168902332
 21
136.0555810895811
 31
0.0
  0
LINE
  5
141C4
330
13A5E
100
AcDbEntity
  8
DIM
 62
     0
440
 16777216
370
    -2
100
AcDbLine
 10
287.0145168902332
 20
136.0555810895811
 30
0.0
 11
285.9345168902331
 21
136.0555810895811
 31
0.0
  0
SOLID
  5
141C5
330
13A5E
100
AcDbEntity
  8
DIM
 62
     0
440
 16777216
100
AcDbTrace
 10
290.6745168902331
 20
136.2355810895811
 30
0.0
 11
290.6745168902331
 21
135.8755810895811
 31
0.0
 12
289.5945168902331
 22
136.0555810895811
 32
0.0
 13
289.5945168902331
 23
136.0555810895811
 33
0.0
  0
SOLID
  5
141C6
330
13A5E
100
AcDbEntity
  8
DIM
 62
     0
440
 16777216
100
AcDbTrace
 10
287.0145168902332
 20
136.2355810895811
 30
0.0
 11
287.0145168902332
 21
135.8755810895811
 31
0.0
 12
288.0945168902331
 22
136.0555810895811
 32
0.0
 13
288.0945168902331
 23
136.0555810895811
 33
0.0
  0
MTEXT
  5
141C7
330
13A5E
100
AcDbEntity
  8
DIM
 62
     0
440
 16777216
100
AcDbMText
 10
278.8888026045189
 20
136.0555810895811
 30
0.0
 40
1.08
 41
0.0
 46
0.0
 71
     5
 72
     1
  1
\A1;1 1/2" [38.10]
  7
ROMANT
 73
     1
 44
1.0
  0
POINT
  5
141C8
330
13A5E
100
AcDbEntity
  8
DEFPOINTS
 62
     0
440
 16777216
100
AcDbPoint
 10
289.5945168902331
 20
136.0555810895811
 30
0.0
  0
POINT
  5
141C9
330
13A5E
100
AcDbEntity
  8
DEFPOINTS
 62
     0
440
 16777216
100
AcDbPoint
 10
288.0945168902331
 20
136.0555810895811
 30
0.0
  0
POINT
  5
141CA
330
13A5E
100
AcDbEntity
  8
DEFPOINTS
 62
     0
440
 16777216
100
AcDbPoint
 10
288.0945168902331
 20
136.0555810895811
 30
0.0
  0
ENDBLK
  5
13A60
330
13A5E
100
AcDbEntity
  8
0
100
AcDbBlockEnd
  0
ENDSEC
  0
SECTION
  2
ENTITIES
  0
INSERT
  5
259
330
18
100
AcDbEntity
  8
0
  6
Continuous
100
AcDbBlockReference
  2
GENDIM11
 10
0.0
 20
0.0
 30
0.0
  0
INSERT
  5
2AF
330
18
100
AcDbEntity
  8
0
  6
Continuous
100
AcDbBlockReference
  2
*X1
 10
0.0
 20
0.0
 30
0.0
  0
INSERT
  5
F18
330
18
100
AcDbEntity
  8
0
  6
Continuous
100
AcDbBlockReference
  2
GENARR10
 10
120.788927908886
 20
-6.030762665291916
 30
0.0
  0
INSERT
  5
F1B
330
18
100
AcDbEntity
  8
0
  6
Continuous
100
AcDbBlockReference
  2
*X3
 10
120.788927908886
 20
-6.030762665291916
 30
0.0
  0
INSERT
  5
F21
330
18
100
AcDbEntity
  8
0
  6
Continuous
100
AcDbBlockReference
  2
GENARR12
 10
254.3684047587628
 20
-11.03920895245812
 30
0.0
  0
INSERT
  5
F22
330
18
100
AcDbEntity
  8
0
  6
Continuous
100
AcDbBlockReference
  2
*X5
 10
254.3684047587628
 20
-11.03920895245812
 30
0.0
  0
INSERT
  5
F23
330
18
100
AcDbEntity
  8
0
  6
Continuous
100
AcDbBlockReference
  2
*X6
 10
254.3684047587628
 20
-11.03920895245812
 30
0.0
  0
TEXT
  5
1243
330
18
100
AcDbEntity
  8
CK_LEVEL_1
  6
Continuous
 62
     6
100
AcDbText
 10
154.6186201519557
 20
-30.02622411074185
 30
0.0
 40
0.8
  1

 41
0.75
  7
CKSTANDARD
100
AcDbText
  0
INSERT
  5
43A2
330
18
100
AcDbEntity
  8
0
  6
Continuous
100
AcDbBlockReference
  2
GENARR11
 10
259.9206969032008
 20
112.2472906450661
 30
0.0
  0
INSERT
  5
43B0
330
18
100
AcDbEntity
  8
0
  6
Continuous
100
AcDbBlockReference
  2
*X8
 10
259.9206969032008
 20
112.2472906450661
 30
0.0
  0
INSERT
  5
43B1
330
18
100
AcDbEntity
  8
0
  6
Continuous
100
AcDbBlockReference
  2
GENDIM17
 10
259.9206969032008
 20
112.2472906450661
 30
0.0
  0
INSERT
  5
528F
330
18
100
AcDbEntity
  8
0
  6
Continuous
100
AcDbBlockReference
  2
GENARR11
 10
250.768888710706
 20
114.3489332727658
 30
0.0
  0
INSERT
  5
529D
330
18
100
AcDbEntity
  8
0
  6
Continuous
100
AcDbBlockReference
  2
*X10
 10
250.768888710706
 20
114.3489332727658
 30
0.0
  0
INSERT
  5
529E
330
18
100
AcDbEntity
  8
0
  6
Continuous
100
AcDbBlockReference
  2
GENDIM17
 10
250.768888710706
 20
114.3489332727658
 30
0.0
  0
INSERT
  5
5FB3
330
18
100
AcDbEntity
  8
0
  6
Continuous
100
AcDbBlockReference
  2
GENARR11
 10
262.0346281505359
 20
115.0526473032428
 30
0.0
  0
INSERT
  5
5FC1
330
18
100
AcDbEntity
  8
0
  6
Continuous
100
AcDbBlockReference
  2
*X11
 10
262.0346281505359
 20
115.0526473032428
 30
0.0
  0
INSERT
  5
5FC2
330
18
100
AcDbEntity
  8
0
  6
Continuous
100
AcDbBlockReference
  2
GENDIM17
 10
262.0346281505359
 20
115.0526473032428
 30
0.0
  0
INSERT
  5
675A
330
18
100
AcDbEntity
  8
0
  6
Continuous
100
AcDbBlockReference
  2
GENARR11
 10
300.4413796231177
 20
108.7335647297009
 30
0.0
  0
INSERT
  5
6768
330
18
100
AcDbEntity
  8
0
  6
Continuous
100
AcDbBlockReference
  2
*X11
 10
300.4413796231177
 20
108.7335647297009
 30
0.0
  0
INSERT
  5
6769
330
18
100
AcDbEntity
  8
0
  6
Continuous
100
AcDbBlockReference
  2
GENDIM17
 10
300.4413796231177
 20
108.7335647297009
 30
0.0
  0
INSERT
  5
752D
330
18
100
AcDbEntity
  8
0
  6
Continuous
100
AcDbBlockReference
  2
GENDIM11
 10
-3.675566156859787
 20
232.2270063609843
 30
0.0
  0
INSERT
  5
7537
330
18
100
AcDbEntity
  8
0
  6
Continuous
100
AcDbBlockReference
  2
*X12
 10
-3.675566156859787
 20
232.2270063609843
 30
0.0
  0
INSERT
  5
7551
330
18
100
AcDbEntity
  8
0
  6
Continuous
100
AcDbBlockReference
  2
GENARR10
 10
117.1133617520262
 20
226.1962436956924
 30
0.0
  0
INSERT
  5
7552
330
18
100
AcDbEntity
  8
0
  6
Continuous
100
AcDbBlockReference
  2
*X13
 10
117.1133617520262
 20
226.1962436956924
 30
0.0
  0
INSERT
  5
7556
330
18
100
AcDbEntity
  8
0
  6
Continuous
100
AcDbBlockReference
  2
GENARR12
 10
250.692838601903
 20
221.1877974085261
 30
0.0
  0
INSERT
  5
7557
330
18
100
AcDbEntity
  8
0
  6
Continuous
100
AcDbBlockReference
  2
*X14
 10
250.692838601903
 20
221.1877974085261
 30
0.0
  0
INSERT
  5
7558
330
18
100
AcDbEntity
  8
0
  6
Continuous
100
AcDbBlockReference
  2
*X15
 10
250.692838601903
 20
221.1877974085261
 30
0.0
  0
TEXT
  5
783A
330
18
100
AcDbEntity
  8
CK_LEVEL_1
  6
Continuous
 62
     6
100
AcDbText
 10
150.943053995096
 20
202.2007822502424
 30
0.0
 40
0.8
  1

 41
0.75
  7
CKSTANDARD
100
AcDbText
  0
DIMENSION
  5
86AD
330
18
100
AcDbEntity
  8
DIM
100
AcDbDimension
280
     0
  2
*D16
 10
291.0945168902332
 20
170.8703706180979
 30
0.0
 11
278.2303779516338
 21
170.8703706180979
 31
0.0
 70
   160
  1
{\fSegoe Print|b0|i0|c0|p2;FINISHED \PHOISTWAY}\P<>
 71
     5
 42
25.0
 73
     0
 74
     0
 75
     0
  3
STANDARD
100
AcDbAlignedDimension
 13
266.0945168902332
 23
150.8385614390876
 33
0.0
 14
291.0945168902332
 24
150.8385614390876
 34
0.0
 50
0.000000000000007
100
AcDbRotatedDimension
1001
ACAD
1000
DSTYLE
1002
{
1070
     3
1000
"
1070
    40
1040
7.0
1070
    44
1040
0.0625
1070
   170
1070
     1
1070
   276
1070
     2
1070
   277
1070
     5
1070
   340
1005
B03
1002
}
  0
DIMENSION
  5
86AF
330
18
100
AcDbEntity
  8
DIM
100
AcDbDimension
280
     0
  2
*D17
 10
291.0945168902332
 20
164.1391126822889
 30
0.0
 11
298.191659747376
 21
164.1391126822889
 31
0.0
 70
    32
 71
     5
 42
3.0
 73
     0
 74
     0
 75
     0
  3
STANDARD
100
AcDbAlignedDimension
 13
288.0945168902331
 23
148.3385614390875
 33
0.0
 14
291.0945168902332
 24
150.8385614390875
 34
0.0
 50
0.000000000000007
100
AcDbRotatedDimension
1001
ACAD
1000
DSTYLE
1002
{
1070
     3
1000
"
1070
    40
1040
6.0
1070
    44
1040
0.0625
1070
   170
1070
     1
1070
   276
1070
     2
1070
   277
1070
     5
1070
   340
1005
B02
1002
}
  0
DIMENSION
  5
86B0
330
18
100
AcDbEntity
  8
DIM
100
AcDbDimension
280
     0
  2
*D18
 10
266.0945168902332
 20
164.1391126822889
 30
0.0
 11
258.9973740330903
 21
164.1391126822889
 31
0.0
 70
    32
 71
     5
 42
2.0
 73
     0
 74
     0
 75
     0
  3
STANDARD
100
AcDbAlignedDimension
 13
268.0945168902332
 23
148.3385614390875
 33
0.0
 14
266.0945168902332
 24
150.8385614390876
 34
0.0
 50
0.000000000000007
100
AcDbRotatedDimension
1001
ACAD
1000
DSTYLE
1002
{
1070
     3
1000
"
1070
    40
1040
6.0
1070
    44
1040
0.0625
1070
   170
1070
     1
1070
   276
1070
     2
1070
   277
1070
     5
1070
   340
1005
B02
1002
}
  0
DIMENSION
  5
86B1
330
18
100
AcDbEntity
  8
DIM
100
AcDbDimension
280
     0
  2
*D19
 10
241.1029515425826
 20
125.3385614390876
 30
0.0
 11
241.1029515425826
 21
137.4975068803466
 31
0.0
 70
   160
  1
{\fSegoe Print|b0|i0|c0|p2;FINISHED\PHOISTWAY}\P<>
 71
     5
 42
25.5
 73
     0
 74
     0
 75
     0
  3
STANDARD
100
AcDbAlignedDimension
 13
266.0945168902332
 23
150.8385614390876
 33
0.0
 14
266.0945168902332
 24
125.3385614390876
 34
0.0
 50
90.0
100
AcDbRotatedDimension
1001
ACAD
1000
DSTYLE
1002
{
1070
     3
1000
"\X\f
1070
     4
1000
;[[]]\f
1070
    40
1040
7.0
1070
    44
1040
0.0625
1070
   170
1070
     1
1070
   276
1070
     2
1070
   277
1070
     5
1070
   340
1005
B03
1002
}
  0
DIMENSION
  5
86B2
330
18
100
AcDbEntity
  8
DIM
100
AcDbDimension
280
     0
  2
*D20
 10
252.959496303261
 20
147.3385614390876
 30
0.0
 11
252.9594963032609
 21
148.9245071655038
 31
0.0
 70
   160
 71
     5
 42
3.5
 73
     0
 74
     0
 75
     0
  3
STANDARD
100
AcDbAlignedDimension
 13
266.0945168902332
 23
150.8385614390876
 33
0.0
 14
268.0945168902332
 24
147.3385614390876
 34
0.0
 50
90.0
100
AcDbRotatedDimension
1001
ACAD
1000
DSTYLE
1002
{
1070
     3
1000
"
1070
    40
1040
6.0
1070
    44
1040
0.0625
1070
   170
1070
     1
1070
   276
1070
     2
1070
   277
1070
     5
1070
   340
1005
B02
1002
}
  0
DIMENSION
  5
86B3
330
18
100
AcDbEntity
  8
DIM
100
AcDbDimension
280
     0
  2
*D21
 10
252.9337820175468
 20
125.3385614390876
 30
0.0
 11
248.4337820175468
 21
122.4593021782135
 31
0.0
 70
   160
 71
     5
 42
2.0
 73
     0
 74
     0
 75
     0
  3
STANDARD
100
AcDbAlignedDimension
 13
268.0945168902332
 23
127.3385614390876
 33
0.0
 14
266.0945168902332
 24
125.3385614390876
 34
0.0
 50
90.0
100
AcDbRotatedDimension
1001
ACAD
1000
DSTYLE
1002
{
1070
     3
1000
<>"\X\f
1070
     4
1000
;[[]]\f
1070
    40
1040
6.0
1070
    44
1040
0.0625
1070
   170
1070
     1
1070
   276
1070
     2
1070
   277
1070
     5
1070
   340
1005
B02
1002
}
  0
INSERT
  5
A60E
330
18
100
AcDbEntity
  8
0
  6
Continuous
100
AcDbBlockReference
  2
GENDIM11
 10
134.7821074161516
 20
0.0
 30
0.0
  0
INSERT
  5
A60F
330
18
100
AcDbEntity
  8
0
  6
Continuous
100
AcDbBlockReference
  2
*X22
 10
134.7821074161516
 20
0.0
 30
0.0
  0
INSERT
  5
A610
330
18
100
AcDbEntity
  8
0
  6
Continuous
100
AcDbBlockReference
  2
GENARR10
 10
255.5710353250376
 20
-6.030762665291916
 30
0.0
  0
INSERT
  5
A611
330
18
100
AcDbEntity
  8
0
  6
Continuous
100
AcDbBlockReference
  2
*X23
 10
255.5710353250376
 20
-6.030762665291916
 30
0.0
  0
INSERT
  5
A612
330
18
100
AcDbEntity
  8
0
  6
Continuous
100
AcDbBlockReference
  2
GENARR12
 10
389.1505121749145
 20
-11.03920895245812
 30
0.0
  0
INSERT
  5
A613
330
18
100
AcDbEntity
  8
0
  6
Continuous
100
AcDbBlockReference
  2
*X24
 10
389.1505121749145
 20
-11.03920895245812
 30
0.0
  0
INSERT
  5
A614
330
18
100
AcDbEntity
  8
0
  6
Continuous
100
AcDbBlockReference
  2
*X25
 10
389.1505121749145
 20
-11.03920895245812
 30
0.0
  0
TEXT
  5
A615
330
18
100
AcDbEntity
  8
CK_LEVEL_1
  6
Continuous
 62
     6
100
AcDbText
 10
289.4007275681074
 20
-30.02622411074185
 30
0.0
 40
0.8
  1

 41
0.75
  7
CKSTANDARD
100
AcDbText
  0
INSERT
  5
A65D
330
18
100
AcDbEntity
  8
0
  6
Continuous
100
AcDbBlockReference
  2
GENARR11
 10
394.7028043193524
 20
112.2472906450661
 30
0.0
  0
INSERT
  5
A65E
330
18
100
AcDbEntity
  8
0
  6
Continuous
100
AcDbBlockReference
  2
*X26
 10
394.7028043193524
 20
112.2472906450661
 30
0.0
  0
INSERT
  5
A65F
330
18
100
AcDbEntity
  8
0
  6
Continuous
100
AcDbBlockReference
  2
GENDIM17
 10
394.7028043193524
 20
112.2472906450661
 30
0.0
  0
INSERT
  5
A660
330
18
100
AcDbEntity
  8
0
  6
Continuous
100
AcDbBlockReference
  2
GENARR11
 10
385.5509961268576
 20
114.3489332727658
 30
0.0
  0
INSERT
  5
A661
330
18
100
AcDbEntity
  8
0
  6
Continuous
100
AcDbBlockReference
  2
*X27
 10
385.5509961268576
 20
114.3489332727658
 30
0.0
  0
INSERT
  5
A662
330
18
100
AcDbEntity
  8
0
  6
Continuous
100
AcDbBlockReference
  2
GENDIM17
 10
385.5509961268576
 20
114.3489332727658
 30
0.0
  0
INSERT
  5
A663
330
18
100
AcDbEntity
  8
0
  6
Continuous
100
AcDbBlockReference
  2
GENARR11
 10
396.8167355666875
 20
115.0526473032428
 30
0.0
  0
INSERT
  5
A664
330
18
100
AcDbEntity
  8
0
  6
Continuous
100
AcDbBlockReference
  2
*X28
 10
396.8167355666875
 20
115.0526473032428
 30
0.0
  0
INSERT
  5
A665
330
18
100
AcDbEntity
  8
0
  6
Continuous
100
AcDbBlockReference
  2
GENDIM17
 10
396.8167355666875
 20
115.0526473032428
 30
0.0
  0
INSERT
  5
A669
330
18
100
AcDbEntity
  8
0
  6
Continuous
100
AcDbBlockReference
  2
GENARR11
 10
435.2234870392693
 20
108.7335647297009
 30
0.0
  0
INSERT
  5
A66A
330
18
100
AcDbEntity
  8
0
  6
Continuous
100
AcDbBlockReference
  2
*X28
 10
435.2234870392693
 20
108.7335647297009
 30
0.0
  0
INSERT
  5
A66B
330
18
100
AcDbEntity
  8
0
  6
Continuous
100
AcDbBlockReference
  2
GENDIM17
 10
435.2234870392693
 20
108.7335647297009
 30
0.0
  0
INSERT
  5
A66C
330
18
100
AcDbEntity
  8
0
  6
Continuous
100
AcDbBlockReference
  2
GENDIM11
 10
131.1065412592918
 20
232.2270063609843
 30
0.0
  0
INSERT
  5
A66D
330
18
100
AcDbEntity
  8
0
  6
Continuous
100
AcDbBlockReference
  2
*X29
 10
131.1065412592918
 20
232.2270063609843
 30
0.0
  0
INSERT
  5
A672
330
18
100
AcDbEntity
  8
0
  6
Continuous
100
AcDbBlockReference
  2
GENARR10
 10
251.8954691681778
 20
226.1962436956924
 30
0.0
  0
INSERT
  5
A673
330
18
100
AcDbEntity
  8
0
  6
Continuous
100
AcDbBlockReference
  2
*X30
 10
251.8954691681778
 20
226.1962436956924
 30
0.0
  0
INSERT
  5
A677
330
18
100
AcDbEntity
  8
0
  6
Continuous
100
AcDbBlockReference
  2
GENARR12
 10
385.4749460180546
 20
221.1877974085261
 30
0.0
  0
INSERT
  5
A678
330
18
100
AcDbEntity
  8
0
  6
Continuous
100
AcDbBlockReference
  2
*X31
 10
385.4749460180546
 20
221.1877974085261
 30
0.0
  0
INSERT
  5
A679
330
18
100
AcDbEntity
  8
0
  6
Continuous
100
AcDbBlockReference
  2
*X32
 10
385.4749460180546
 20
221.1877974085261
 30
0.0
  0
TEXT
  5
A67A
330
18
100
AcDbEntity
  8
CK_LEVEL_1
  6
Continuous
 62
     6
100
AcDbText
 10
285.7251614112477
 20
202.2007822502424
 30
0.0
 40
0.8
  1

 41
0.75
  7
CKSTANDARD
100
AcDbText
  0
INSERT
  5
A6AB
330
18
100
AcDbEntity
  8
0
  6
Continuous
100
AcDbBlockReference
  2
GENDIM11
 10
57.50617338161885
 20
0.0
 30
0.0
  0
INSERT
  5
A6AC
330
18
100
AcDbEntity
  8
0
  6
Continuous
100
AcDbBlockReference
  2
*X33
 10
57.50617338161885
 20
0.0
 30
0.0
  0
INSERT
  5
A6AD
330
18
100
AcDbEntity
  8
0
  6
Continuous
100
AcDbBlockReference
  2
GENARR10
 10
178.2951012905048
 20
-6.030762665291916
 30
0.0
  0
INSERT
  5
A6AE
330
18
100
AcDbEntity
  8
0
  6
Continuous
100
AcDbBlockReference
  2
*X34
 10
178.2951012905048
 20
-6.030762665291916
 30
0.0
  0
INSERT
  5
A6AF
330
18
100
AcDbEntity
  8
0
  6
Continuous
100
AcDbBlockReference
  2
GENARR12
 10
311.8745781403817
 20
-11.03920895245812
 30
0.0
  0
INSERT
  5
A6B0
330
18
100
AcDbEntity
  8
0
  6
Continuous
100
AcDbBlockReference
  2
*X35
 10
311.8745781403817
 20
-11.03920895245812
 30
0.0
  0
INSERT
  5
A6B1
330
18
100
AcDbEntity
  8
0
  6
Continuous
100
AcDbBlockReference
  2
*X36
 10
311.8745781403817
 20
-11.03920895245812
 30
0.0
  0
TEXT
  5
A6B2
330
18
100
AcDbEntity
  8
CK_LEVEL_1
  6
Continuous
 62
     6
100
AcDbText
 10
212.1247935335746
 20
-30.02622411074185
 30
0.0
 40
0.8
  1

 41
0.75
  7
CKSTANDARD
100
AcDbText
  0
INSERT
  5
A6B3
330
18
100
AcDbEntity
  8
0
  6
Continuous
100
AcDbBlockReference
  2
GENARR11
 10
317.4268702848197
 20
112.2472906450661
 30
0.0
  0
INSERT
  5
A6B4
330
18
100
AcDbEntity
  8
0
  6
Continuous
100
AcDbBlockReference
  2
*X37
 10
317.4268702848197
 20
112.2472906450661
 30
0.0
  0
INSERT
  5
A6B5
330
18
100
AcDbEntity
  8
0
  6
Continuous
100
AcDbBlockReference
  2
GENDIM17
 10
317.4268702848197
 20
112.2472906450661
 30
0.0
  0
INSERT
  5
A6B6
330
18
100
AcDbEntity
  8
0
  6
Continuous
100
AcDbBlockReference
  2
GENARR11
 10
308.2750620923249
 20
114.3489332727658
 30
0.0
  0
INSERT
  5
A6B7
330
18
100
AcDbEntity
  8
0
  6
Continuous
100
AcDbBlockReference
  2
*X38
 10
308.2750620923249
 20
114.3489332727658
 30
0.0
  0
INSERT
  5
A6B8
330
18
100
AcDbEntity
  8
0
  6
Continuous
100
AcDbBlockReference
  2
GENDIM17
 10
308.2750620923249
 20
114.3489332727658
 30
0.0
  0
INSERT
  5
A6B9
330
18
100
AcDbEntity
  8
0
  6
Continuous
100
AcDbBlockReference
  2
GENARR11
 10
319.5408015321547
 20
115.0526473032428
 30
0.0
  0
INSERT
  5
A6BA
330
18
100
AcDbEntity
  8
0
  6
Continuous
100
AcDbBlockReference
  2
*X39
 10
319.5408015321547
 20
115.0526473032428
 30
0.0
  0
INSERT
  5
A6BB
330
18
100
AcDbEntity
  8
0
  6
Continuous
100
AcDbBlockReference
  2
GENDIM17
 10
319.5408015321547
 20
115.0526473032428
 30
0.0
  0
INSERT
  5
A6BC
330
18
100
AcDbEntity
  8
0
  6
Continuous
100
AcDbBlockReference
  2
GENARR11
 10
357.9475530047365
 20
108.7335647297009
 30
0.0
  0
INSERT
  5
A6BD
330
18
100
AcDbEntity
  8
0
  6
Continuous
100
AcDbBlockReference
  2
*X39
 10
357.9475530047365
 20
108.7335647297009
 30
0.0
  0
INSERT
  5
A6BE
330
18
100
AcDbEntity
  8
0
  6
Continuous
100
AcDbBlockReference
  2
GENDIM17
 10
357.9475530047365
 20
108.7335647297009
 30
0.0
  0
INSERT
  5
A6D7
330
18
100
AcDbEntity
  8
0
  6
Continuous
100
AcDbBlockReference
  2
GENDIM11
 10
53.83060722475907
 20
232.2270063609843
 30
0.0
  0
INSERT
  5
A6D8
330
18
100
AcDbEntity
  8
0
  6
Continuous
100
AcDbBlockReference
  2
*X40
 10
53.83060722475907
 20
232.2270063609843
 30
0.0
  0
INSERT
  5
A6D9
330
18
100
AcDbEntity
  8
0
  6
Continuous
100
AcDbBlockReference
  2
GENARR10
 10
174.619535133645
 20
226.1962436956924
 30
0.0
  0
INSERT
  5
A6DA
330
18
100
AcDbEntity
  8
0
  6
Continuous
100
AcDbBlockReference
  2
*X41
 10
174.619535133645
 20
226.1962436956924
 30
0.0
  0
INSERT
  5
A6DB
330
18
100
AcDbEntity
  8
0
  6
Continuous
100
AcDbBlockReference
  2
GENARR12
 10
308.1990119835219
 20
221.1877974085261
 30
0.0
  0
INSERT
  5
A6DC
330
18
100
AcDbEntity
  8
0
  6
Continuous
100
AcDbBlockReference
  2
*X42
 10
308.1990119835219
 20
221.1877974085261
 30
0.0
  0
INSERT
  5
A6DD
330
18
100
AcDbEntity
  8
0
  6
Continuous
100
AcDbBlockReference
  2
*X43
 10
308.1990119835219
 20
221.1877974085261
 30
0.0
  0
TEXT
  5
A6DE
330
18
100
AcDbEntity
  8
CK_LEVEL_1
  6
Continuous
 62
     6
100
AcDbText
 10
208.4492273767148
 20
202.2007822502424
 30
0.0
 40
0.8
  1

 41
0.75
  7
CKSTANDARD
100
AcDbText
  0
INSERT
  5
B9C0
330
18
100
AcDbEntity
  8
0
  6
Continuous
100
AcDbBlockReference
  2
*X44
 10
-661.5658630910298
 20
204.0134594507214
 30
0.0
 41
11.5384615
 42
11.5384615
 43
11.5384615
  0
INSERT
  5
B9C3
330
18
100
AcDbEntity
  8
0
  6
Continuous
100
AcDbBlockReference
  2
GENARR10
 10
1019.647943817433
 20
103.676993809133
 30
0.0
 41
11.5384615
 42
11.5384615
 43
11.5384615
  0
INSERT
  5
B9C4
330
18
100
AcDbEntity
  8
0
  6
Continuous
100
AcDbBlockReference
  2
*X45
 10
1019.647943817433
 20
103.676993809133
 30
0.0
 41
11.5384615
 42
11.5384615
 43
11.5384615
  0
INSERT
  5
B9C5
330
18
100
AcDbEntity
  8
0
  6
Continuous
100
AcDbBlockReference
  2
GENARR12
 10
2560.949594639879
 20
45.88722914984777
 30
0.0
 41
11.5384615
 42
11.5384615
 43
11.5384615
  0
INSERT
  5
B9C6
330
18
100
AcDbEntity
  8
0
  6
Continuous
100
AcDbBlockReference
  2
*X46
 10
2560.949594639879
 20
45.88722914984777
 30
0.0
 41
11.5384615
 42
11.5384615
 43
11.5384615
  0
INSERT
  5
B9C7
330
18
100
AcDbEntity
  8
0
  6
Continuous
100
AcDbBlockReference
  2
*X47
 10
2560.949594639879
 20
45.88722914984777
 30
0.0
 41
11.5384615
 42
11.5384615
 43
11.5384615
  0
TEXT
  5
B9C8
330
18
100
AcDbEntity
  8
CK_LEVEL_1
  6
Continuous
 62
     6
100
AcDbText
 10
-393.0570591696632
 20
-204.933031327658
 30
0.0
 40
9.230769200000001
  1

 41
0.75
  7
CKSTANDARD
100
AcDbText
  0
INSERT
  5
BE4A
330
18
100
AcDbEntity
  8
0
  6
Continuous
100
AcDbBlockReference
  2
*X48
 10
-950.4393535096435
 20
333.5737015494081
 30
0.0
 41
11.625
 42
11.625
 43
11.625
  0
INSERT
  5
BE4B
330
18
100
AcDbEntity
  8
0
  6
Continuous
100
AcDbBlockReference
  2
GENARR10
 10
743.3835625967097
 20
232.4847120785444
 30
0.0
 41
11.625
 42
11.625
 43
11.625
  0
INSERT
  5
BE4C
330
18
100
AcDbEntity
  8
0
  6
Continuous
100
AcDbBlockReference
  2
*X49
 10
743.3835625967097
 20
232.4847120785444
 30
0.0
 41
11.625
 42
11.625
 43
11.625
  0
INSERT
  5
BE4D
330
18
100
AcDbEntity
  8
0
  6
Continuous
100
AcDbBlockReference
  2
GENARR12
 10
2296.244980976529
 20
174.2615239902376
 30
0.0
 41
11.625
 42
11.625
 43
11.625
  0
INSERT
  5
BE4E
330
18
100
AcDbEntity
  8
0
  6
Continuous
100
AcDbBlockReference
  2
*X50
 10
2296.244980976529
 20
174.2615239902376
 30
0.0
 41
11.625
 42
11.625
 43
11.625
  0
INSERT
  5
BE4F
330
18
100
AcDbEntity
  8
0
  6
Continuous
100
AcDbBlockReference
  2
*X51
 10
2296.244980976529
 20
174.2615239902376
 30
0.0
 41
11.625
 42
11.625
 43
11.625
  0
TEXT
  5
BE50
330
18
100
AcDbEntity
  8
CK_LEVEL_1
  6
Continuous
 62
     6
100
AcDbText
 10
-679.9167326571257
 20
-78.43988928318754
 30
0.0
 40
9.3
  1

 41
0.75
  7
CKSTANDARD
100
AcDbText
  0
INSERT
  5
BE51
330
18
100
AcDbEntity
  8
0
  6
Continuous
100
AcDbBlockReference
  2
*X52
 10
-904.0376961272322
 20
333.5737015494081
 30
0.0
 41
11.625
 42
11.625
 43
11.625
  0
INSERT
  5
BE52
330
18
100
AcDbEntity
  8
0
  6
Continuous
100
AcDbBlockReference
  2
GENARR10
 10
789.7852199791209
 20
232.4847120785444
 30
0.0
 41
11.625
 42
11.625
 43
11.625
  0
INSERT
  5
BE53
330
18
100
AcDbEntity
  8
0
  6
Continuous
100
AcDbBlockReference
  2
*X53
 10
789.7852199791209
 20
232.4847120785444
 30
0.0
 41
11.625
 42
11.625
 43
11.625
  0
INSERT
  5
BE54
330
18
100
AcDbEntity
  8
0
  6
Continuous
100
AcDbBlockReference
  2
GENARR12
 10
2342.64663835894
 20
174.2615239902376
 30
0.0
 41
11.625
 42
11.625
 43
11.625
  0
INSERT
  5
BE55
330
18
100
AcDbEntity
  8
0
  6
Continuous
100
AcDbBlockReference
  2
*X54
 10
2342.64663835894
 20
174.2615239902376
 30
0.0
 41
11.625
 42
11.625
 43
11.625
  0
INSERT
  5
BE56
330
18
100
AcDbEntity
  8
0
  6
Continuous
100
AcDbBlockReference
  2
*X55
 10
2342.64663835894
 20
174.2615239902376
 30
0.0
 41
11.625
 42
11.625
 43
11.625
  0
TEXT
  5
BE57
330
18
100
AcDbEntity
  8
CK_LEVEL_1
  6
Continuous
 62
     6
100
AcDbText
 10
-633.5150752747146
 20
-78.43988928318754
 30
0.0
 40
9.3
  1

 41
0.75
  7
CKSTANDARD
100
AcDbText
  0
INSERT
  5
BE58
330
18
100
AcDbEntity
  8
0
100
AcDbBlockReference
  2
GENARR10
 10
-950.4393535096435
 20
333.5737015494081
 30
0.0
 41
11.625
 42
11.625
 43
11.625
  0
INSERT
  5
BE59
330
18
100
AcDbEntity
  8
0
  6
Continuous
100
AcDbBlockReference
  2
*X56
 10
-734.890472677539
 20
309.4217703096565
 30
0.0
 41
11.19239573625
 42
11.19239573625
 43
11.19239573625
  0
INSERT
  5
BE5A
330
18
100
AcDbEntity
  8
0
  6
Continuous
100
AcDbBlockReference
  2
GENARR10
 10
895.899753919561
 20
212.0946326979995
 30
0.0
 41
11.19239573625
 42
11.19239573625
 43
11.19239573625
  0
INSERT
  5
BE5B
330
18
100
AcDbEntity
  8
0
  6
Continuous
100
AcDbBlockReference
  2
*X57
 10
895.899753919561
 20
212.0946326979995
 30
0.0
 41
11.19239573625
 42
11.19239573625
 43
11.19239573625
  0
INSERT
  5
BE5C
330
18
100
AcDbEntity
  8
0
  6
Continuous
100
AcDbBlockReference
  2
GENARR12
 10
2390.974121064628
 20
156.038119828283
 30
0.0
 41
11.19239573625
 42
11.19239573625
 43
11.19239573625
  0
INSERT
  5
BE5D
330
18
100
AcDbEntity
  8
0
  6
Continuous
100
AcDbBlockReference
  2
*X58
 10
2390.974121064628
 20
156.038119828283
 30
0.0
 41
11.19239573625
 42
11.19239573625
 43
11.19239573625
  0
INSERT
  5
BE5E
330
18
100
AcDbEntity
  8
0
  6
Continuous
100
AcDbBlockReference
  2
*X59
 10
2390.974121064628
 20
156.038119828283
 30
0.0
 41
11.19239573625
 42
11.19239573625
 43
11.19239573625
  0
TEXT
  5
BE5F
330
18
100
AcDbEntity
  8
CK_LEVEL_1
  6
Continuous
 62
     6
100
AcDbText
 10
-474.4348831559135
 20
-87.25944752361682
 30
0.0
 40
8.953916589
  1

 41
0.75
  7
CKSTANDARD
100
AcDbText
  0
INSERT
  5
BE60
330
18
100
AcDbEntity
  8
0
  6
Continuous
100
AcDbBlockReference
  2
*X60
 10
-690.215572699748
 20
309.4217703096565
 30
0.0
 41
11.19239573625
 42
11.19239573625
 43
11.19239573625
  0
INSERT
  5
BE61
330
18
100
AcDbEntity
  8
0
  6
Continuous
100
AcDbBlockReference
  2
GENARR10
 10
940.5746538973524
 20
212.0946326979995
 30
0.0
 41
11.19239573625
 42
11.19239573625
 43
11.19239573625
  0
INSERT
  5
BE62
330
18
100
AcDbEntity
  8
0
  6
Continuous
100
AcDbBlockReference
  2
*X61
 10
940.5746538973524
 20
212.0946326979995
 30
0.0
 41
11.19239573625
 42
11.19239573625
 43
11.19239573625
  0
INSERT
  5
BE63
330
18
100
AcDbEntity
  8
0
  6
Continuous
100
AcDbBlockReference
  2
GENARR12
 10
2435.649021042421
 20
156.038119828283
 30
0.0
 41
11.19239573625
 42
11.19239573625
 43
11.19239573625
  0
INSERT
  5
BE64
330
18
100
AcDbEntity
  8
0
  6
Continuous
100
AcDbBlockReference
  2
*X62
 10
2435.649021042421
 20
156.038119828283
 30
0.0
 41
11.19239573625
 42
11.19239573625
 43
11.19239573625
  0
INSERT
  5
BE65
330
18
100
AcDbEntity
  8
0
  6
Continuous
100
AcDbBlockReference
  2
*X63
 10
2435.649021042421
 20
156.038119828283
 30
0.0
 41
11.19239573625
 42
11.19239573625
 43
11.19239573625
  0
TEXT
  5
BE66
330
18
100
AcDbEntity
  8
CK_LEVEL_1
  6
Continuous
 62
     6
100
AcDbText
 10
-429.759983178121
 20
-87.25944752361682
 30
0.0
 40
8.953916589
  1

 41
0.75
  7
CKSTANDARD
100
AcDbText
  0
DIMENSION
  5
C322
330
18
100
AcDbEntity
  8
DIM
100
AcDbDimension
280
     0
  2
*D80
 10
291.0945168902332
 20
158.9010971068814
 30
0.0
 11
296.9445168902332
 21
158.9010971068814
 31
0.0
 70
   160
 71
     5
 42
13.0
 73
     0
 74
     0
 75
     0
  3
STANDARD
100
AcDbAlignedDimension
 13
278.0945168902331
 23
156.3385614390875
 33
0.0
 14
291.0945168902332
 24
150.8385614390875
 34
0.0
 50
0.000000000000007
100
AcDbRotatedDimension
1001
ACAD
1000
DSTYLE
1002
{
1070
     3
1000
"\X\f
1070
     4
1000
;[[]]\f
1070
    40
1040
7.0
1070
    44
1040
0.0625
1070
   170
1070
     1
1070
   276
1070
     2
1070
   277
1070
     5
1070
   340
1005
B03
1002
}
  0
LINE
  5
12204
330
18
100
AcDbEntity
  8
Drywall
100
AcDbLine
 10
265.5933440701803
 20
151.3385614390875
 30
0.0
 11
291.5933440701802
 21
151.3385614390875
 31
0.0
  0
LINE
  5
12205
330
18
100
AcDbEntity
  8
Drywall
100
AcDbLine
 10
262.0933440701803
 20
154.8385614390876
 30
0.0
 11
295.0933440701803
 21
154.8385614390876
 31
0.0
  0
LINE
  5
12206
330
18
100
AcDbEntity
  8
Drywall
100
AcDbLine
 10
262.0933440701803
 20
121.3385614390875
 30
0.0
 11
262.0933440701803
 21
154.8385614390876
 31
0.0
  0
LINE
  5
12207
330
18
100
AcDbEntity
  8
Drywall
100
AcDbLine
 10
265.5933440701803
 20
124.8385614390875
 30
0.0
 11
265.5933440701803
 21
151.3385614390875
 31
0.0
  0
LINE
  5
12208
330
18
100
AcDbEntity
  8
Drywall
100
AcDbLine
 10
291.5933440701802
 20
124.8385614390875
 30
0.0
 11
291.5933440701802
 21
127.3385614390875
 31
0.0
  0
LINE
  5
12209
330
18
100
AcDbEntity
  8
Drywall
100
AcDbLine
 10
295.0933440701803
 20
121.3385614390875
 30
0.0
 11
295.0933440701803
 21
127.3385614390875
 31
0.0
  0
LINE
  5
1220E
330
18
100
AcDbEntity
  8
Drywall
100
AcDbLine
 10
265.5933440701803
 20
124.8385614390875
 30
0.0
 11
291.5933440701802
 21
124.8385614390875
 31
0.0
  0
LINE
  5
1220F
330
18
100
AcDbEntity
  8
Drywall
100
AcDbLine
 10
262.0933440701803
 20
121.3385614390876
 30
0.0
 11
295.0933440701803
 21
121.3385614390875
 31
0.0
  0
LINE
  5
12211
330
18
100
AcDbEntity
  8
Drywall
100
AcDbLine
 10
291.5933440701803
 20
125.8385614390876
 30
0.0
 11
295.0933440701803
 21
125.8385614390876
 31
0.0
  0
LINE
  5
12212
330
18
100
AcDbEntity
  8
Drywall
100
AcDbLine
 10
291.5933440701803
 20
125.8385614390876
 30
0.0
 11
295.0933440701803
 21
127.3385614390875
 31
0.0
  0
LINE
  5
12213
330
18
100
AcDbEntity
  8
Drywall
100
AcDbLine
 10
291.5933440701803
 20
127.3385614390875
 30
0.0
 11
295.0933440701803
 21
125.8385614390876
 31
0.0
  0
LINE
  5
12214
330
18
100
AcDbEntity
  8
Drywall
100
AcDbLine
 10
291.5933440701803
 20
148.8385614390875
 30
0.0
 11
295.0933440701803
 21
148.8385614390875
 31
0.0
  0
LINE
  5
12215
330
18
100
AcDbEntity
  8
Drywall
100
AcDbLine
 10
291.5933440701803
 20
148.8385614390875
 30
0.0
 11
295.0933440701803
 21
147.3385614390875
 31
0.0
  0
LINE
  5
12216
330
18
100
AcDbEntity
  8
Drywall
100
AcDbLine
 10
291.5933440701803
 20
147.3385614390875
 30
0.0
 11
295.0933440701803
 21
148.8385614390875
 31
0.0
  0
LINE
  5
1221F
330
18
100
AcDbEntity
  8
Drywall
100
AcDbLine
 10
285.3445168902331
 20
154.8385614390876
 30
0.0
 11
285.3445168902331
 21
151.3385614390876
 31
0.0
  0
LINE
  5
12220
330
18
100
AcDbEntity
  8
Drywall
100
AcDbLine
 10
283.8445168902331
 20
154.8385614390876
 30
0.0
 11
283.8445168902331
 21
151.3385614390876
 31
0.0
  0
LINE
  5
12221
330
18
100
AcDbEntity
  8
Drywall
100
AcDbLine
 10
272.3445168902332
 20
154.8385614390876
 30
0.0
 11
272.3445168902332
 21
151.3385614390876
 31
0.0
  0
LINE
  5
12222
330
18
100
AcDbEntity
  8
Drywall
100
AcDbLine
 10
272.3445168902332
 20
152.8385614390876
 30
0.0
 11
283.8445168902331
 21
152.8385614390876
 31
0.0
  0
LINE
  5
12223
330
18
100
AcDbEntity
  8
Drywall
100
AcDbLine
 10
285.3445168902331
 20
151.3385614390876
 30
0.0
 11
283.8445168902331
 21
154.8385614390876
 31
0.0
  0
LINE
  5
12226
330
18
100
AcDbEntity
  8
Drywall
100
AcDbLine
 10
283.8445168902331
 20
151.3385614390876
 30
0.0
 11
285.3445168902331
 21
154.8385614390876
 31
0.0
  0
LINE
  5
12227
330
18
100
AcDbEntity
  8
Drywall
100
AcDbLine
 10
283.8445168902331
 20
151.3385614390876
 30
0.0
 11
272.3445168902332
 21
152.8385614390876
 31
0.0
  0
LINE
  5
12228
330
18
100
AcDbEntity
  8
Drywall
100
AcDbLine
 10
272.3445168902332
 20
151.3385614390876
 30
0.0
 11
283.8445168902331
 21
152.8385614390876
 31
0.0
  0
LINE
  5
12229
330
18
100
AcDbEntity
  8
Drywall
100
AcDbLine
 10
270.8445168902331
 20
154.8385614390876
 30
0.0
 11
270.8445168902331
 21
151.3385614390876
 31
0.0
  0
LINE
  5
1222A
330
18
100
AcDbEntity
  8
Drywall
100
AcDbLine
 10
270.8445168902331
 20
151.3385614390876
 30
0.0
 11
272.3445168902332
 21
154.8385614390876
 31
0.0
  0
LINE
  5
1222B
330
18
100
AcDbEntity
  8
Drywall
100
AcDbLine
 10
272.3445168902332
 20
151.3385614390876
 30
0.0
 11
270.8445168902331
 21
154.8385614390876
 31
0.0
  0
LWPOLYLINE
  5
12E43
330
18
100
AcDbEntity
  8
WALL
100
AcDbPolyline
 90
        5
 70
     0
 43
0.0
 10
295.5945168902332
 20
147.3385614390875
 10
299.0674804435717
 20
127.6424063788434
 10
297.5902688140535
 20
127.381934112343
 10
294.1173052607149
 20
147.0780891725872
 10
295.5945168902332
 20
147.3385614390875
  0
LWPOLYLINE
  5
12E44
330
18
100
AcDbEntity
  8
EMI
100
AcDbPolyline
 90
        7
 70
     0
 43
0.0
 10
293.9729875643663
 20
127.3742592179019
 10
291.0945168902332
 20
127.3742592179019
 10
291.2001455117836
 20
129.3897733838421
 42
-0.3989595459737161
 10
291.4501042796196
 20
129.6269753976583
 10
293.6174001749798
 20
129.6269753976583
 42
-0.3989595459737233
 10
293.8673589428158
 20
129.3897733838421
 10
293.9729875643663
 20
127.3742592179019
  0
LINE
  5
12E45
330
18
100
AcDbEntity
  8
EMI
370
    15
100
AcDbLine
 10
293.3021787463943
 20
127.3385614390876
 30
0.0
 11
293.6425891913353
 21
127.3385614390876
 31
0.0
  0
LINE
  5
12E46
330
18
100
AcDbEntity
  8
EMI
370
    15
100
AcDbLine
 10
293.3021787463943
 20
127.368319689123
 30
0.0
 11
293.6425891913353
 21
127.368319689123
 31
0.0
  0
LINE
  5
12E47
330
18
100
AcDbEntity
  8
EMI
370
    15
100
AcDbLine
 10
293.7230287965302
 20
127.3742592179019
 30
0.0
 11
293.2846576205518
 21
127.3742592179019
 31
0.0
  0
LINE
  5
12E48
330
18
100
AcDbEntity
  8
EMI
370
    15
100
AcDbLine
 10
293.6425891913353
 20
127.368319689123
 30
0.0
 11
293.6425891913353
 21
127.3385614390876
 31
0.0
  0
LINE
  5
12E49
330
18
100
AcDbEntity
  8
EMI
370
    15
100
AcDbLine
 10
293.6374260377389
 20
127.3742592179019
 30
0.0
 11
293.6425891913353
 21
127.368319689123
 31
0.0
  0
ARC
  5
12E4A
330
18
100
AcDbEntity
  8
EMI
370
    15
100
AcDbCircle
 10
292.4892882381332
 20
129.5024356129834
 30
0.0
 40
0.2216568822020822
100
AcDbArc
 50
100.4074811757172
 51
125.6681982935356
  0
ARC
  5
12E4B
330
18
100
AcDbEntity
  8
EMI
370
    15
100
AcDbCircle
 10
292.5337522272997
 20
129.4550104777005
 30
0.0
 40
0.3042552848276811
100
AcDbArc
 50
94.34062034240735
 51
109.8858732810209
  0
LWPOLYLINE
  5
12E4C
330
18
100
AcDbEntity
  8
EMI
370
    15
100
AcDbPolyline
 90
        3
 70
   128
 43
0.0
 10
292.4493222400643
 20
129.7200820454697
 10
292.4562814386995
 20
129.721281263635
 10
292.493695920867
 20
129.7225868658138
  0
LINE
  5
12E4D
330
18
100
AcDbEntity
  8
EMI
370
    15
100
AcDbLine
 10
292.7212358587179
 20
129.6853615780547
 30
0.0
 11
292.7212358587179
 21
129.6269753976583
 31
0.0
  0
LINE
  5
12E4E
330
18
100
AcDbEntity
  8
EMI
370
    15
100
AcDbLine
 10
292.7139695216802
 20
129.6698308683001
 30
0.0
 11
292.7139695216802
 21
129.6269753976583
 31
0.0
  0
ARC
  5
12E4F
330
18
100
AcDbEntity
  8
EMI
370
    15
100
AcDbCircle
 10
292.5782162164662
 20
129.5024356129834
 30
0.0
 40
0.2216568822020821
100
AcDbArc
 50
54.3318017064644
 51
79.60014267063648
  0
ARC
  5
12E50
330
18
100
AcDbEntity
  8
EMI
370
    15
100
AcDbCircle
 10
292.5337522272997
 20
129.4550104777005
 30
0.0
 40
0.3051254763610743
100
AcDbArc
 50
54.10740889711855
 51
70.05033513094907
  0
ARC
  5
12E51
330
18
100
AcDbEntity
  8
EMI
370
    15
100
AcDbCircle
 10
292.6983610793865
 20
129.6698308683001
 30
0.0
 40
0.0156084422937005
100
AcDbArc
 50
0.000000000000007
 51
54.33180170647197
  0
ARC
  5
12E52
330
18
100
AcDbEntity
  8
EMI
370
    15
100
AcDbCircle
 10
292.7004532246016
 20
129.6853615780547
 30
0.0
 40
0.0207826341162697
100
AcDbArc
 50
0.000000000000007
 51
54.10740889711855
  0
ARC
  5
12E53
330
18
100
AcDbEntity
  8
EMI
370
    15
100
AcDbCircle
 10
292.5337522272997
 20
129.4550104777005
 30
0.0
 40
0.3042552848276811
100
AcDbArc
 50
70.11412671897911
 51
85.65937965759266
  0
LINE
  5
12E54
330
18
100
AcDbEntity
  8
EMI
370
    15
100
AcDbLine
 10
292.637859355098
 20
129.7418262064641
 30
0.0
 11
292.6372439640269
 21
129.7411236349911
 31
0.0
  0
ARC
  5
12E55
330
18
100
AcDbEntity
  8
EMI
370
    15
100
AcDbCircle
 10
292.5337522272997
 20
129.3641362044743
 30
0.0
 40
0.3776900855816621
100
AcDbArc
 50
86.50450824907876
 51
93.49549175091471
  0
LINE
  5
12E56
330
18
100
AcDbEntity
  8
EMI
370
    15
100
AcDbLine
 10
292.5567799926927
 20
129.7411236349911
 30
0.0
 11
292.5567799926927
 21
129.7583930750369
 31
0.0
  0
LINE
  5
12E57
330
18
100
AcDbEntity
  8
EMI
370
    15
100
AcDbLine
 10
292.5522745603332
 20
129.7200820454697
 30
0.0
 11
292.5152298942661
 21
129.7200820454697
 31
0.0
  0
LINE
  5
12E58
330
18
100
AcDbEntity
  8
EMI
370
    15
100
AcDbLine
 10
292.5522745603332
 20
129.7200820454697
 30
0.0
 11
292.5522933337552
 21
129.7240924951855
 31
0.0
  0
LINE
  5
12E59
330
18
100
AcDbEntity
  8
EMI
370
    15
100
AcDbLine
 10
292.5152298942661
 20
129.7200820454697
 30
0.0
 11
292.5149456225875
 21
129.7240924951855
 31
0.0
  0
LINE
  5
12E5A
330
18
100
AcDbEntity
  8
EMI
370
    15
100
AcDbLine
 10
292.5107244619066
 20
129.7411236349911
 30
0.0
 11
292.5107244619066
 21
129.7583930750369
 31
0.0
  0
LINE
  5
12E5B
330
18
100
AcDbEntity
  8
EMI
370
    15
100
AcDbLine
 10
292.4934113197298
 20
129.7240924951855
 30
0.0
 11
292.5149456225875
 21
129.7240924951855
 31
0.0
  0
LINE
  5
12E5C
330
18
100
AcDbEntity
  8
EMI
370
    15
100
AcDbLine
 10
292.5739986493458
 20
129.7240924951855
 30
0.0
 11
292.6182289845059
 21
129.7204510982622
 31
0.0
  0
LINE
  5
12E5D
330
18
100
AcDbEntity
  8
EMI
370
    15
100
AcDbLine
 10
292.5522933337552
 20
129.7240924951855
 30
0.0
 11
292.5739986493458
 21
129.7240924951855
 31
0.0
  0
LINE
  5
12E5E
330
18
100
AcDbEntity
  8
EMI
370
    15
100
AcDbLine
 10
292.3462685958814
 20
129.6269753976583
 30
0.0
 11
292.3462685958814
 21
129.6853615780547
 31
0.0
  0
LINE
  5
12E5F
330
18
100
AcDbEntity
  8
EMI
370
    15
100
AcDbLine
 10
292.3535349329192
 20
129.6269753976583
 30
0.0
 11
292.3535349329192
 21
129.6698308683001
 31
0.0
  0
ARC
  5
12E60
330
18
100
AcDbEntity
  8
EMI
370
    15
100
AcDbCircle
 10
292.5337522272997
 20
129.4550104777005
 30
0.0
 40
0.3051254763610743
100
AcDbArc
 50
109.9496648690509
 51
125.8925911028818
  0
LINE
  5
12E61
330
18
100
AcDbEntity
  8
EMI
370
    15
100
AcDbLine
 10
292.4302604905725
 20
129.7411236349911
 30
0.0
 11
292.4296450995013
 21
129.7418262064641
 31
0.0
  0
ARC
  5
12E62
330
18
100
AcDbEntity
  8
EMI
370
    15
100
AcDbCircle
 10
292.3670512299977
 20
129.6853615780547
 30
0.0
 40
0.0207826341162733
100
AcDbArc
 50
125.8925911028895
 51
180.0
  0
ARC
  5
12E63
330
18
100
AcDbEntity
  8
EMI
370
    15
100
AcDbCircle
 10
292.3691433752129
 20
129.6698308683001
 30
0.0
 40
0.0156084422936999
100
AcDbArc
 50
125.668198293528
 51
180.0
  0
LINE
  5
12E64
330
18
100
AcDbEntity
  8
EMI
370
    15
100
AcDbLine
 10
291.7828468340476
 20
127.3742592179019
 30
0.0
 11
291.3444756580691
 21
127.3742592179019
 31
0.0
  0
LINE
  5
12E65
330
18
100
AcDbEntity
  8
EMI
370
    15
100
AcDbLine
 10
291.4249152632641
 20
127.368319689123
 30
0.0
 11
291.765325708205
 21
127.368319689123
 31
0.0
  0
LINE
  5
12E66
330
18
100
AcDbEntity
  8
EMI
370
    15
100
AcDbLine
 10
291.4249152632641
 20
127.3385614390876
 30
0.0
 11
291.765325708205
 21
127.3385614390876
 31
0.0
  0
LINE
  5
12E67
330
18
100
AcDbEntity
  8
EMI
370
    15
100
AcDbLine
 10
293.3021787463943
 20
127.3385614390876
 30
0.0
 11
293.3021787463943
 21
127.368319689123
 31
0.0
  0
LINE
  5
12E68
330
18
100
AcDbEntity
  8
EMI
370
    15
100
AcDbLine
 10
293.3021787463943
 20
127.368319689123
 30
0.0
 11
293.3073418999908
 21
127.3742592179019
 31
0.0
  0
LINE
  5
12E69
330
18
100
AcDbEntity
  8
EMI
370
    15
100
AcDbLine
 10
291.765325708205
 20
127.368319689123
 30
0.0
 11
291.765325708205
 21
127.3385614390876
 31
0.0
  0
LINE
  5
12E6A
330
18
100
AcDbEntity
  8
EMI
370
    15
100
AcDbLine
 10
291.7601625546087
 20
127.3742592179019
 30
0.0
 11
291.765325708205
 21
127.368319689123
 31
0.0
  0
LINE
  5
12E6B
330
18
100
AcDbEntity
  8
EMI
370
    15
100
AcDbLine
 10
291.4249152632641
 20
127.3385614390876
 30
0.0
 11
291.4249152632641
 21
127.368319689123
 31
0.0
  0
LINE
  5
12E6C
330
18
100
AcDbEntity
  8
EMI
370
    15
100
AcDbLine
 10
291.4249152632641
 20
127.368319689123
 30
0.0
 11
291.4300784168604
 21
127.3742592179019
 31
0.0
  0
LINE
  5
1310C
330
18
100
AcDbEntity
  8
WALL
100
AcDbLine
 10
291.0945168902332
 20
147.3385614390875
 30
0.0
 11
291.0945168902332
 21
127.3385614390876
 31
0.0
  0
LINE
  5
1310D
330
18
100
AcDbEntity
  8
WALL
100
AcDbLine
 10
295.5945168902331
 20
138.7004057143721
 30
0.0
 11
295.5945168902331
 21
127.3385614390876
 31
0.0
  0
DIMENSION
  5
1335E
330
18
100
AcDbEntity
  8
DIM
100
AcDbDimension
280
     0
  2
*D83
 10
252.9337820175467
 20
127.3385614390876
 30
0.0
 11
252.9337820175467
 21
137.4380495685537
 31
0.0
 70
   160
  1
{\fSegoe Print|b0|i0|c0|p2;CLEAR CAR\PINSIDE\P}<>\P[]
 71
     5
 42
20.0
 73
     0
 74
     0
 75
     0
  3
STANDARD
100
AcDbAlignedDimension
 13
268.0945168902332
 23
147.3385614390876
 33
0.0
 14
268.0945168902332
 24
127.3385614390876
 34
0.0
 50
90.0
100
AcDbRotatedDimension
1001
ACAD
1000
DSTYLE
1002
{
1070
     3
1000
"\X\f
1070
     4
1000
;[[]]\f
1070
    40
1040
7.0
1070
    44
1040
0.0625
1070
   170
1070
     1
1070
   276
1070
     2
1070
   277
1070
     5
1070
   340
1005
B03
1002
}
  0
LINE
  5
13589
330
18
100
AcDbEntity
  8
Drywall
100
AcDbLine
 10
295.0933440701803
 20
147.3385614390875
 30
0.0
 11
295.0933440701803
 21
154.8385614390876
 31
0.0
  0
LINE
  5
1358A
330
18
100
AcDbEntity
  8
Drywall
100
AcDbLine
 10
291.5933440701803
 20
147.3385614390875
 30
0.0
 11
291.5933440701802
 21
151.3385614390875
 31
0.0
  0
DIMENSION
  5
13749
330
18
100
AcDbEntity
  8
DIM
100
AcDbDimension
280
     0
  2
*D84
 10
288.0945168902331
 20
164.1391126822889
 30
0.0
 11
278.2300863121434
 21
164.1391126822889
 31
0.0
 70
   160
  1
{\fSegoe Print|b0|i0|c0|p2;CLEAR CAR \PINSIDE}\P<>
 71
     5
 42
20.0
 73
     0
 74
     0
 75
     0
  3
STANDARD
100
AcDbAlignedDimension
 13
268.0945168902332
 23
148.3385614390875
 33
0.0
 14
288.0945168902331
 24
148.3385614390875
 34
0.0
 50
0.000000000000007
100
AcDbRotatedDimension
1001
ACAD
1000
DSTYLE
1002
{
1070
     3
1000
"
1070
    40
1040
7.0
1070
    44
1040
0.0625
1070
   170
1070
     1
1070
   276
1070
     2
1070
   277
1070
     5
1070
   340
1005
B03
1002
}
  0
DIMENSION
  5
13834
330
18
100
AcDbEntity
  8
DIM
100
AcDbDimension
280
     0
  2
*D85
 10
305.4683519269652
 20
150.8385614390875
 30
0.0
 11
305.4683519269652
 21
149.0885614390876
 31
0.0
 70
   160
 71
     5
 42
3.5
 73
     0
 74
     0
 75
     0
  3
STANDARD
100
AcDbAlignedDimension
 13
295.5945168902332
 23
147.3385614390875
 33
0.0
 14
291.0945168902332
 24
150.8385614390875
 34
0.0
 50
90.0
100
AcDbRotatedDimension
1001
ACAD
1000
DSTYLE
1002
{
1070
     3
1000
"
1070
    40
1040
7.0
1070
    44
1040
0.0625
1070
   170
1070
     1
1070
   276
1070
     2
1070
   277
1070
     5
1070
   340
1005
B03
1002
}
  0
DIMENSION
  5
13860
330
18
100
AcDbEntity
  8
DIM
100
AcDbDimension
280
     0
  2
*D86
 10
305.4683519269652
 20
147.3385614390875
 30
0.0
 11
305.4683519269652
 21
137.3385614390876
 31
0.0
 70
   160
  1
{\fSegoe Print|b0|i0|c0|p2;CLEAR DOOR\POPENING}\P<>
 71
     5
 42
19.99999999999996
 73
     0
 74
     0
 75
     0
  3
STANDARD
100
AcDbAlignedDimension
 13
295.5945168902331
 23
127.3385614390876
 33
0.0
 14
295.5945168902332
 24
147.3385614390875
 34
0.0
 50
90.0
100
AcDbRotatedDimension
1001
ACAD
1000
DSTYLE
1002
{
1070
     3
1000
"\X\f
1070
     4
1000
;[[]]\f
1070
    40
1040
7.0
1070
    44
1040
0.0625
1070
   170
1070
     1
1070
   276
1070
     2
1070
   277
1070
     5
1070
   340
1005
B03
1002
}
  0
DIMENSION
  5
138B8
330
18
100
AcDbEntity
  8
DIM
100
AcDbDimension
280
     0
  2
*D87
 10
305.4683519269652
 20
125.3385614390875
 30
0.0
 11
300.2183519269652
 21
122.2177331426825
 31
0.0
 70
   160
 71
     5
 42
2.000000000000042
 73
     0
 74
     0
 75
     0
  3
STANDARD
100
AcDbAlignedDimension
 13
295.5945168902331
 23
127.3385614390876
 33
0.0
 14
291.0945168902332
 24
125.3385614390875
 34
0.0
 50
90.0
100
AcDbRotatedDimension
1001
ACAD
1000
DSTYLE
1002
{
1070
     3
1000
<>"\X\f
1070
     4
1000
;[[]]\f
1070
    40
1040
7.0
1070
    44
1040
0.0625
1070
   170
1070
     1
1070
   276
1070
     2
1070
   277
1070
     5
1070
   340
1005
B03
1002
}
  0
MTEXT
  5
13A3A
330
18
100
AcDbEntity
  8
CK_LEVEL_1
100
AcDbMText
 10
288.5247963225272
 20
142.8389403654826
 30
0.0
 40
0.8
 41
1.069720567705921
 46
0.0
 71
     1
 72
     5
  1
C\PA\PR\P\PG\PA\PT\PE
  7
ROMANT
 73
     1
 44
1.0
  0
LINE
  5
13A3B
330
18
100
AcDbEntity
  8
WALL
100
AcDbLine
 10
266.0945168902332
 20
125.3385614390875
 30
0.0
 11
291.0945168902332
 21
125.3385614390875
 31
0.0
  0
LINE
  5
13A3C
330
18
100
AcDbEntity
  8
WALL
100
AcDbLine
 10
261.5945168902332
 20
120.8385614390875
 30
0.0
 11
295.5945168902332
 21
120.8385614390875
 31
0.0
  0
LWPOLYLINE
  5
13A3D
330
18
100
AcDbEntity
  8
CAR
100
AcDbPolyline
 90
        2
 70
     0
 43
0.0625
 10
268.0945168902332
 20
127.3385614390875
 10
288.0945168902331
 20
127.3385614390875
  0
LWPOLYLINE
  5
13A3E
330
18
100
AcDbEntity
  8
CAR
100
AcDbPolyline
 90
        5
 70
     0
 43
0.0625
 10
288.0945168902331
 20
127.3385614390875
 10
288.0945168902331
 20
147.3385614390875
 10
268.0945168902332
 20
147.3385614390875
 10
268.0945168902332
 20
127.3385614390875
 10
288.0945168902331
 20
127.3385614390875
  0
LINE
  5
13A3F
330
18
100
AcDbEntity
  8
WALL
100
AcDbLine
 10
266.0945168902332
 20
150.8385614390876
 30
0.0
 11
291.0945168902332
 21
150.8385614390875
 31
0.0
  0
LINE
  5
13A41
330
18
100
AcDbEntity
  8
WALL
100
AcDbLine
 10
261.5945168902332
 20
155.3385614390876
 30
0.0
 11
295.5945168902331
 21
155.3385614390875
 31
0.0
  0
LINE
  5
13A42
330
18
100
AcDbEntity
  8
CEN
 48
5.0
100
AcDbLine
 10
278.0945168902331
 20
144.2282323221604
 30
0.0
 11
278.0945168902331
 21
156.3385614390875
 31
0.0
  0
LINE
  5
13A43
330
18
100
AcDbEntity
  8
WALL
100
AcDbLine
 10
266.0945168902332
 20
125.3385614390875
 30
0.0
 11
266.0945168902332
 21
150.8385614390876
 31
0.0
  0
LINE
  5
13A44
330
18
100
AcDbEntity
  8
WALL
100
AcDbLine
 10
261.5945168902332
 20
120.8385614390875
 30
0.0
 11
261.5945168902332
 21
155.3385614390876
 31
0.0
  0
LWPOLYLINE
  5
13A45
330
18
100
AcDbEntity
  8
CAR
100
AcDbPolyline
 90
        2
 70
     0
 43
0.0625
 10
268.0945168902332
 20
127.3385614390875
 10
268.0945168902332
 20
126.3385614390875
  0
TEXT
  5
13A46
330
18
100
AcDbEntity
  8
DIM
100
AcDbText
 10
268.6460589585635
 20
128.2053877403069
 30
0.0
 40
1.605406979319466
  1
C
  7
ROMANS
100
AcDbText
  0
LWPOLYLINE
  5
13A47
330
18
100
AcDbEntity
  8
CAR
100
AcDbPolyline
 90
        2
 70
     0
 43
0.0625
 10
268.0945168902332
 20
147.3385614390875
 10
268.0945168902332
 20
148.3385614390875
  0
TEXT
  5
13A48
330
18
100
AcDbEntity
  8
DIM
100
AcDbText
 10
269.0282987155443
 20
144.6677100397698
 30
0.0
 40
1.605406979319466
  1
D
  7
ROMANS
100
AcDbText
  0
LINE
  5
13A49
330
18
100
AcDbEntity
  8
WALL
100
AcDbLine
 10
291.0945168902332
 20
125.3385614390875
 30
0.0
 11
291.0945168902332
 21
127.3385614390875
 31
0.0
  0
LINE
  5
13A4A
330
18
100
AcDbEntity
  8
WALL
100
AcDbLine
 10
295.5945168902331
 20
120.8385614390875
 30
0.0
 11
295.5945168902331
 21
127.3385614390875
 31
0.0
  0
LWPOLYLINE
  5
13A4B
330
18
100
AcDbEntity
  8
CAR
100
AcDbPolyline
 90
        2
 70
     0
 43
0.0625
 10
288.0945168902331
 20
127.3385614390875
 10
288.0945168902331
 20
126.3385614390875
  0
LINE
  5
13A4C
330
18
100
AcDbEntity
  8
WALL
100
AcDbLine
 10
291.0945168902332
 20
127.3385614390875
 30
0.0
 11
295.5945168902331
 21
127.3385614390875
 31
0.0
  0
TEXT
  5
13A4D
330
18
100
AcDbEntity
  8
DIM
100
AcDbText
 10
285.9137378426859
 20
128.2053877403069
 30
0.0
 40
1.605406979319466
  1
B
  7
ROMANS
100
AcDbText
  0
LINE
  5
13A4E
330
18
100
AcDbEntity
  8
WALL
100
AcDbLine
 10
295.5945168902332
 20
147.3385614390875
 30
0.0
 11
295.5945168902331
 21
155.3385614390876
 31
0.0
  0
LINE
  5
13A4F
330
18
100
AcDbEntity
  8
WALL
100
AcDbLine
 10
291.0945168902332
 20
147.3385614390875
 30
0.0
 11
291.0945168902332
 21
150.8385614390875
 31
0.0
  0
LWPOLYLINE
  5
13A50
330
18
100
AcDbEntity
  8
CAR
100
AcDbPolyline
 90
        2
 70
     0
 43
0.0625
 10
288.0945168902331
 20
147.3385614390875
 10
288.0945168902331
 20
148.3385614390875
  0
LINE
  5
13A51
330
18
100
AcDbEntity
  8
WALL
100
AcDbLine
 10
291.0945168902332
 20
147.3385614390875
 30
0.0
 11
295.5945168902332
 21
147.3385614390875
 31
0.0
  0
TEXT
  5
13A52
330
18
100
AcDbEntity
  8
DIM
100
AcDbText
 10
285.531498085705
 20
144.6677100397698
 30
0.0
 40
1.605406979319466
  1
A
  7
ROMANS
100
AcDbText
  0
LWPOLYLINE
  5
13A53
330
18
100
AcDbEntity
  8
CAR
100
AcDbPolyline
 90
        2
 70
     0
 43
0.0625
 10
288.0945168902331
 20
148.3385614390875
 10
289.5945168902331
 20
148.3385614390875
  0
LWPOLYLINE
  5
13A54
330
18
100
AcDbEntity
  8
CAR
100
AcDbPolyline
 90
        2
 70
     0
 43
0.0625
 10
288.0945168902331
 20
147.3385614390875
 10
289.5945168902331
 20
147.3385614390875
  0
LWPOLYLINE
  5
13A55
330
18
100
AcDbEntity
  8
CAR
100
AcDbPolyline
 90
        2
 70
     0
 43
0.0625
 10
288.0945168902331
 20
147.3385614390875
 10
289.5945168902331
 20
148.3385614390875
  0
LWPOLYLINE
  5
13A56
330
18
100
AcDbEntity
  8
CAR
100
AcDbPolyline
 90
        2
 70
     0
 43
0.0625
 10
288.0945168902331
 20
148.3385614390875
 10
289.5945168902331
 20
147.3385614390875
  0
LWPOLYLINE
  5
13A57
330
18
100
AcDbEntity
  8
CAR
100
AcDbPolyline
 90
        2
 70
     0
 43
0.0625
 10
288.0945168902331
 20
127.3385614390875
 10
289.5945168902331
 20
126.3385614390875
  0
LWPOLYLINE
  5
13A58
330
18
100
AcDbEntity
  8
CAR
100
AcDbPolyline
 90
        2
 70
     0
 43
0.0625
 10
288.0945168902331
 20
126.3385614390875
 10
289.5945168902331
 20
127.3385614390875
  0
LWPOLYLINE
  5
13A59
330
18
100
AcDbEntity
  8
CAR
100
AcDbPolyline
 90
        2
 70
     0
 43
0.0625
 10
288.0945168902331
 20
126.3385614390875
 10
289.5945168902331
 20
126.3385614390875
  0
LWPOLYLINE
  5
13A5A
330
18
100
AcDbEntity
  8
CAR
100
AcDbPolyline
 90
        2
 70
     0
 43
0.0625
 10
288.0945168902331
 20
127.3385614390875
 10
289.5945168902331
 20
127.3385614390875
  0
LWPOLYLINE
  5
13A5B
330
18
100
AcDbEntity
  8
CAR
100
AcDbPolyline
 90
        2
 70
     0
 43
0.0625
 10
289.5945168902331
 20
126.3385614390875
 10
289.5945168902331
 20
148.3385614390875
  0
DIMENSION
  5
13A5C
330
18
100
AcDbEntity
  8
DIM
100
AcDbDimension
280
     0
  2
*D88
 10
288.0945168902331
 20
136.0555810895811
 30
0.0
 11
278.8888026045189
 21
136.0555810895811
 31
0.0
 70
   160
 71
     5
 42
1.5
 73
     0
 74
     0
 75
     0
  3
STANDARD
100
AcDbAlignedDimension
 13
289.5945168902331
 23
136.0555810895811
 33
0.0
 14
288.0945168902331
 24
136.0555810895811
 34
0.0
 50
180.0
100
AcDbRotatedDimension
1001
ACAD
1000
DSTYLE
1002
{
1070
     3
1000
"
1070
    40
1040
6.0
1070
    44
1040
0.0625
1070
   170
1070
     1
1070
   276
1070
     2
1070
   277
1070
     5
1070
   340
1005
B02
1002
}
  0
REGION
  5
13D10
330
18
100
AcDbEntity
  8
RAIL
100
AcDbModelerGeometry
 70
     1
  1
mnjoo mh m mk          
  1
ni ^ *+0;:,4 ^ *+0\^ [ nf ^ LR mngqoqoqjnni QK o  
  1
mjqlffffffffffffff fqfffffffffffffffj:rooh n:rono 
  1
>,27:>;:- {rn rn _nm mngqoqoqjnni |
  1
=0;& {rn rn {rn {m {rn {rn |
  1
3*2/ {rn rn {rn {rn {l {n |
  1
,7:33 {rn rn {rn {rn {rn {k {rn {m |
  1
9><: {rn rn {rn {rn {j {l {rn {i 90-(>-; ;0*=3: 0*+ |
  1
300/ {rn rn {rn {rn {h {k |
  1
/3>1:r,*-9><: {rn rn {rn mhnqhfmonlnoijnhil nkgqhhmglflmginjog roqolnmkffffffffgjhgf lqolohkioffhjnhhkl:roni oqhohnoihgnngijkhjh oqhohnoihgnngijkhjh n rmqkkfmnmhohikkhjkj:roni rnqglifofjlohlljijf:roni 90-(>-;@) V V V V |
  1
<0:;8: {rn rn {rn {g {f {rn {no 90-(>-; {j {rn |
  1
<0:;8: {rn rn {rn {nn {h {rn {nm -:):-,:; {j {rn |
  1
<0:;8: {rn rn {rn {h {nn {rn {nl 90-(>-; {j {rn |
  1
:;8: {rn rn {rn {nk roqmolnooooooooooimg {nj oqmijiooooooooooimg {h {ni 90-(>-; _h *1410(1 |
  1
<0:;8: {rn rn {rn {f {g {rn {nh 90-(>-; {j {rn |
  1
:;8: {rn rn {rn {ng roqffkligfnnokljgmkf {nj roqfojfgojillfjmiknm {g {nf 90-(>-; _h *1410(1 |
  1
:;8: {rn rn {rn {mo roqgjmkgijlffhnfjnf {nk roqhkkmlllikkfggfhmn {f {mn 90-(>-; _h *1410(1 |
  1
):-+:' {rn rn {rn {no m {mm |
  1
):-+:' {rn rn {rn {no m {ml |
  1
,+->687+r<*-): {rn rn {rn mhnqhfmonlnoijnhil nkgqgokogflmginjog roqoimkfffffffffgjhgf rn nqglifofjlohlljijf:roni mqkkfmnmhohikkhjkj:roni Y roqlfigjoooooooooonj Y oqgolnjoooooooooonk |
  1
:;8: {rn rn {rn {ng roqmijiooooooooooimg {mo oqmijiooooooooooimg {nn {mk 90-(>-; _h *1410(1 |
  1
):-+:' {rn rn {rn {nh m {mj |
  1
,+->687+r<*-): {rn rn {rn mhnqjmiknlnoijnhim nkfqkkkhnklmginjog roqholnmkfffffffgjhf rkqlmfilhmgjljfihij:ronh oqhohnoihgnngijkhjh roqhohnoihgnngijkhjh V V |
  1
):-+:' {rn rn {rn {nl m {mi |
  1
,+->687+r<*-): {rn rn {rn mhnqjijkmfhhlngkmf nkfqmllhhmiinfkgkm roqkfmngllllllllnjkl roqjhhljomifngfimjgk oqjhhljomifngfimjfj roqjhhljomifngfimjim V V |
  1
/061+ {rn rn {rn mhnqffjnnlnoijnhik nkgqgokogflmginjog roqoimkfffffffffgjhgf |
  1
/061+ {rn rn {rn mhnqjmiknlnoijnhim nkgqgokogflmginjog roqoimkfffffffffgjhgf |
  1
,+->687+r<*-): {rn rn {rn mhnqhfmonlnoijnhil nkgqhknjgflmginjog nqkmnogjkhnjmomook:ronk n rnqglifofjlohlljijf:roni rmqkkfmnmhohikkhjkj:roni Y roqgolnjoooooooooonk Y oqlfigjoooooooooonj |
  1
/061+ {rn rn {rn mhnqjmiknlnoijnhim nkgqhknjgflmginjog nqkmnogjkhnjmomook:ronk |
  1
/061+ {rn rn {rn mhmqojhinlnoijnhik nkgqhknjgflmginjog nqkmnogjkhnjmomook:ronk |
1001
ACAD_OBJECT_CHANGE_GUID
1070
     1
1071
-1005522695
1070
-22613
1070
 17858
1070
   186
1070
    46
1070
   132
1070
    64
1070
    97
1070
   224
1070
   191
1070
   249
  0
REGION
  5
13D11
330
18
100
AcDbEntity
  8
RAIL
100
AcDbModelerGeometry
 70
     1
  1
mnjoo mh m mk          
  1
ni ^ *+0;:,4 ^ *+0\^ [ nf ^ LR mngqoqoqjnni QK o  
  1
mjqlffffffffffffff fqfffffffffffffffj:rooh n:rono 
  1
>,27:>;:- {rn rn _nm mngqoqoqjnni |
  1
=0;& {rn rn {rn {m {rn {rn |
  1
3*2/ {rn rn {rn {rn {l {n |
  1
,7:33 {rn rn {rn {rn {rn {k {rn {m |
  1
9><: {rn rn {rn {rn {j {l {rn {i 90-(>-; ;0*=3: 0*+ |
  1
300/ {rn rn {rn {rn {h {k |
  1
/3>1:r,*-9><: {rn rn {rn mhmqomililnoijnhik nkfqommglflmginjog roqolnmkffffffffgjhgf kqlmfilhmgjljfihhn:ronh roqhohnoihgnngijkhjh oqhohnoihgnngijkhjh rn nqmmkioiljlgmmlhhl:roni nqglifofjlohlljijf:roni 90-(>-;@) V V V V |
  1
<0:;8: {rn rn {rn {g {f {rn {no 90-(>-; {j {rn |
  1
<0:;8: {rn rn {rn {nn {h {rn {nm 90-(>-; {j {rn |
  1
<0:;8: {rn rn {rn {h {nn {rn {nl -:):-,:; {j {rn |
  1
:;8: {rn rn {rn {nk roqkfffjoooooooonmjj {nj roqolnmj {h {ni 90-(>-; _h *1410(1 |
  1
<0:;8: {rn rn {rn {f {g {rn {nh 90-(>-; {j {rn |
  1
:;8: {rn rn {rn {nj oqikokfhfjkggmmijg {ng oqhkghjnnloljjlmojf {g {nf 90-(>-; _h *1410(1 |
  1
:;8: {rn rn {rn {nk oqglfigflomijfomjnf {mo oqfmgohhijolohlklig {f {mn 90-(>-; _h *1410(1 |
  1
):-+:' {rn rn {rn {no m {mm |
  1
):-+:' {rn rn {rn {no m {ml |
  1
,+->687+r<*-): {rn rn {rn mhmqomililnoijnhik nkgqffnjgflmginjog roqoimkfffffffffgjhgf n rnqglifofjlohlljijf:roni rmqkkfmnmhohikkhjkj:roni Y rnqolhjooooooooooon Y oqnimjoooooooooooof |
  1
:;8: {rn rn {rn {ng roqolnmj {mo oqkfffjoooooooonmjj {nn {mk 90-(>-; _h *1410(1 |
  1
):-+:' {rn rn {rn {nh m {mj |
  1
,+->687+r<*-): {rn rn {rn mhnqimjlmnklfgjofj nkgqimnhfhiinfkglf roqklmmfniiiiiiijhnf oqjhhljomifngfimioi oqjhhljomifngfimjhl oqjhhljomifngfimjim V V |
  1
):-+:' {rn rn {rn {nl m {mi |
  1
,+->687+r<*-): {rn rn {rn mhnqjmiknlnoijnhim nkgqlfhglflmginjog roqijimkffffffffgjhf lqolohkioffhjnhhkg:roni oqhohnoihgnngijkhjh oqhohnoihgnngijkhjh V V |
  1
/061+ {rn rn {rn mhnqjmiknlnoijnhim nkgqffnjgflmginjog roqoimkfffffffffgjhgf |
  1
/061+ {rn rn {rn mhnqffjnnlnoijnhik nkgqffnjgflmginjog roqoimkfffffffffgjhgf |
  1
,+->687+r<*-): {rn rn {rn mhmqomililnoijnhik nkfqojkogflmginjog nqkmnogjkhnjmomook:ronk rn nqglifofjlohlljijf:roni mqkkfmnmhohikkhjkj:roni Y roqnimjoooooooooooof Y nqolhjooooooooooon |
  1
/061+ {rn rn {rn mhmqojhinlnoijnhik nkfqojkogflmginjog nqkmnogjkhnjmomook:ronk |
  1
/061+ {rn rn {rn mhnqjmiknlnoijnhim nkfqojkogflmginjog nqkmnogjkhnjmomook:ronk |
1001
ACAD_OBJECT_CHANGE_GUID
1070
     1
1071
-1795328995
1070
 20630
1070
 19930
1070
   171
1070
   232
1070
   255
1070
   177
1070
    46
1070
   207
1070
    78
1070
   118
  0
REGION
  5
13D12
330
18
100
AcDbEntity
  8
RAIL
100
AcDbModelerGeometry
 70
     1
  1
mnjoo mh m mk          
  1
ni ^ *+0;:,4 ^ *+0\^ [ nf ^ LR mngqoqoqjnni QK o  
  1
mjqlffffffffffffff fqfffffffffffffffj:rooh n:rono 
  1
>,27:>;:- {rn rn _nm mngqoqoqjnni |
  1
=0;& {rn rn {rn {m {rn {rn |
  1
3*2/ {rn rn {rn {rn {l {n |
  1
,7:33 {rn rn {rn {rn {rn {k {rn {m |
  1
9><: {rn rn {rn {rn {j {l {rn {i 90-(>-; ;0*=3: 0*+ |
  1
300/ {rn rn {rn {rn {h {k |
  1
/3>1:r,*-9><: {rn rn {rn mgkqlgjhgmgknjnhij nkgqhhmglflmginjog roqolnmkffffffffgjhgf rlqolohkioffhjnhhkl:roni oqhohnoihgnngijkhjh oqhohnoihgnngijkhjh rn rmqkkfmnmhohikkhjkj:roni rnqglifofjlohlljijf:roni -:):-,:@) V V V V |
  1
<0:;8: {rn rn {rn {g {f {rn {no -:):-,:; {j {rn |
  1
<0:;8: {rn rn {rn {nn {h {rn {nm -:):-,:; {j {rn |
  1
<0:;8: {rn rn {rn {h {nn {rn {nl 90-(>-; {j {rn |
  1
:;8: {rn rn {rn {nk roqmoloffffffffffmoi {nj oqmijiooooooooooimg {h {ni 90-(>-; _h *1410(1 |
  1
<0:;8: {rn rn {rn {f {g {rn {nh -:):-,:; {j {rn |
  1
:;8: {rn rn {rn {ng roqgjmkgijlffhnfklig {nk roqhkkmlllikkfggggff {g {nf 90-(>-; _h *1410(1 |
  1
:;8: {rn rn {rn {mo roqffkligfnnokljgmkf {nj roqfojfgojillfjmiknm {f {mn 90-(>-; _h *1410(1 |
  1
):-+:' {rn rn {rn {no m {mm |
  1
):-+:' {rn rn {rn {no m {ml |
  1
,+->687+r<*-): {rn rn {rn mgkqlgjhgmgknjnhij nkgqgokogflmginjog roqoimkfffffffffgjhgf n nqglifofjlohlljijf:roni mqkkfmnmhohikkhjkj:roni Y roqlfigjoooooooooonj Y oqgolnjoooooooooonk |
  1
:;8: {rn rn {rn {mo roqmijiooooooooooimg {ng oqmijjffffffffffmoi {nn {mk 90-(>-; _h *1410(1 |
  1
):-+:' {rn rn {rn {nh m {mj |
  1
,+->687+r<*-): {rn rn {rn mgkqinmliinhkgjoff nkfqmllhhmiinfkgkm roqkfmngllllllllnjkl oqjhhljomifngfimjgk oqjhhljomifngfimjfj roqjhhljomifngfimjim V V |
  1
):-+:' {rn rn {rn {nl m {mi |
  1
,+->687+r<*-): {rn rn {rn mgkqijnlgmgknjnhi nkfqkkkhnklmginjog roqholnmkfffffffgjhf kqlmfilhmgjljfihij:ronh oqhohnoihgnngijkhjh roqhohnoihgnngijkhjh V V |
  1
/061+ {rn rn {rn mgkqngmigmgknjnhij nkgqgokogflmginjog roqoimkfffffffffgjhgf |
  1
/061+ {rn rn {rn mgkqijnlgmgknjnhi nkgqgokogflmginjog roqoimkfffffffffgjhgf |
  1
,+->687+r<*-): {rn rn {rn mgkqlgjhgmgknjnhij nkgqhknjgflmginjog nqkmnogjkhnjmomook:ronk rn rnqglifofjlohlljijf:roni rmqkkfmnmhohikkhjkj:roni Y roqgolnjoooooooooonk Y oqlfigjoooooooooonj |
  1
/061+ {rn rn {rn mgkqnmongmgknjnhij nkgqhknjgflmginjog nqkmnogjkhnjmomook:ronk |
  1
/061+ {rn rn {rn mgkqijnlgmgknjnhi nkgqhknjgflmginjog nqkmnogjkhnjmomook:ronk |
1001
ACAD_OBJECT_CHANGE_GUID
1070
     1
1071
1528072305
1070
  -881
1070
 16685
1070
   187
1070
     1
1070
    36
1070
   249
1070
     7
1070
   209
1070
   220
1070
    83
  0
REGION
  5
13D13
330
18
100
AcDbEntity
  8
RAIL
100
AcDbModelerGeometry
 70
     1
  1
mnjoo mh m mk          
  1
ni ^ *+0;:,4 ^ *+0\^ [ nf ^ LR mngqoqoqjnni QK o  
  1
mjqlffffffffffffff fqfffffffffffffffj:rooh n:rono 
  1
>,27:>;:- {rn rn _nm mngqoqoqjnni |
  1
=0;& {rn rn {rn {m {rn {rn |
  1
3*2/ {rn rn {rn {rn {l {n |
  1
,7:33 {rn rn {rn {rn {rn {k {rn {m |
  1
9><: {rn rn {rn {rn {j {l {rn {i 90-(>-; ;0*=3: 0*+ |
  1
300/ {rn rn {rn {rn {h {k |
  1
/3>1:r,*-9><: {rn rn {rn mgkqnjnklmgknjnhij nkfqommglflmginjog roqolnmkffffffffgjhgf rkqlmfilhmgjljfihhn:ronh roqhohnoihgnngijkhjh oqhohnoihgnngijkhjh n nqmmkioiljlgmmlhhl:roni nqglifofjlohlljijf:roni -:):-,:@) V V V V |
  1
<0:;8: {rn rn {rn {g {f {rn {no -:):-,:; {j {rn |
  1
<0:;8: {rn rn {rn {nn {h {rn {nm 90-(>-; {j {rn |
  1
<0:;8: {rn rn {rn {h {nn {rn {nl -:):-,:; {j {rn |
  1
:;8: {rn rn {rn {nk roqkfffkfffffffffglk {nj roqolnmj {h {ni 90-(>-; _h *1410(1 |
  1
<0:;8: {rn rn {rn {f {g {rn {nh -:):-,:; {j {rn |
  1
:;8: {rn rn {rn {nk oqglfigflomijfomjnf {ng oqfmgohhijolohlklig {g {nf 90-(>-; _h *1410(1 |
  1
:;8: {rn rn {rn {nj oqikokfhfjkggmmjhjg {mo oqhkghjnnloljjlnmlg {f {mn 90-(>-; _h *1410(1 |
  1
):-+:' {rn rn {rn {no m {mm |
  1
):-+:' {rn rn {rn {no m {ml |
  1
,+->687+r<*-): {rn rn {rn mgkqnjnklmgknjnhij nkgqffnjgflmginjog roqoimkfffffffffgjhgf rn rnqglifofjlohlljijf:roni rmqkkfmnmhohikkhjkj:roni Y rnqolhjooooooooooon Y oqnimjoooooooooooof |
  1
:;8: {rn rn {rn {mo roqolnmj {ng oqkfffkfffffffffglk {nn {mk 90-(>-; _h *1410(1 |
  1
):-+:' {rn rn {rn {nh m {mj |
  1
,+->687+r<*-): {rn rn {rn mgkqijnlgmgknjnhi nkgqlfhglflmginjog roqijimkffffffffgjhf rlqolohkioffhjnhhkg:roni oqhohnoihgnngijkhjh oqhohnoihgnngijkhjh V V |
  1
):-+:' {rn rn {rn {nl m {mi |
  1
,+->687+r<*-): {rn rn {rn mgkqjjmkhkjogngkll nkgqimnhfhiinfkglf roqklmmfniiiiiiijhnf roqjhhljomifngfimioi oqjhhljomifngfimjhl oqjhhljomifngfimjim V V |
  1
/061+ {rn rn {rn mgkqijnlgmgknjnhi nkgqffnjgflmginjog roqoimkfffffffffgjhgf |
  1
/061+ {rn rn {rn mgkqngmigmgknjnhij nkgqffnjgflmginjog roqoimkfffffffffgjhgf |
  1
,+->687+r<*-): {rn rn {rn mgkqnjnklmgknjnhij nkfqojkogflmginjog nqkmnogjkhnjmomook:ronk n nqglifofjlohlljijf:roni mqkkfmnmhohikkhjkj:roni Y roqnimjoooooooooooof Y nqolhjooooooooooon |
  1
/061+ {rn rn {rn mgkqijnlgmgknjnhi nkfqojkogflmginjog nqkmnogjkhnjmomook:ronk |
  1
/061+ {rn rn {rn mgkqnmongmgknjnhij nkfqojkogflmginjog nqkmnogjkhnjmomook:ronk |
1001
ACAD_OBJECT_CHANGE_GUID
1070
     1
1071
-1517337984
1070
 24846
1070
 18569
1070
   188
1070
    40
1070
   100
1070
   216
1070
    41
1070
   116
1070
   102
1070
   121
  0
REGION
  5
13D14
330
18
100
AcDbEntity
  8
RAIL
100
AcDbModelerGeometry
 70
     1
  1
mnjoo mh m mk          
  1
ni ^ *+0;:,4 ^ *+0\^ [ nf ^ LR mngqoqoqjnni QK o  
  1
mjqlffffffffffffff fqfffffffffffffffj:rooh n:rono 
  1
>,27:>;:- {rn rn _nm mngqoqoqjnni |
  1
=0;& {rn rn {rn {m {rn {rn |
  1
3*2/ {rn rn {rn {rn {l {n |
  1
,7:33 {rn rn {rn {rn {rn {k {rn {m |
  1
9><: {rn rn {rn {rn {j {l {rn {i 90-(>-; ;0*=3: 0*+ |
  1
300/ {rn rn {rn {rn {h {k |
  1
/3>1:r,*-9><: {rn rn {rn mgiqolmlhomklimmkf nkhqjgjingmiginjoi nqkmnogjkhnjmomook:ronk o iqnmlolnhifnnnggil:ronh n o rn iqnmlolnhifnnnggil:ronh -:):-,:@) V V V V |
  1
<0:;8: {rn rn {rn {g {f {rn {no -:):-,:; {j {rn |
  1
<0:;8: {rn rn {rn {nn {h {rn {nm -:):-,:; {j {rn |
  1
<0:;8: {rn rn {rn {h {nn {rn {nl 90-(>-; {j {rn |
  1
:;8: {rn rn {rn {nk o {nj niqoojfhmmifiokggm {h {ni 90-(>-; _h *1410(1 |
  1
<0:;8: {rn rn {rn {f {g {rn {nh 90-(>-; {j {rn |
  1
:;8: {rn rn {rn {ng o {nk oqnghj {g {nf 90-(>-; _h *1410(1 |
  1
:;8: {rn rn {rn {mo o {nj oqnghj {f {mn 90-(>-; _h *1410(1 |
  1
):-+:' {rn rn {rn {no m {mm |
  1
):-+:' {rn rn {rn {no m {ml |
  1
,+->687+r<*-): {rn rn {rn mgiqolmlhomklimmkf nkhqlfgnngmiginjoi nqkmnogjkhnjmomook:ronk rn o o V V |
  1
:;8: {rn rn {rn {ng o {mo niqoojfhmmifiokggm {nn {mk 90-(>-; _h *1410(1 |
  1
):-+:' {rn rn {rn {nh m {mj |
  1
,+->687+r<*-): {rn rn {rn mgiqolmlhomklimmkf nkhqjgjingmiginjoi nqkmnogjkhnjmomook:ronk o rn iqnmlolnhifnnnggil:ronh V V |
  1
):-+:' {rn rn {rn {nl m {mi |
  1
,+->687+r<*-): {rn rn {rn mhoqomilfhfhkonhik nkhqjgjingmiginjoi nqkmnogjkhnjmomook:ronk o rn iqnmlolnhifnnnggil:ronh V V |
  1
/061+ {rn rn {rn mgiqolmlhomklimmkf nkhqlfgnngmiginjoi nqkmnogjkhnjmomook:ronk |
  1
/061+ {rn rn {rn mhoqomilfhfhkonhik nkhqlfgnngmiginjoi nqkmnogjkhnjmomook:ronk |
  1
,+->687+r<*-): {rn rn {rn mgiqolmlhomklimmkf nkhqjgjingmiginjoi nqkmnogjkhnjmomook:ronk rn o o V V |
  1
/061+ {rn rn {rn mgiqolmlhomklimmkf nkhqjgjingmiginjoi nqkmnogjkhnjmomook:ronk |
  1
/061+ {rn rn {rn mhoqomilfhfhkonhik nkhqjgjingmiginjoi nqkmnogjkhnjmomook:ronk |
1001
ACAD_OBJECT_CHANGE_GUID
1070
     1
1071
-1678701640
1070
-16373
1070
 17642
1070
   155
1070
   222
1070
   186
1070
   153
1070
   162
1070
    47
1070
   193
1070
    83
  0
REGION
  5
13D15
330
18
100
AcDbEntity
  8
RAIL
100
AcDbModelerGeometry
 70
     1
  1
mnjoo ih m mk          
  1
ni ^ *+0;:,4 ^ *+0\^ [ nf ^ LR mngqoqoqjnni QK o  
  1
mjqlffffffffffffff fqfffffffffffffffj:rooh n:rono 
  1
>,27:>;:- {rn rn _nm mngqoqoqjnni |
  1
=0;& {rn rn {rn {m {rn {rn |
  1
3*2/ {rn rn {rn {rn {l {n |
  1
,7:33 {rn rn {rn {rn {rn {k {rn {m |
  1
9><: {rn rn {rn {rn {j {l {rn {i 90-(>-; ;0*=3: 0*+ |
  1
300/ {rn rn {rn {rn {h {k |
  1
/3>1:r,*-9><: {rn rn {rn mhgqofkjnigfomllnk njoqlhlffjmfhhmhih o o nqmmkioiljlgmmlhhl:roni n n o o -:):-,:@) V V V V |
  1
<0:;8: {rn rn {rn {g {f {rn {no 90-(>-; {j {rn |
  1
<0:;8: {rn rn {rn {nn {h {rn {nm 90-(>-; {j {rn |
  1
<0:;8: {rn rn {rn {h {nl {rn {nk 90-(>-; {j {rn |
  1
:;8: {rn rn {rn {nj o {ni nqoimj {h {nh 90-(>-; _h *1410(1 |
  1
<0:;8: {rn rn {rn {ng {g {rn {nf 90-(>-; {j {rn |
  1
:;8: {rn rn {rn {ni o {mo oqnghj {g {mn 90-(>-; _h *1410(1 |
  1
<0:;8: {rn rn {rn {f {mm {rn {ml 90-(>-; {j {rn |
  1
:;8: {rn rn {rn {mk roqhgjlfgnillfhkimkf {nj oqhgjlfgnillfhklkoh {f {mj 90-(>-; _h *1410(1 |
  1
):-+:' {rn rn {rn {no m {mi |
  1
):-+:' {rn rn {rn {no m {mh |
  1
,+->687+r<*-): {rn rn {rn mgmqfohonigfomllnk njoqjmioinklfoghjg o rnqllhkfmmogkgfiool:ronk rn nqmmkioiljlgmmlhhl:roni V V |
  1
<0:;8: {rn rn {rn {mg {nn {rn {mf 90-(>-; {j {rn |
  1
:;8: {rn rn {rn {mo o {lo nqnghj {nn {ln 90-(>-; _h *1410(1 |
  1
):-+:' {rn rn {rn {nf m {lm |
  1
,+->687+r<*-): {rn rn {rn mgmqfohonigfomllnk nkfqkiljinklfoghjg o n o o V V |
  1
<0:;8: {rn rn {rn {nl {ll {rn {lk 90-(>-; {j {rn |
  1
:;8: {rn rn {rn {lj o {mk fqlhjoooooooooonkm {nl {li 90-(>-; _h *1410(1 |
  1
):-+:' {rn rn {rn {nk m {lh |
  1
:336/,:r<*-): {rn rn {rn mgmqhgmonigfomllnk njoqjmioinklfoghjg o ro rnqmmkioiljlgmmlhhl:roni rn oqogglgglkhikglnfjgj oqogglgglkhikglnhohl rnqogmkoflmnllffomi:ronh n V V |
  1
/061+ {rn rn {rn mgmqfohonigfomllnk njoqjmioinklfoghjg o |
  1
/061+ {rn rn {rn mgmqfohonigfomllnk nkfqkiljinklfoghjg o |
  1
<0:;8: {rn rn {rn {lg {ng {rn {lf 90-(>-; {j {rn |
  1
:;8: {rn rn {rn {lo roqhgjlfgnillfhkkgmg {ko oqhgjlfgnillfhkkgmg {ng {kn 90-(>-; _h *1410(1 |
  1
):-+:' {rn rn {rn {mf m {km |
  1
,+->687+r<*-): {rn rn {rn mglqofkjnigfomllnk nkfqkiljinklfoghjg o jqfgljnhhhkgmngfi:ronj n rnqmmkioiljlgmmlhhl:roni V V |
  1
/061+ {rn rn {rn mglqofkjnigfomllnk nkfqkiljinklfoghjg o |
  1
<0:;8: {rn rn {rn {mm {kl {rn {kk 90-(>-; {j {rn |
  1
:;8: {rn rn {rn {kj roqhgjlfgnillfhkkgmg {lj oqhgjlfgnillfhkkgmg {mm {ki 90-(>-; _h *1410(1 |
  1
):-+:' {rn rn {rn {ml m {kh |
  1
,+->687+r<*-): {rn rn {rn mhlqkohonigfomllnk njoqijnoinklfoghjg o n lqhgfjinmjhlghmolh:roni rkqikohmohflffjkgif:rolm V V |
  1
/061+ {rn rn {rn mgmqhgmonigfomllnk njoqijnoinklfoghjg o |
  1
<0:;8: {rn rn {rn {kg {mg {rn {kf 90-(>-; {j {rn |
  1
:;8: {rn rn {rn {ko o {jo fqimj {mg {jn 90-(>-; _h *1410(1 |
  1
):-+:' {rn rn {rn {lf m {jm |
  1
:336/,:r<*-): {rn rn {rn mgmqfohonigfomllnk njoqijnoinklfoghjg o o nqmmkioiljlgmmlhhl:roni n oqnlmjgmjmnkhmkhifg oqnlmjgmjmnkhmkhifg rnqimlinlfgmoofghoh:ronh n V V |
  1
/061+ {rn rn {rn mglqofkjnigfomllnk njoqijnoinklfoghjg o |
  1
<0:;8: {rn rn {rn {ll {kg {rn {jl 90-(>-; {j {rn |
  1
:;8: {rn rn {rn {jk o {kj nqoimj {ll {jj 90-(>-; _h *1410(1 |
  1
):-+:' {rn rn {rn {lk m {ji |
  1
:336/,:r<*-): {rn rn {rn mhlqkohonigfomllnk njoqjmioinklfoghjg o ro rnqmmkioiljlgmmlhhl:roni rn roqogglgglkhikglnfjfg oqogglgglkhikglnfjfg rnqogmkoflmnllfflli:ronh n V V |
  1
/061+ {rn rn {rn mhlqkohonigfomllnk njoqijnoinklfoghjg o |
  1
<0:;8: {rn rn {rn {kl {lg {rn {jh 90-(>-; {j {rn |
  1
:;8: {rn rn {rn {jo roqhgjlfgnillfhkkgmg {jg oqhgjlfgnillfhkkgmg {lg {jf 90-(>-; _h *1410(1 |
  1
):-+:' {rn rn {rn {kf m {io |
  1
,+->687+r<*-): {rn rn {rn mgmqfohonigfomllnk njoqglgjinklfoghjg o rn o o V V |
  1
/061+ {rn rn {rn mgmqfohonigfomllnk njoqglgjinklfoghjg o |
  1
:;8: {rn rn {rn {in o {jk oqnghj {kl {im 90-(>-; _h *1410(1 |
  1
):-+:' {rn rn {rn {kk m {il |
  1
,+->687+r<*-): {rn rn {rn mhlqmgmonigfomllnk nkfqkiljinklfoghjg o nqllhkfmmogkgfiool:ronk n rnqmmkioiljlgmmlhhl:roni V V |
  1
/061+ {rn rn {rn mhlqmgmonigfomllnk njoqjmioinklfoghjg o |
  1
:;8: {rn rn {rn {jg o {in nqnghj {kg {ik 90-(>-; _h *1410(1 |
  1
):-+:' {rn rn {rn {jh m {ij |
  1
:336/,:r<*-): {rn rn {rn mhlqmgmonigfomllnk njoqijnoinklfoghjg o o nqmmkioiljlgmmlhhl:roni n roqnlmjgmjmnkhmkhhij oqnlmjgmjmnkhmkhhij rnqimlinlfgmoofghf:ronh n V V |
  1
/061+ {rn rn {rn mhlqmgmonigfomllnk njoqglgjinklfoghjg o |
  1
):-+:' {rn rn {rn {jl m {ii |
  1
,+->687+r<*-): {rn rn {rn mhlqofkjnigfomllnk nkfqkiljinklfoghjg o n o o V V |
  1
/061+ {rn rn {rn mhlqmgmonigfomllnk nkfqkiljinklfoghjg o |
  1
,+->687+r<*-): {rn rn {rn mhlqofkjnigfomllnk njoqijnoinklfoghjg o o rn nqmmkioiljlgmmlhhl:roni V V |
  1
/061+ {rn rn {rn mhlqofkjnigfomllnk njoqijnoinklfoghjg o |
  1
/061+ {rn rn {rn mhlqofkjnigfomllnk nkfqkiljinklfoghjg o |
1001
ACAD_OBJECT_CHANGE_GUID
1070
     1
1071
-1206430001
1070
-16062
1070
 19760
1070
   186
1070
   241
1070
    82
1070
    10
1070
   233
1070
    25
1070
   102
1070
   239
  0
REGION
  5
13D16
330
18
100
AcDbEntity
  8
RAIL
100
AcDbModelerGeometry
 70
     1
  1
mnjoo jm m mk          
  1
ni ^ *+0;:,4 ^ *+0\^ [ nf ^ LR mngqoqoqjnni QK o  
  1
mjqlffffffffffffff fqfffffffffffffffj:rooh n:rono 
  1
>,27:>;:- {rn rn _nm mngqoqoqjnni |
  1
=0;& {rn rn {rn {m {rn {rn |
  1
3*2/ {rn rn {rn {rn {l {n |
  1
,7:33 {rn rn {rn {rn {rn {k {rn {m |
  1
9><: {rn rn {rn {rn {j {l {rn {i -:):-,:; ;0*=3: 0*+ |
  1
300/ {rn rn {rn {rn {h {k |
  1
/3>1:r,*-9><: {rn rn {rn mglqgkkjnigfomllnf nkfqjggjinklfoghll o mqkgigffjhjnioljof:ronj o rn o rn o -:):-,:@) V V V V |
  1
<0:;8: {rn rn {rn {g {f {rn {no -:):-,:; {j {rn |
  1
<0:;8: {rn rn {rn {nn {h {rn {nm -:):-,:; {j {rn |
  1
<0:;8: {rn rn {rn {h {nl {rn {nk -:):-,:; {j {rn |
  1
:;8: {rn rn {rn {nj roqhgjlfgnillfhkjmfk {ni oqhgjlfgnillfhkklhl {h {nh 90-(>-; _h *1410(1 |
  1
<0:;8: {rn rn {rn {ng {g {rn {nf -:):-,:; {j {rn |
  1
:;8: {rn rn {rn {mo roqgmjoooooooooonhoj {nj oqlmkffffffffffggil {g {mn 90-(>-; _h *1410(1 |
  1
<0:;8: {rn rn {rn {f {mm {rn {ml -:):-,:; {j {rn |
  1
:;8: {rn rn {rn {ni oqlkfffffffffffijgf {mk oqlhj {f {mj 90-(>-; _h *1410(1 |
  1
):-+:' {rn rn {rn {no m {mi |
  1
):-+:' {rn rn {rn {no m {mh |
  1
:336/,:r<*-): {rn rn {rn mgkqkfkjnigfomllnn nkgqgiljinklfoghlf o mqkgigffjhjnioljof:ronj ro rn oqohohnoihgnngijkglj oqohohnoihgnngijkngl nqgkhfjohgoihhohln:roni n V V |
  1
<0:;8: {rn rn {rn {mg {nn {rn {mf -:):-,:; {j {rn |
  1
:;8: {rn rn {rn {lo roqhgjlfgnillfhkkknh {mo oqhgjlfgnillfhkjmj {nn {ln 90-(>-; _h *1410(1 |
  1
):-+:' {rn rn {rn {nf m {lm |
  1
,+->687+r<*-): {rn rn {rn mgkqnifjnigfomllnl nkgqfiljinklfoghli o n rmqligkhjhgjgihookg:ronj mqkgigffjhjnioljof:ronj V V |
  1
<0:;8: {rn rn {rn {nl {ll {rn {lk -:):-,:; {j {rn |
  1
:;8: {rn rn {rn {mk rnqnmkffffffffffgjg {lj oqlhjoooooooooonkmn {nl {li 90-(>-; _h *1410(1 |
  1
):-+:' {rn rn {rn {nk m {lh |
  1
,+->687+r<*-): {rn rn {rn mgkqjfkjnigfomllnk nkfqmnljinklfoghli nqkmnogjkhnjmomook:ronk rmqligkhjhgjgiifffl:ronj rn rjqgfoninkmjijomngg:rolo V V |
  1
/061+ {rn rn {rn mgkqkfkjnigfomllnn nkgqfiljinklfoghli nqkmnogjkhnjmomook:ronk |
  1
/061+ {rn rn {rn mgkqjfkjnigfomllnk nkgqgiljinklfoghlf nqkmnogjkhnjmomook:ronk |
  1
<0:;8: {rn rn {rn {ll {ng {rn {lg -:):-,:; {j {rn |
  1
:;8: {rn rn {rn {lf roqfoooooooooooolknn {lo oqmkfffffffffffhnjg {ng {ko 90-(>-; _h *1410(1 |
  1
):-+:' {rn rn {rn {mf m {kn |
  1
:336/,:r<*-): {rn rn {rn mglqlkkjnigfomllnk nkfqoggjinklfoghlf o rmqkgigffjhjnioljof:ronj ro n roqogglgglkhikglngghh roqogglgglkhikglngnkn rmqlofflgkhjgkiljnk:roni n V V |
  1
/061+ {rn rn {rn mglqlkkjnigfomllnk nkgqfiljinklfoghlf o |
  1
<0:;8: {rn rn {rn {mm {mg {rn {km -:):-,:; {j {rn |
  1
:;8: {rn rn {rn {lj rnqnmkffffffffffhni {kl oqlhjoooooooooomgkm {mm {kk 90-(>-; _h *1410(1 |
  1
):-+:' {rn rn {rn {ml m {kj |
  1
,+->687+r<*-): {rn rn {rn mglqkifjnigfomllnk nkgqglgjinklfoghlf o rn mqjnijojjmmkglifng:ronj rmqkgigffjhjnioljof:ronj V V |
  1
/061+ {rn rn {rn mgkqjfkjnigfomllnk nkgqglgjinklfoghli nqkmnogjkhnjmomook:ronk |
  1
:;8: {rn rn {rn {ki roqhgjlfgnillfhlnmfk {lf oqhgjlfgnillfhkknjn {mg {kh 90-(>-; _h *1410(1 |
  1
):-+:' {rn rn {rn {lg m {kg |
  1
,+->687+r<*-): {rn rn {rn mglqmnfjnigfomllnk nkfqllgjinklfoghli o rjqkjhhfmomglommmn:ronj rn rnqljhmfgoihikfglkk:romf V V |
  1
/061+ {rn rn {rn mglqmnfjnigfomllnk nkfqoggjinklfoghlf o |
  1
:;8: {rn rn {rn {kl roqlghjooooooooonhoj {ki roqlimjooooooooonnlh {ll {kf 90-(>-; _h *1410(1 |
  1
):-+:' {rn rn {rn {lk m {jo |
  1
,+->687+r<*-): {rn rn {rn mglqofkjnigfomllnk nkfqfiljinklfoghli o kqhlifjnjhnhlkooom:ronj n nqnhgolmmgjnlookkm:romf V V |
  1
/061+ {rn rn {rn mglqofkjnigfomllnk nkgqglgjinklfoghlf o |
  1
):-+:' {rn rn {rn {km m {jn |
  1
:336/,:r<*-): {rn rn {rn mglqnnfjnigfomllnn njoqmlgjinklfoghlf nqkmnogjkhnjmomook:ronk mqkgigffjhjnioljof:ronj ro rn oqohohnoihgnngijilm oqohohnoihgnngijjlim nqgkhfjohgoihhnokm:roni n V V |
  1
/061+ {rn rn {rn mglqmnfjnigfomllnk njoqmlgjinklfoghlf o |
  1
,+->687+r<*-): {rn rn {rn mglqkgmonigfomllnl njoqllgjinklfoghli o n rmqonlmokknhfgifmjh:ronk mqkgigffjhjnioljof:ronj V V |
  1
/061+ {rn rn {rn mglqofkjnigfomllnk njoqllgjinklfoghlf o |
  1
/061+ {rn rn {rn mglqnnfjnigfomllnh njoqllgjinklfoghlf o |
1001
ACAD_OBJECT_CHANGE_GUID
1070
     1
1071
-426802369
1070
  5834
1070
 19017
1070
   188
1070
    23
1070
   247
1070
   125
1070
   236
1070
   166
1070
   146
1070
   160
  0
REGION
  5
13D17
330
18
100
AcDbEntity
  8
RAIL
100
AcDbModelerGeometry
 70
     1
  1
mnjoo ih m mk          
  1
ni ^ *+0;:,4 ^ *+0\^ [ nf ^ LR mngqoqoqjnni QK o  
  1
mjqlffffffffffffff fqfffffffffffffffj:rooh n:rono 
  1
>,27:>;:- {rn rn _nm mngqoqoqjnni |
  1
=0;& {rn rn {rn {m {rn {rn |
  1
3*2/ {rn rn {rn {rn {l {n |
  1
,7:33 {rn rn {rn {rn {rn {k {rn {m |
  1
9><: {rn rn {rn {rn {j {l {rn {i -:):-,:; ;0*=3: 0*+ |
  1
300/ {rn rn {rn {rn {h {k |
  1
/3>1:r,*-9><: {rn rn {rn mgjqmkjnkhfhkonhik nkhqjgjingmiginjoi nqkmnogjkhnjmomook:ronk nqlljnjimjlfofhlgi:roni rlqoglimjgikjhlknjn:roni rn nqmmkioiljlgmmlhig:roni rn lqoglimjgikjhlknin:roni -:):-,:@) V V V V |
  1
<0:;8: {rn rn {rn {g {f {rn {no 90-(>-; {j {rn |
  1
<0:;8: {rn rn {rn {nn {h {rn {nm 90-(>-; {j {rn |
  1
<0:;8: {rn rn {rn {h {nl {rn {nk 90-(>-; {j {rn |
  1
:;8: {rn rn {rn {nj rnqfffkkmnnffffffhh {ni o {h {nh 90-(>-; _h *1410(1 |
  1
<0:;8: {rn rn {rn {ng {g {rn {nf 90-(>-; {j {rn |
  1
:;8: {rn rn {rn {ni roqfffhmnojffffffggl {mo o {g {mn 90-(>-; _h *1410(1 |
  1
<0:;8: {rn rn {rn {f {mm {rn {ml 90-(>-; {j {rn |
  1
:;8: {rn rn {rn {mk roqfffhmnojffffffggl {nj o {f {mj 90-(>-; _h *1410(1 |
  1
):-+:' {rn rn {rn {no m {mi |
  1
):-+:' {rn rn {rn {no m {mh |
  1
,+->687+r<*-): {rn rn {rn mgjqmkjnkhfhkonhik nkfqjgjoiolgginjoi nqkmnogjkhnjmomook:ronk rnqmmkioiljlgmmlhig:roni n rlqoglimjgikjhlknin:roni V V |
  1
<0:;8: {rn rn {rn {mg {nn {rn {mf 90-(>-; {j {rn |
  1
:;8: {rn rn {rn {mo roqoimkgmjiimkfffhmim {lo o {nn {ln 90-(>-; _h *1410(1 |
  1
):-+:' {rn rn {rn {nf m {lm |
  1
,+->687+r<*-): {rn rn {rn mgkqmkjkmifnkonhil nkfqjgjoiolgginjoi nqkmnogjkhnjmomook:ronk rn rnqmmkioiljlgmmlhhl:roni rnqlljnjimjlfofhlgi:roni V V |
  1
<0:;8: {rn rn {rn {nl {ll {rn {lk 90-(>-; {j {rn |
  1
:;8: {rn rn {rn {lj roqoimkgmjiimkfffhmim {mk o {nl {li 90-(>-; _h *1410(1 |
  1
):-+:' {rn rn {rn {nk m {lh |
  1
,+->687+r<*-): {rn rn {rn mgjqmkjnkhfhkonhik nkhqjgjingmiginjoi nqkmnogjkhnjmomook:ronk n nqmmkioiljlgmmlhhl:roni nqlljnjimjlfofhlgi:roni V V |
  1
/061+ {rn rn {rn mgjqmkjnkhfhkonhik nkhqjgjingmiginjoi nqkmnogjkhnjmomook:ronk |
  1
/061+ {rn rn {rn mgjqmkjnkhfhkonhik nkfqjgjoiolgginjoi nqkmnogjkhnjmomook:ronk |
  1
<0:;8: {rn rn {rn {lg {ng {rn {lf 90-(>-; {j {rn |
  1
:;8: {rn rn {rn {lo roqhgjlfgnillfhkimkf {ko oqhgjlfgnillfhklkoh {ng {kn 90-(>-; _h *1410(1 |
  1
):-+:' {rn rn {rn {mf m {km |
  1
,+->687+r<*-): {rn rn {rn mgkqmkjkmifnkonhil nkfqjmmjhhgmmlijoh nqkmnogjkhnjmomook:ronk rmqglohnhgfjgifnlgj:ronk rn lqoglimjgikjhllhhi:roni V V |
  1
/061+ {rn rn {rn mgkqmkjkmifnkonhil nkfqjgjoiolgginjoi nqkmnogjkhnjmomook:ronk |
  1
<0:;8: {rn rn {rn {mm {kl {rn {kk 90-(>-; {j {rn |
  1
:;8: {rn rn {rn {kj roqhgjlfgnillfhknfgi {lj oqhgjlfgnillfhkhih {mm {ki 90-(>-; _h *1410(1 |
  1
):-+:' {rn rn {rn {ml m {kh |
  1
,+->687+r<*-): {rn rn {rn mgkqmkjkmifnkonhil nkhqjgjingmiginjoi nqkmnogjkhnjmomook:ronk mqgjjmnoommfkjjgin:ronk rn lqoglimjgikjhlkjli:roni V V |
  1
/061+ {rn rn {rn mgkqmkjkmifnkonhil nkhqjgjingmiginjoi nqkmnogjkhnjmomook:ronk |
  1
<0:;8: {rn rn {rn {kg {mg {rn {kf 90-(>-; {j {rn |
  1
:;8: {rn rn {rn {ko roqhkfhfohfjooooofhg {jo o {mg {jn 90-(>-; _h *1410(1 |
  1
):-+:' {rn rn {rn {lf m {jm |
  1
:336/,:r<*-): {rn rn {rn mgkqlohfofkgomihij nkfqjmmjhhgmmlijoh nqkmnogjkhnjmomook:ronk rnqlljnjimjlfofhlgi:roni lqoglimjgikjhlknjn:roni n roqokkngngkilonlnnknh roqokkngngkilonlnmihl hqhmjoinjioogiomif:rong n V V |
  1
/061+ {rn rn {rn mgkqmkjkmifnkonhil nkfqjmmjhhgmmlijoh nqkmnogjkhnjmomook:ronk |
  1
<0:;8: {rn rn {rn {ll {kg {rn {jl 90-(>-; {j {rn |
  1
:;8: {rn rn {rn {jk roqhkfhfohfjooooofhg {kj o {ll {jj 90-(>-; _h *1410(1 |
  1
):-+:' {rn rn {rn {lk m {ji |
  1
:336/,:r<*-): {rn rn {rn mgkqlohfofkgomihij nkhqikgnooglkgijoi nqkmnogjkhnjmomook:ronk rnqlljnjimjlfofhlgi:roni lqoglimjgikjhlknjn:roni n roqokkngngkilonlogmi oqokkngngkilonlnohhm rnqfjmmffjmlfhhffhh:ronh n V V |
  1
/061+ {rn rn {rn mgkqmkjkmifnkonhil nkhqikgnooglkgijoi nqkmnogjkhnjmomook:ronk |
  1
<0:;8: {rn rn {rn {kl {lg {rn {jh 90-(>-; {j {rn |
  1
:;8: {rn rn {rn {jo roqhgjlfgnillfhklkoh {jg oqhgjlfgnillfhkimkf {lg {jf 90-(>-; _h *1410(1 |
  1
):-+:' {rn rn {rn {kf m {io |
  1
,+->687+r<*-): {rn rn {rn mgjqojhhoomhjmihim nkfqkioofjmjinnjoh nqkmnogjkhnjmomook:ronk n nqmmkioiljlgmmlhhl:roni nqlljnjimjlfofhlgi:roni V V |
  1
/061+ {rn rn {rn mgkqlohfofkgomihij nkfqkioofjmjinnjoh nqkmnogjkhnjmomook:ronk |
  1
:;8: {rn rn {rn {in roqhgjlfgnillfhigffh {jk oqhgjlfgnillfhiinjj {kl {im 90-(>-; _h *1410(1 |
  1
):-+:' {rn rn {rn {kk m {il |
  1
,+->687+r<*-): {rn rn {rn mgkqlohfofkgomihij nkhqhnojglkonnnjoi nqkmnogjkhnjmomook:ronk rn rnqmmkioiljlgmmlhhl:roni rnqlljnjimjlfofhlgi:roni V V |
  1
/061+ {rn rn {rn mgkqlohfofkgomihij nkhqhnojglkonnnjoi nqkmnogjkhnjmomook:ronk |
  1
:;8: {rn rn {rn {jg rnqimkjkihmmkfffgjh {in o {kg {ik 90-(>-; _h *1410(1 |
  1
):-+:' {rn rn {rn {jh m {ij |
  1
:336/,:r<*-): {rn rn {rn mgjqojhhoomhjmihim nkfqlfhinmigfgijoh nqkmnogjkhnjmomook:ronk nqlljnjimjlfofhlgi:roni rlqoglimjgikjhlknjn:roni rn oqokkngngkilonlnonk oqokkngngkilonlnnlfi rhqhmjoinjioogjgonf:rong n V V |
  1
/061+ {rn rn {rn mgjqojhhoomhjmihim nkfqkioofjmjinnjoh nqkmnogjkhnjmomook:ronk |
  1
):-+:' {rn rn {rn {jl m {ii |
  1
:336/,:r<*-): {rn rn {rn mgjqojhhoomhjmihim nkhqhhloijfihlijoi nqkmnogjkhnjmomook:ronk nqlljnjimjlfofhlgi:roni rlqoglimjgikjhlknjn:roni rn oqokkngngkilonlmnlgg roqokkngngkilonlomjkf nqfjmmffjmlfhhfnfk:ronh n V V |
  1
/061+ {rn rn {rn mgjqojhhoomhjmihim nkhqhnojglkonnnjoi nqkmnogjkhnjmomook:ronk |
  1
,+->687+r<*-): {rn rn {rn mgjqnmongmgknjnhij nkhqhhloijfihlijog nqkmnogjkhnjmomook:ronk nqmmkioiljlgmmlhig:roni rn lqoglimjgikjhlknin:roni V V |
  1
/061+ {rn rn {rn mgjqnmongmgknjnhij nkfqlfhinmigfgijoh nqkmnogjkhnjmomook:ronk |
  1
/061+ {rn rn {rn mgjqnmongmgknjnhij nkhqhhloijfihlijog nqkmnogjkhnjmomook:ronk |
1001
ACAD_OBJECT_CHANGE_GUID
1070
     1
1071
-361534972
1070
 -2876
1070
 17843
1070
   169
1070
    31
1070
   112
1070
   135
1070
    70
1070
    27
1070
    72
1070
    60
  0
REGION
  5
13D18
330
18
100
AcDbEntity
  8
RAIL
100
AcDbModelerGeometry
 70
     1
  1
mnjoo jh m mk          
  1
ni ^ *+0;:,4 ^ *+0\^ [ nf ^ LR mngqoqoqjnni QK o  
  1
mjqlffffffffffffff fqfffffffffffffffj:rooh n:rono 
  1
>,27:>;:- {rn rn _nm mngqoqoqjnni |
  1
=0;& {rn rn {rn {m {rn {rn |
  1
3*2/ {rn rn {rn {rn {l {n |
  1
,7:33 {rn rn {rn {rn {rn {k {rn {m |
  1
9><: {rn rn {rn {rn {j {l {rn {i -:):-,:; ;0*=3: 0*+ |
  1
300/ {rn rn {rn {rn {h {k |
  1
/3>1:r,*-9><: {rn rn {rn mgkqnmongmgknjnhij nkfqkjfogflmginjog nqkmnogjkhnjmomook:ronk mqkkfmnmhohikkhjkj:roni kqkfgfgmnijkiiknml:rolm rn rnqglifofjlohlljijf:roni n o -:):-,:@) V V V V |
  1
<0:;8: {rn rn {rn {g {f {rn {no 90-(>-; {j {rn |
  1
<0:;8: {rn rn {rn {nn {h {rn {nm 90-(>-; {j {rn |
  1
<0:;8: {rn rn {rn {h {nl {rn {nk 90-(>-; {j {rn |
  1
:;8: {rn rn {rn {nj roqolnmj {ni oqkfffkfffffffffglk {h {nh 90-(>-; _h *1410(1 |
  1
<0:;8: {rn rn {rn {ng {g {rn {nf 90-(>-; {j {rn |
  1
:;8: {rn rn {rn {ni oqnhnmkffffffffgili {mo oqkglhkffffffffgili {g {mn 90-(>-; _h *1410(1 |
  1
<0:;8: {rn rn {rn {f {mm {rn {ml 90-(>-; {j {rn |
  1
:;8: {rn rn {rn {mk roqkojooooooooooonnk {nj o {f {mj 90-(>-; _h *1410(1 |
  1
):-+:' {rn rn {rn {no m {mi |
  1
):-+:' {rn rn {rn {no m {mh |
  1
,+->687+r<*-): {rn rn {rn mgkqnjnklmgknjnhij nkfqojkogflmginjog nqkmnogjkhnjmomook:ronk n nqglifofjlohlljijf:roni mqkkfmnmhohikkhjkj:roni Y roqnimjoooooooooooof Y nqolhjooooooooooon |
  1
<0:;8: {rn rn {rn {mg {nn {rn {mf 90-(>-; {j {rn |
  1
:;8: {rn rn {rn {mo roqmijiooooooooooimg {lo oqmijjffffffffffmoi {nn {ln 90-(>-; _h *1410(1 |
  1
):-+:' {rn rn {rn {nf m {lm |
  1
,+->687+r<*-): {rn rn {rn mgkqijnlgmgknjnhi nkfqmmjllflmginjoi nqkmnogjkhnjmomook:ronk nqglifofjlohlljijf:roni rn o V V |
  1
<0:;8: {rn rn {rn {nl {ll {rn {lk 90-(>-; {j {rn |
  1
:;8: {rn rn {rn {lj roqghj {mk o {nl {li 90-(>-; _h *1410(1 |
  1
):-+:' {rn rn {rn {nk m {lh |
  1
,+->687+r<*-): {rn rn {rn mgkqnmongmgknjnhij nkfqojkogflmginjog nqkmnogjkhnjmomook:ronk nqglifofjlohlljijf:roni rn o V V |
  1
/061+ {rn rn {rn mgkqnmongmgknjnhij nkfqojkogflmginjog nqkmnogjkhnjmomook:ronk |
  1
/061+ {rn rn {rn mgkqijnlgmgknjnhi nkfqojkogflmginjog nqkmnogjkhnjmomook:ronk |
  1
<0:;8: {rn rn {rn {lg {ng {rn {lf 90-(>-; {j {rn |
  1
:;8: {rn rn {rn {lo rnqoloooooooooooonn {ko o {ng {kn 90-(>-; _h *1410(1 |
  1
):-+:' {rn rn {rn {mf m {km |
  1
,+->687+r<*-): {rn rn {rn mgkqlgjhgmgknjnhij nkgqhknjgflmginjog nqkmnogjkhnjmomook:ronk rn rnqglifofjlohlljijf:roni rmqkkfmnmhohikkhjkj:roni Y roqgolnjoooooooooonk Y oqlfigjoooooooooonj |
  1
/061+ {rn rn {rn mgkqijnlgmgknjnhi nkgqhknjgflmginjog nqkmnogjkhnjmomook:ronk |
  1
<0:;8: {rn rn {rn {mm {lg {rn {kl 90-(>-; {j {rn |
  1
:;8: {rn rn {rn {kk roqnhihhiifjmfiilifm {lj o {mm {kj 90-(>-; _h *1410(1 |
  1
):-+:' {rn rn {rn {ml m {ki |
  1
,+->687+r<*-): {rn rn {rn mgkqnmongmgknjnhij nkfqkjfogflmginjog nqkmnogjkhnjmomook:ronk rn rnqglifofjlohlljijf:roni rmqkkfmnmhohikkhjkj:roni V V |
  1
/061+ {rn rn {rn mgkqnmongmgknjnhij nkfqkjfogflmginjog nqkmnogjkhnjmomook:ronk |
  1
<0:;8: {rn rn {rn {ll {mg {rn {kh 90-(>-; {j {rn |
  1
:;8: {rn rn {rn {ko roqghj {kg o {mg {kf 90-(>-; _h *1410(1 |
  1
):-+:' {rn rn {rn {lf m {jo |
  1
,+->687+r<*-): {rn rn {rn mgkqnmongmgknjnhij nkhqhnnjgflmginjog nqkmnogjkhnjmomook:ronk nqglifofjlohlljijf:roni rn o V V |
  1
/061+ {rn rn {rn mgkqnmongmgknjnhij nkgqhknjgflmginjog nqkmnogjkhnjmomook:ronk |
  1
:;8: {rn rn {rn {jn rnqkfhjooooooooooml {kk o {ll {jm 90-(>-; _h *1410(1 |
  1
):-+:' {rn rn {rn {lk m {jl |
  1
,+->687+r<*-): {rn rn {rn mgkqffjngmgknjnhij nkfqkjfogflmginjog nqkmnogjkhnjmomook:ronk roqhohnoihgnngijkhjh oqhohnoihgnngijkhlj rnqhlngjkfnknklghog:roni V V |
  1
/061+ {rn rn {rn mgkqffjngmgknjnhij nkfqkjfogflmginjog nqkmnogjkhnjmomook:ronk |
  1
:;8: {rn rn {rn {kg roqnhihhiifjmfiilifm {jn o {lg {jk 90-(>-; _h *1410(1 |
  1
):-+:' {rn rn {rn {kh m {jj |
  1
,+->687+r<*-): {rn rn {rn mgkqffjngmgknjnhij nkhqhnnjgflmginjog nqkmnogjkhnjmomook:ronk n nqglifofjlohlljijf:roni mqkkfmnmhohikkhjkj:roni V V |
  1
/061+ {rn rn {rn mgkqnmongmgknjnhij nkhqhnnjgflmginjog nqkmnogjkhnjmomook:ronk |
  1
):-+:' {rn rn {rn {kl m {ji |
  1
,+->687+r<*-): {rn rn {rn mgjqnmongmgknjnhij nkfqllkogflmginjog nqkmnogjkhnjmomook:ronk rnqglifofjlohlljijf:roni n o V V |
  1
/061+ {rn rn {rn mgjqnmongmgknjnhij nkfqllkogflmginjog nqkmnogjkhnjmomook:ronk |
  1
,+->687+r<*-): {rn rn {rn mgjqnmongmgknjnhij nkhqglijgflmginjog nqkmnogjkhnjmomook:ronk oqhohnoihgnngijkhlj oqhohnoihgnngijkhjh nqhlngjkfnknklghog:roni V V |
  1
/061+ {rn rn {rn mgkqffjngmgknjnhij nkhqhnnjgflmginjog nqkmnogjkhnjmomook:ronk |
  1
/061+ {rn rn {rn mgjqnmongmgknjnhij nkhqglijgflmginjog nqkmnogjkhnjmomook:ronk |
1001
ACAD_OBJECT_CHANGE_GUID
1070
     1
1071
1058646237
1070
-11250
1070
 17380
1070
   167
1070
    82
1070
   231
1070
    84
1070
   224
1070
    80
1070
   229
1070
     1
  0
REGION
  5
13D19
330
18
100
AcDbEntity
  8
RAIL
100
AcDbModelerGeometry
 70
     1
  1
mnjoo jm m mk          
  1
ni ^ *+0;:,4 ^ *+0\^ [ nf ^ LR mngqoqoqjnni QK o  
  1
mjqlffffffffffffff fqfffffffffffffffj:rooh n:rono 
  1
>,27:>;:- {rn rn _nm mngqoqoqjnni |
  1
=0;& {rn rn {rn {m {rn {rn |
  1
3*2/ {rn rn {rn {rn {l {n |
  1
,7:33 {rn rn {rn {rn {rn {k {rn {m |
  1
9><: {rn rn {rn {rn {j {l {rn {i -:):-,:; ;0*=3: 0*+ |
  1
300/ {rn rn {rn {rn {h {k |
  1
/3>1:r,*-9><: {rn rn {rn mhmqlkkjnigfomllnf nkfqjggjinklfoghli rmqgkmnhofklokokooh:ronk mqkgigffjhjnioljof:ronj o rn o rn o -:):-,:@) V V V V |
  1
<0:;8: {rn rn {rn {g {f {rn {no -:):-,:; {j {rn |
  1
<0:;8: {rn rn {rn {nn {h {rn {nm -:):-,:; {j {rn |
  1
<0:;8: {rn rn {rn {h {nl {rn {nk -:):-,:; {j {rn |
  1
:;8: {rn rn {rn {nj roqhgjlfgnillfhkklhl {ni oqhgjlfgnillfhkjmfk {h {nh 90-(>-; _h *1410(1 |
  1
<0:;8: {rn rn {rn {ng {g {rn {nf -:):-,:; {j {rn |
  1
:;8: {rn rn {rn {mo roqlhj {nj roqlkffffffffffffklm {g {mn 90-(>-; _h *1410(1 |
  1
<0:;8: {rn rn {rn {f {mm {rn {ml -:):-,:; {j {rn |
  1
:;8: {rn rn {rn {ni roqlmjoooooooooonhoj {mk oqgmkffffffffffggil {f {mj 90-(>-; _h *1410(1 |
  1
):-+:' {rn rn {rn {no m {mi |
  1
):-+:' {rn rn {rn {no m {mh |
  1
:336/,:r<*-): {rn rn {rn mhnqifkjnigfomlln nkgqgiljinklfoghkm rmqgkmnhofklokokooh:ronk mqkgigffjhjnioljof:ronj ro rn roqohohnoihgnngijkglj oqohohnoihgnngijkngl nqgkhfjohgoihhohln:roni n V V |
  1
<0:;8: {rn rn {rn {mg {nn {rn {mf -:):-,:; {j {rn |
  1
:;8: {rn rn {rn {lo roqlhj {mo nqnmj {nn {ln 90-(>-; _h *1410(1 |
  1
):-+:' {rn rn {rn {nf m {lm |
  1
,+->687+r<*-): {rn rn {rn mhnqjfkjnigfomllnk nkfqmnljinklfoghkn rmqgkmnhofklokokooh:ronk rmqligkhjhgjgiifffl:ronj n rjqgfoninkmjijomngg:rolo V V |
  1
<0:;8: {rn rn {rn {nl {ll {rn {lk -:):-,:; {j {rn |
  1
:;8: {rn rn {rn {mk roqhgjlfgnillfhkjmj {lj oqhgjlfgnillfhkkknh {nl {li 90-(>-; _h *1410(1 |
  1
):-+:' {rn rn {rn {nk m {lh |
  1
,+->687+r<*-): {rn rn {rn mhmqonfjnigfomllnj nkgqfiljinklfoghkn rmqgkmnhofklokokooh:ronk n mqligkhjhgjgiiffl:ronj mqkgigffjhjnioljof:ronj V V |
  1
/061+ {rn rn {rn mhnqjfkjnigfomllnk nkgqgiljinklfoghkm rmqgkmnhofklokokooh:ronk |
  1
/061+ {rn rn {rn mhnqifkjnigfomlln nkgqfiljinklfoghkn rmqgkmnhofklokokooh:ronk |
  1
<0:;8: {rn rn {rn {ll {ng {rn {lg -:):-,:; {j {rn |
  1
:;8: {rn rn {rn {lf roqlhj {lo nqnmj {ng {ko 90-(>-; _h *1410(1 |
  1
):-+:' {rn rn {rn {mf m {kn |
  1
,+->687+r<*-): {rn rn {rn mhmqhnfjnigfomllnk nkgqglgjinklfoghkn rmqgkmnhofklokokooh:ronk rn rmqjnijojjmmkglig:ronj rmqkgigffjhjnioljof:ronj V V |
  1
/061+ {rn rn {rn mhnqjfkjnigfomllnk nkgqglgjinklfoghkn rmqgkmnhofklokokooh:ronk |
  1
<0:;8: {rn rn {rn {mm {mg {rn {km -:):-,:; {j {rn |
  1
:;8: {rn rn {rn {lj roqmj {kl oqfooooooooooooojig {mm {kk 90-(>-; _h *1410(1 |
  1
):-+:' {rn rn {rn {ml m {kj |
  1
:336/,:r<*-): {rn rn {rn mhmqgkkjnigfomllnk nkfqoggjinklfoghkn rmqgkmnhofklokokooh:ronk rmqkgigffjhjnioljof:ronj ro n oqogglgglkhikglngghh roqogglgglkhikglngnkn rmqlofflgkhjgkiljnk:roni n V V |
  1
/061+ {rn rn {rn mhmqgkkjnigfomllnk nkgqfiljinklfoghkn rnqkmnogjkhnjmomook:ronk |
  1
:;8: {rn rn {rn {ki oqlimkfffffffffgmfj {lf oqlghkfffffffffggil {mg {kh 90-(>-; _h *1410(1 |
  1
):-+:' {rn rn {rn {lg m {kg |
  1
,+->687+r<*-): {rn rn {rn mhlqofkjnigfomllnk nkfqfiljinklfoghkn rnqkmnogjkhnjmomook:ronk kqhlifjnjhnhlkooom:ronj rn nqnhgolmmgjnlookkm:romf V V |
  1
/061+ {rn rn {rn mhlqofkjnigfomllnk nkgqglgjinklfoghkn rnqkmnogjkhnjmomook:ronk |
  1
:;8: {rn rn {rn {kl roqhgjlfgnillfhkknim {ki oqhgjlfgnillfhkjjoj {ll {kf 90-(>-; _h *1410(1 |
  1
):-+:' {rn rn {rn {lk m {jo |
  1
,+->687+r<*-): {rn rn {rn mhmqfifjnigfomllnk nkfqllgjinklfoghkn rmqgkmnhofklokokooh:ronk rjqkjhhfmomglommmn:ronj n rnqljhmfgoihikfglkk:romf V V |
  1
/061+ {rn rn {rn mhmqfifjnigfomllnk nkfqoggjinklfoghkn rnqkmnogjkhnjmomook:ronk |
  1
):-+:' {rn rn {rn {km m {jn |
  1
,+->687+r<*-): {rn rn {rn mhmqhohonigfomllnj njoqllgjinklfoghkn rmqgkmnhofklokokooh:ronk n mqonlmokknhfgifmkk:ronk mqkgigffjhjnioljof:ronj V V |
  1
/061+ {rn rn {rn mhlqofkjnigfomllnk njoqllgjinklfoghkn rnqkmnogjkhnjmomook:ronk |
  1
:336/,:r<*-): {rn rn {rn mhlqoifjnigfomlln njoqmlgjinklfoghkm rnqkmnogjkhnjmomook:ronk mqkgigffjhjnioljof:ronj ro rn roqohohnoihgnngijilm oqohohnoihgnngijjlim nqgkhfjohgoihhnokm:roni n V V |
  1
/061+ {rn rn {rn mhmqfifjnigfomllnk njoqmlgjinklfoghkm rnqkmnogjkhnjmomook:ronk |
  1
/061+ {rn rn {rn mhlqoifjnigfomlln njoqllgjinklfoghkn rnqkmnogjkhnjmomook:ronk |
1001
ACAD_OBJECT_CHANGE_GUID
1070
     1
1071
-1920498749
1070
-10028
1070
 18310
1070
   128
1070
    53
1070
    36
1070
   203
1070
   199
1070
   219
1070
    76
1070
     0
  0
REGION
  5
13D1A
330
18
100
AcDbEntity
  8
RAIL
100
AcDbModelerGeometry
 70
     1
  1
mnjoo ih m mk          
  1
ni ^ *+0;:,4 ^ *+0\^ [ nf ^ LR mngqoqoqjnni QK o  
  1
mjqlffffffffffffff fqfffffffffffffffj:rooh n:rono 
  1
>,27:>;:- {rn rn _nm mngqoqoqjnni |
  1
=0;& {rn rn {rn {m {rn {rn |
  1
3*2/ {rn rn {rn {rn {l {n |
  1
,7:33 {rn rn {rn {rn {rn {k {rn {m |
  1
9><: {rn rn {rn {rn {j {l {rn {i 90-(>-; ;0*=3: 0*+ |
  1
300/ {rn rn {rn {rn {h {k |
  1
/3>1:r,*-9><: {rn rn {rn mhnqkhflhokmghojnm nkgqjgjllflmginjog nqkmnogjkhnjmomook:ronk riqilmffkoojmkninjj:rong rkqljmkjmnhgklohlil:roni n nqmmkioiljlgmmlhhg:roni rn rkqljmkjmnhgklohlhl:roni -:):-,:@) V V V V |
  1
<0:;8: {rn rn {rn {g {f {rn {no 90-(>-; {j {rn |
  1
<0:;8: {rn rn {rn {nn {h {rn {nm 90-(>-; {j {rn |
  1
<0:;8: {rn rn {rn {h {nl {rn {nk 90-(>-; {j {rn |
  1
:;8: {rn rn {rn {nj o {ni oqfffhmnojfffffgkim {h {nh 90-(>-; _h *1410(1 |
  1
<0:;8: {rn rn {rn {ng {g {rn {nf 90-(>-; {j {rn |
  1
:;8: {rn rn {rn {ni o {mo oqoimkgmjiimkfffhmim {g {mn 90-(>-; _h *1410(1 |
  1
<0:;8: {rn rn {rn {f {mm {rn {ml 90-(>-; {j {rn |
  1
:;8: {rn rn {rn {mk ro {nj nqfffkkmnnffffffhh {f {mj 90-(>-; _h *1410(1 |
  1
):-+:' {rn rn {rn {no m {mi |
  1
):-+:' {rn rn {rn {no m {mh |
  1
,+->687+r<*-): {rn rn {rn mhoqflmikhfhkonhik nkhqjgjingmiginjoi nqkmnogjkhnjmomook:ronk n nqmmkioiljlgmmlhg:roni iqilmffkoojmknignh:rong V V |
  1
<0:;8: {rn rn {rn {mg {nn {rn {mf 90-(>-; {j {rn |
  1
:;8: {rn rn {rn {mo roqhgjlfgnillfhkhifm {lo oqhgjlfgnillfhknfhj {nn {ln 90-(>-; _h *1410(1 |
  1
):-+:' {rn rn {rn {nf m {lm |
  1
,+->687+r<*-): {rn rn {rn mhnqflmlifolkonhi nkhqjgjingmiginjoi nqkmnogjkhnjmomook:ronk mqglohnhgfjgifnlgj:ronk n kqljmkjmnhgklohlfl:roni V V |
  1
<0:;8: {rn rn {rn {nl {ll {rn {lk 90-(>-; {j {rn |
  1
:;8: {rn rn {rn {lj o {mk oqfffhmnojfffffgkim {nl {li 90-(>-; _h *1410(1 |
  1
):-+:' {rn rn {rn {nk m {lh |
  1
,+->687+r<*-): {rn rn {rn mhoqflmikhfhkonhik nkfqjgjoiolgginjoi nqkmnogjkhnjmomook:ronk nqmmkioiljlgmmlhhg:roni rn rkqljmkjmnhgklohlhl:roni V V |
  1
/061+ {rn rn {rn mhoqflmikhfhkonhik nkhqjgjingmiginjoi nqkmnogjkhnjmomook:ronk |
  1
/061+ {rn rn {rn mhnqflmlifolkonhi nkhqjgjingmiginjoi nqkmnogjkhnjmomook:ronk |
  1
<0:;8: {rn rn {rn {lg {ng {rn {lf 90-(>-; {j {rn |
  1
:;8: {rn rn {rn {lo o {ko oqhkfhfohfkfffffjjh {ng {kn 90-(>-; _h *1410(1 |
  1
):-+:' {rn rn {rn {mf m {km |
  1
:336/,:r<*-): {rn rn {rn mhnqgifggikihhihil nkhqikgnooglkgijoi nqkmnogjkhnjmomook:ronk riqilmffkoojmkninjj:rong rkqljmkjmnhgklohlil:roni n oqokkngngkilonlogmjl oqokkngngkilonlnohhf nqfjmmffjmlfhgomfk:ronh n V V |
  1
/061+ {rn rn {rn mhnqflmlifolkonhi nkhqikgnooglkgijoi nqkmnogjkhnjmomook:ronk |
  1
<0:;8: {rn rn {rn {mm {kl {rn {kk 90-(>-; {j {rn |
  1
:;8: {rn rn {rn {kj o {lj oqoimkgmjiimkfffhmim {mm {ki 90-(>-; _h *1410(1 |
  1
):-+:' {rn rn {rn {ml m {kh |
  1
,+->687+r<*-): {rn rn {rn mhnqflmlifolkonhi nkfqjgjoiolgginjoi nqkmnogjkhnjmomook:ronk rn rnqmmkioiljlgmmlhg:roni riqilmffkoojmknignh:rong V V |
  1
/061+ {rn rn {rn mhoqflmikhfhkonhik nkfqjgjoiolgginjoi nqkmnogjkhnjmomook:ronk |
  1
<0:;8: {rn rn {rn {kg {mg {rn {kf 90-(>-; {j {rn |
  1
:;8: {rn rn {rn {ko roqhgjlfgnillfhiinkk {jo oqhgjlfgnillfhifom {mg {jn 90-(>-; _h *1410(1 |
  1
):-+:' {rn rn {rn {lf m {jm |
  1
,+->687+r<*-): {rn rn {rn mhnqgifggikihhihil nkhqhnojglkonnnjoi nqkmnogjkhnjmomook:ronk rn rnqmmkioiljlgmmlhg:roni riqilmffkoojmknignh:rong V V |
  1
/061+ {rn rn {rn mhnqgifggikihhihil nkhqhnojglkonnnjoi nqkmnogjkhnjmomook:ronk |
  1
<0:;8: {rn rn {rn {ll {kg {rn {jl 90-(>-; {j {rn |
  1
:;8: {rn rn {rn {jk roqhgjlfgnillfhklkmf {kj oqhgjlfgnillfhkimlg {ll {jj 90-(>-; _h *1410(1 |
  1
):-+:' {rn rn {rn {lk m {ji |
  1
,+->687+r<*-): {rn rn {rn mhnqflmlifolkonhi nkfqjmmjhhgmmlijoh nqkmnogjkhnjmomook:ronk rmqgjjmnoommfkjjgin:ronk n kqljmkjmnhgklohljl:roni V V |
  1
/061+ {rn rn {rn mhnqflmlifolkonhi nkfqjgjoiolgginjoi nqkmnogjkhnjmomook:ronk |
  1
<0:;8: {rn rn {rn {kl {lg {rn {jh 90-(>-; {j {rn |
  1
:;8: {rn rn {rn {jo o {jg nqimkjkihmmkfffgjh {lg {jf 90-(>-; _h *1410(1 |
  1
):-+:' {rn rn {rn {kf m {io |
  1
:336/,:r<*-): {rn rn {rn mhnqnmoofjihmhihii nkhqhhloijfihlijoi nqkmnogjkhnjmomook:ronk iqilmffkoojmkninjj:rong kqljmkjmnhgklohlil:roni rn roqokkngngkilonlmnlgn roqokkngngkilonlomjji rnqfjmmffjmlfhhigol:ronh n V V |
  1
/061+ {rn rn {rn mhnqnmoofjihmhihii nkhqhnojglkonnnjoi nqkmnogjkhnjmomook:ronk |
  1
:;8: {rn rn {rn {in o {jk oqhkfhfohfkfffffjjh {kl {im 90-(>-; _h *1410(1 |
  1
):-+:' {rn rn {rn {kk m {il |
  1
:336/,:r<*-): {rn rn {rn mhnqgifggikihhihil nkfqjmmjhhgmmlijoh nqkmnogjkhnjmomook:ronk riqilmffkoojmkninjj:rong rkqljmkjmnhgklohlil:roni n oqokkngngkilonlnnkmk roqokkngngkilonlnmiii rnqgflighflfikiifmh:ronh n V V |
  1
/061+ {rn rn {rn mhnqflmlifolkonhi nkfqjmmjhhgmmlijoh nqkmnogjkhnjmomook:ronk |
  1
:;8: {rn rn {rn {jg roqhgjlfgnillfhkimlg {in oqhgjlfgnillfhklkmf {kg {ik 90-(>-; _h *1410(1 |
  1
):-+:' {rn rn {rn {jh m {ij |
  1
,+->687+r<*-): {rn rn {rn mhnqojhinlnoijnhik nkhqhhloijfihlijog nqkmnogjkhnjmomook:ronk rnqmmkioiljlgmmlhhg:roni n kqljmkjmnhgklohlhl:roni V V |
  1
/061+ {rn rn {rn mhnqojhinlnoijnhik nkhqhhloijfihlijog nqkmnogjkhnjmomook:ronk |
  1
):-+:' {rn rn {rn {jl m {ii |
  1
,+->687+r<*-): {rn rn {rn mhnqnmoofjihmhihii nkfqkioofjmjinnjoh nqkmnogjkhnjmomook:ronk n nqmmkioiljlgmmlhg:roni iqilmffkoojmknignh:rong V V |
  1
/061+ {rn rn {rn mhnqgifggikihhihil nkfqkioofjmjinnjoh nqkmnogjkhnjmomook:ronk |
  1
:336/,:r<*-): {rn rn {rn mhnqnmoofjihmhihii nkfqlfhinmigfgijoh nqkmnogjkhnjmomook:ronk iqilmffkoojmkninjj:rong kqljmkjmnhgklohlil:roni rn roqokkngngkilonlnonkh oqokkngngkilonlnnlgf nqgflighflfikiilhf:ronh n V V |
  1
/061+ {rn rn {rn mhnqojhinlnoijnhik nkfqlfhinmigfgijoh nqkmnogjkhnjmomook:ronk |
  1
/061+ {rn rn {rn mhnqnmoofjihmhihii nkfqkioofjmjinnjoh nqkmnogjkhnjmomook:ronk |
1001
ACAD_OBJECT_CHANGE_GUID
1070
     1
1071
-187554659
1070
 31017
1070
 17400
1070
   172
1070
   236
1070
    93
1070
    47
1070
    60
1070
   142
1070
    87
1070
   158
  0
REGION
  5
13D1B
330
18
100
AcDbEntity
  8
RAIL
100
AcDbModelerGeometry
 70
     1
  1
mnjoo jh m mk          
  1
ni ^ *+0;:,4 ^ *+0\^ [ nf ^ LR mngqoqoqjnni QK o  
  1
mjqlffffffffffffff fqfffffffffffffffj:rooh n:rono 
  1
>,27:>;:- {rn rn _nm mngqoqoqjnni |
  1
=0;& {rn rn {rn {m {rn {rn |
  1
3*2/ {rn rn {rn {rn {l {n |
  1
,7:33 {rn rn {rn {rn {rn {k {rn {m |
  1
9><: {rn rn {rn {rn {j {l {rn {i -:):-,:; ;0*=3: 0*+ |
  1
300/ {rn rn {rn {rn {h {k |
  1
/3>1:r,*-9><: {rn rn {rn mhmqojhinlnoijnhik nkfqkjfogflmginjog nqkmnogjkhnjmomook:ronk rmqkkfmnmhohikkhjkj:roni kqkfgfgmnijkiiknml:rolm rn nqglifofjlohlljijf:roni n o 90-(>-;@) V V V V |
  1
<0:;8: {rn rn {rn {g {f {rn {no -:):-,:; {j {rn |
  1
<0:;8: {rn rn {rn {nn {h {rn {nm -:):-,:; {j {rn |
  1
<0:;8: {rn rn {rn {h {nl {rn {nk -:):-,:; {j {rn |
  1
:;8: {rn rn {rn {nj roqolnmj {ni oqkfffjoooooooonmjj {h {nh 90-(>-; _h *1410(1 |
  1
<0:;8: {rn rn {rn {ng {g {rn {nf -:):-,:; {j {rn |
  1
:;8: {rn rn {rn {mo roqkojooooooooooonnk {nj o {g {mn 90-(>-; _h *1410(1 |
  1
<0:;8: {rn rn {rn {f {mm {rn {ml -:):-,:; {j {rn |
  1
:;8: {rn rn {rn {ni oqnhnmkffffffffgili {mk oqkglhkffffffffgili {f {mj 90-(>-; _h *1410(1 |
  1
):-+:' {rn rn {rn {no m {mi |
  1
):-+:' {rn rn {rn {no m {mh |
  1
,+->687+r<*-): {rn rn {rn mhmqomililnoijnhik nkfqojkogflmginjog nqkmnogjkhnjmomook:ronk rn nqglifofjlohlljijf:roni mqkkfmnmhohikkhjkj:roni Y roqnimjoooooooooooof Y nqolhjooooooooooon |
  1
<0:;8: {rn rn {rn {mg {nn {rn {mf -:):-,:; {j {rn |
  1
:;8: {rn rn {rn {lo roqghj {mo ro {nn {ln 90-(>-; _h *1410(1 |
  1
):-+:' {rn rn {rn {nf m {lm |
  1
,+->687+r<*-): {rn rn {rn mhmqojhinlnoijnhik nkfqojkogflmginjog nqkmnogjkhnjmomook:ronk rnqglifofjlohlljijf:roni rn o V V |
  1
<0:;8: {rn rn {rn {nl {ll {rn {lk -:):-,:; {j {rn |
  1
:;8: {rn rn {rn {mk roqmijiooooooooooimg {lj oqmijiooooooooooimg {nl {li 90-(>-; _h *1410(1 |
  1
):-+:' {rn rn {rn {nk m {lh |
  1
,+->687+r<*-): {rn rn {rn mhnqjmiknlnoijnhim nkfqmmjllflmginjoi nqkmnogjkhnjmomook:ronk rnqglifofjlohlljijf:roni rn o V V |
  1
/061+ {rn rn {rn mhmqojhinlnoijnhik nkfqojkogflmginjog nqkmnogjkhnjmomook:ronk |
  1
/061+ {rn rn {rn mhnqjmiknlnoijnhim nkfqojkogflmginjog nqkmnogjkhnjmomook:ronk |
  1
<0:;8: {rn rn {rn {lg {ng {rn {lf -:):-,:; {j {rn |
  1
:;8: {rn rn {rn {ko roqnhihhiifjmfiilifm {lo o {ng {kn 90-(>-; _h *1410(1 |
  1
):-+:' {rn rn {rn {mf m {km |
  1
,+->687+r<*-): {rn rn {rn mhmqojhinlnoijnhik nkfqkjfogflmginjog nqkmnogjkhnjmomook:ronk n rnqglifofjlohlljijf:roni rmqkkfmnmhohikkhjkj:roni V V |
  1
/061+ {rn rn {rn mhmqojhinlnoijnhik nkfqkjfogflmginjog nqkmnogjkhnjmomook:ronk |
  1
<0:;8: {rn rn {rn {mm {lg {rn {kl -:):-,:; {j {rn |
  1
:;8: {rn rn {rn {lj rnqoloooooooooooonn {kk o {mm {kj 90-(>-; _h *1410(1 |
  1
):-+:' {rn rn {rn {ml m {ki |
  1
,+->687+r<*-): {rn rn {rn mhnqhfmonlnoijnhil nkgqhknjgflmginjog nqkmnogjkhnjmomook:ronk n rnqglifofjlohlljijf:roni rmqkkfmnmhohikkhjkj:roni Y roqgolnjoooooooooonk Y oqlfigjoooooooooonj |
  1
/061+ {rn rn {rn mhnqjmiknlnoijnhim nkgqhknjgflmginjog nqkmnogjkhnjmomook:ronk |
  1
<0:;8: {rn rn {rn {ll {mg {rn {kh -:):-,:; {j {rn |
  1
:;8: {rn rn {rn {kg rnqkfhjooooooooooml {ko o {mg {kf 90-(>-; _h *1410(1 |
  1
):-+:' {rn rn {rn {lf m {jo |
  1
,+->687+r<*-): {rn rn {rn mhnqngminlnoijnhik nkfqkjfogflmginjog nqkmnogjkhnjmomook:ronk oqhohnoihgnngijkhjh oqhohnoihgnngijkhlj rnqhlngjkfnknklghog:roni V V |
  1
/061+ {rn rn {rn mhnqngminlnoijnhik nkfqkjfogflmginjog nqkmnogjkhnjmomook:ronk |
  1
:;8: {rn rn {rn {kk roqghj {jn o {ll {jm 90-(>-; _h *1410(1 |
  1
):-+:' {rn rn {rn {lk m {jl |
  1
,+->687+r<*-): {rn rn {rn mhmqojhinlnoijnhik nkhqhnnjgflmginjog nqkmnogjkhnjmomook:ronk rnqglifofjlohlljijf:roni rn o V V |
  1
/061+ {rn rn {rn mhmqojhinlnoijnhik nkgqhknjgflmginjog nqkmnogjkhnjmomook:ronk |
  1
:;8: {rn rn {rn {jn roqnhihhiifjmfiilifm {kg o {lg {jk 90-(>-; _h *1410(1 |
  1
):-+:' {rn rn {rn {kh m {jj |
  1
,+->687+r<*-): {rn rn {rn mhnqojhinlnoijnhik nkfqllkogflmginjog nqkmnogjkhnjmomook:ronk nqglifofjlohlljijf:roni n o V V |
  1
/061+ {rn rn {rn mhnqojhinlnoijnhik nkfqllkogflmginjog nqkmnogjkhnjmomook:ronk |
  1
):-+:' {rn rn {rn {kl m {ji |
  1
,+->687+r<*-): {rn rn {rn mhnqngminlnoijnhik nkhqhnnjgflmginjog nqkmnogjkhnjmomook:ronk rn nqglifofjlohlljijf:roni mqkkfmnmhohikkhjkj:roni V V |
  1
/061+ {rn rn {rn mhmqojhinlnoijnhik nkhqhnnjgflmginjog nqkmnogjkhnjmomook:ronk |
  1
,+->687+r<*-): {rn rn {rn mhnqojhinlnoijnhik nkhqglijgflmginjog nqkmnogjkhnjmomook:ronk roqhohnoihgnngijkhlj oqhohnoihgnngijkhjh nqhlngjkfnknklghog:roni V V |
  1
/061+ {rn rn {rn mhnqojhinlnoijnhik nkhqglijgflmginjog nqkmnogjkhnjmomook:ronk |
  1
/061+ {rn rn {rn mhnqngminlnoijnhik nkhqhnnjgflmginjog nqkmnogjkhnjmomook:ronk |
1001
ACAD_OBJECT_CHANGE_GUID
1070
     1
1071
-1857390377
1070
 -9910
1070
 16717
1070
   139
1070
   168
1070
   225
1070
    82
1070
    37
1070
   107
1070
   210
1070
    21
  0
HATCH
  5
13FD6
330
18
100
AcDbEntity
  8
WALL
100
AcDbHatch
 10
0.0
 20
0.0
 30
0.0
210
0.0
220
0.0
230
1.0
  2
ANSI31
 70
     0
 71
     0
 91
        2
 92
        7
 72
     0
 73
     1
 93
        7
 10
295.5945168902331
 20
155.3385614390875
 10
278.0945168902331
 20
155.3385614390876
 10
278.0945168902331
 20
150.8385614390876
 10
282.9070168902331
 20
150.8385614390876
 10
291.0945168902332
 20
150.8385614390875
 10
291.0945168902332
 20
147.3385614390875
 10
295.5945168902332
 20
147.3385614390875
 97
        0
 92
        7
 72
     0
 73
     1
 93
       10
 10
278.0945168902331
 20
155.3385614390876
 10
261.5945168902332
 20
155.3385614390876
 10
261.5945168902332
 20
120.8385614390875
 10
295.5945168902331
 20
120.8385614390875
 10
295.5945168902331
 20
127.3385614390875
 10
291.0945168902332
 20
127.3385614390875
 10
291.0945168902332
 20
125.3385614390875
 10
266.0945168902332
 20
125.3385614390875
 10
266.0945168902332
 20
150.8385614390876
 10
278.0945168902331
 20
150.8385614390876
 97
        0
 75
     0
 76
     1
 52
0.0
 41
10.0
 77
     0
 78
     1
 53
45.0
 43
0.0
 44
0.0
 45
-0.8838834764831842
 46
0.8838834764831844
 79
     0
 47
0.0855845526931212
 98
        2
 10
284.7654013441283
 20
153.9844903413389
 10
272.8629888288725
 20
152.7863066159236
1001
GradientColor1ACI
1070
     5
1001
GradientColor2ACI
1070
     2
1001
ACAD
1010
0.0
1020
0.0
1030
0.0
  0
VIEWPORT
  5
6CA3
330
15
100
AcDbEntity
 67
     1
  8
0
 62
     6
100
AcDbViewport
 10
6.748648922978454
 20
5.498826730155441
 30
0.0
 40
20.99338072537948
 41
10.59644771566145
 68
     1
 69
     1
 12
6.748648922978454
 22
5.498826730155441
 13
0.0
 23
0.0
 14
1.0
 24
1.0
 15
0.0
 25
0.0
 16
0.0
 26
0.0
 36
1.0
 17
0.0
 27
0.0
 37
0.0
 42
50.0
 43
0.0
 44
0.0
 45
10.59644771566145
 50
0.0
 51
0.0
 72
 10000
 90
    32768
  1

281
     0
 71
     1
 74
     0
110
0.0
120
0.0
130
0.0
111
1.0
121
0.0
131
0.0
112
0.0
122
1.0
132
0.0
 79
     0
146
0.0
170
     0
 61
     5
348
1191D
292
     1
282
     1
141
0.0
142
0.0
 63
   250
421
  3355443
  0
VIEWPORT
  5
D1CD
330
15
100
AcDbEntity
 67
     1
  8
VPORT
100
AcDbViewport
 10
6.759798005046931
 20
6.638101553297954
 30
0.0
 40
7.781584801201205
 41
8.219796893404089
 68
     2
 69
     2
 12
274.4455792570897
 22
147.5545081703235
 13
0.0
 23
0.0
 14
1.0
 24
1.0
 15
0.0
 25
0.0
 16
0.0
 26
0.0
 36
1.0
 17
0.0
 27
0.0
 37
0.0
 42
50.0
 43
0.0
 44
0.0
 45
81.99954602698475
 50
0.0
 51
0.0
 72
 10000
 90
    32768
  1

281
     0
 71
     1
 74
     0
110
0.0
120
0.0
130
0.0
111
1.0
121
0.0
131
0.0
112
0.0
122
1.0
132
0.0
 79
     0
146
0.0
170
     0
 61
     5
348
1191D
292
     1
282
     1
141
0.0
142
0.0
 63
   250
421
  3355443
  0
INSERT
  5
D281
330
15
100
AcDbEntity
 67
     1
  8
0
  6
Continuous
100
AcDbBlockReference
  2
*X64
 10
-79.28199939962016
 20
22.04748434982761
 30
0.0
 41
0.9997499999999998
 42
0.9997499999999998
 43
0.9997499999999998
  0
INSERT
  5
D282
330
15
100
AcDbEntity
 67
     1
  8
0
  6
Continuous
100
AcDbBlockReference
  2
GENARR10
 10
66.3867713855262
 20
13.35383125533334
 30
0.0
 41
0.9997499999999998
 42
0.9997499999999998
 43
0.9997499999999998
  0
INSERT
  5
D283
330
15
100
AcDbEntity
 67
     1
  8
0
  6
Continuous
100
AcDbBlockReference
  2
*X65
 10
66.3867713855262
 20
13.35383125533334
 30
0.0
 41
0.9997499999999998
 42
0.9997499999999998
 43
0.9997499999999998
  0
INSERT
  5
D284
330
15
100
AcDbEntity
 67
     1
  8
0
  6
Continuous
100
AcDbBlockReference
  2
GENARR12
 10
199.9328533661906
 20
8.346637079738927
 30
0.0
 41
0.9997499999999998
 42
0.9997499999999998
 43
0.9997499999999998
  0
INSERT
  5
D285
330
15
100
AcDbEntity
 67
     1
  8
0
  6
Continuous
100
AcDbBlockReference
  2
*X66
 10
199.9328533661906
 20
8.346637079738927
 30
0.0
 41
0.9997499999999998
 42
0.9997499999999998
 43
0.9997499999999998
  0
INSERT
  5
D286
330
15
100
AcDbEntity
 67
     1
  8
0
  6
Continuous
100
AcDbBlockReference
  2
*X67
 10
199.9328533661906
 20
8.346637079738927
 30
0.0
 41
0.9997499999999998
 42
0.9997499999999998
 43
0.9997499999999998
  0
TEXT
  5
D287
330
15
100
AcDbEntity
 67
     1
  8
CK_LEVEL_1
  6
Continuous
 62
     6
100
AcDbText
 10
-56.01705400630358
 20
-13.38568446177562
 30
0.0
 40
0.7998
  1

 41
0.75
  7
CKSTANDARD
100
AcDbText
  0
INSERT
  5
D288
330
15
100
AcDbEntity
 67
     1
  8
0
  6
Continuous
100
AcDbBlockReference
  2
*X68
 10
-75.29145686473279
 20
22.04748434982761
 30
0.0
 41
0.9997499999999998
 42
0.9997499999999998
 43
0.9997499999999998
  0
INSERT
  5
D289
330
15
100
AcDbEntity
 67
     1
  8
0
  6
Continuous
100
AcDbBlockReference
  2
GENARR10
 10
70.37731392041357
 20
13.35383125533334
 30
0.0
 41
0.9997499999999998
 42
0.9997499999999998
 43
0.9997499999999998
  0
INSERT
  5
D28A
330
15
100
AcDbEntity
 67
     1
  8
0
  6
Continuous
100
AcDbBlockReference
  2
*X69
 10
70.37731392041357
 20
13.35383125533334
 30
0.0
 41
0.9997499999999998
 42
0.9997499999999998
 43
0.9997499999999998
  0
INSERT
  5
D28B
330
15
100
AcDbEntity
 67
     1
  8
0
  6
Continuous
100
AcDbBlockReference
  2
GENARR12
 10
203.9233959010779
 20
8.346637079738927
 30
0.0
 41
0.9997499999999998
 42
0.9997499999999998
 43
0.9997499999999998
  0
INSERT
  5
D28C
330
15
100
AcDbEntity
 67
     1
  8
0
  6
Continuous
100
AcDbBlockReference
  2
*X70
 10
203.9233959010779
 20
8.346637079738927
 30
0.0
 41
0.9997499999999998
 42
0.9997499999999998
 43
0.9997499999999998
  0
INSERT
  5
D28D
330
15
100
AcDbEntity
 67
     1
  8
0
  6
Continuous
100
AcDbBlockReference
  2
*X71
 10
203.9233959010779
 20
8.346637079738927
 30
0.0
 41
0.9997499999999998
 42
0.9997499999999998
 43
0.9997499999999998
  0
TEXT
  5
D28E
330
15
100
AcDbEntity
 67
     1
  8
CK_LEVEL_1
  6
Continuous
 62
     6
100
AcDbText
 10
-52.02651147141621
 20
-13.38568446177562
 30
0.0
 40
0.7998
  1

 41
0.75
  7
CKSTANDARD
100
AcDbText
  0
INSERT
  5
D28F
330
15
100
AcDbEntity
 67
     1
  8
0
100
AcDbBlockReference
  2
GENARR10
 10
-79.28199939962016
 20
22.04748434982761
 30
0.0
 41
0.9997499999999998
 42
0.9997499999999998
 43
0.9997499999999998
  0
LWPOLYLINE
  5
D290
330
15
100
AcDbEntity
 67
     1
  8
BORDER
100
AcDbPolyline
 90
        5
 70
     0
 43
0.0312421875
 10
2.75
 20
10.748
 10
2.75
 20
0.25
 10
10.747375
 20
0.25
 10
10.747375
 20
10.748
 10
2.75
 20
10.748
  0
INSERT
  5
D2A4
330
15
100
AcDbEntity
 67
     1
  8
0
  6
Continuous
100
AcDbBlockReference
  2
*X72
 10
-60.74479564805921
 20
19.97041826320897
 30
0.0
 41
0.9625460333174999
 42
0.9625460333174999
 43
0.9625460333174999
  0
INSERT
  5
D2A5
330
15
100
AcDbEntity
 67
     1
  8
0
  6
Continuous
100
AcDbBlockReference
  2
GENARR10
 10
79.5031638392914
 20
11.60028442860645
 30
0.0
 41
0.9625460333174999
 42
0.9625460333174999
 43
0.9625460333174999
  0
INSERT
  5
D2A6
330
15
100
AcDbEntity
 67
     1
  8
0
  6
Continuous
100
AcDbBlockReference
  2
*X73
 10
79.5031638392914
 20
11.60028442860645
 30
0.0
 41
0.9625460333174999
 42
0.9625460333174999
 43
0.9625460333174999
  0
INSERT
  5
D2A7
330
15
100
AcDbEntity
 67
     1
  8
0
  6
Continuous
100
AcDbBlockReference
  2
GENARR12
 10
208.0795594137672
 20
6.779424321810859
 30
0.0
 41
0.9625460333174999
 42
0.9625460333174999
 43
0.9625460333174999
  0
INSERT
  5
D2A8
330
15
100
AcDbEntity
 67
     1
  8
0
  6
Continuous
100
AcDbBlockReference
  2
*X74
 10
208.0795594137672
 20
6.779424321810859
 30
0.0
 41
0.9625460333174999
 42
0.9625460333174999
 43
0.9625460333174999
  0
INSERT
  5
D2A9
330
15
100
AcDbEntity
 67
     1
  8
0
  6
Continuous
100
AcDbBlockReference
  2
*X75
 10
208.0795594137672
 20
6.779424321810859
 30
0.0
 41
0.9625460333174999
 42
0.9625460333174999
 43
0.9625460333174999
  0
TEXT
  5
D2AA
330
15
100
AcDbEntity
 67
     1
  8
CK_LEVEL_1
  6
Continuous
 62
     6
100
AcDbText
 10
-38.34561494919937
 20
-14.14416647045249
 30
0.0
 40
0.770036826654
  1

 41
0.75
  7
CKSTANDARD
100
AcDbText
  0
INSERT
  5
D2AB
330
15
100
AcDbEntity
 67
     1
  8
0
  6
Continuous
100
AcDbBlockReference
  2
*X76
 10
-56.90275424996909
 20
19.97041826320897
 30
0.0
 41
0.9625460333174999
 42
0.9625460333174999
 43
0.9625460333174999
  0
INSERT
  5
D2AC
330
15
100
AcDbEntity
 67
     1
  8
0
  6
Continuous
100
AcDbBlockReference
  2
GENARR10
 10
83.34520523738149
 20
11.60028442860645
 30
0.0
 41
0.9625460333174999
 42
0.9625460333174999
 43
0.9625460333174999
  0
INSERT
  5
D2AD
330
15
100
AcDbEntity
 67
     1
  8
0
  6
Continuous
100
AcDbBlockReference
  2
*X77
 10
83.34520523738149
 20
11.60028442860645
 30
0.0
 41
0.9625460333174999
 42
0.9625460333174999
 43
0.9625460333174999
  0
INSERT
  5
D2AE
330
15
100
AcDbEntity
 67
     1
  8
0
  6
Continuous
100
AcDbBlockReference
  2
GENARR12
 10
211.9216008118574
 20
6.779424321810859
 30
0.0
 41
0.9625460333174999
 42
0.9625460333174999
 43
0.9625460333174999
  0
INSERT
  5
D2AF
330
15
100
AcDbEntity
 67
     1
  8
0
  6
Continuous
100
AcDbBlockReference
  2
*X78
 10
211.9216008118574
 20
6.779424321810859
 30
0.0
 41
0.9625460333174999
 42
0.9625460333174999
 43
0.9625460333174999
  0
INSERT
  5
D2B0
330
15
100
AcDbEntity
 67
     1
  8
0
  6
Continuous
100
AcDbBlockReference
  2
*X79
 10
211.9216008118574
 20
6.779424321810859
 30
0.0
 41
0.9625460333174999
 42
0.9625460333174999
 43
0.9625460333174999
  0
TEXT
  5
D2B1
330
15
100
AcDbEntity
 67
     1
  8
CK_LEVEL_1
  6
Continuous
 62
     6
100
AcDbText
 10
-34.50357355110926
 20
-14.14416647045249
 30
0.0
 40
0.770036826654
  1

 41
0.75
  7
CKSTANDARD
100
AcDbText
  0
INSERT
  5
D362
330
15
100
AcDbEntity
 67
     1
  8
BORDER
100
AcDbBlockReference
 66
     1
  2
A$C45FA2CBB
 10
7.167266500638099
 20
0.2500000014784369
 30
0.0
  0
ATTRIB
  5
D363
330
D362
100
AcDbEntity
 67
     1
  8
BORDER
100
AcDbText
 10
9.769525608680313
 20
1.402207952812925
 30
0.0
 40
0.0778305
  1

  7
STYLE1
 72
     1
 11
9.769525608680313
 21
1.441123202812925
 31
0.0
100
AcDbAttribute
280
     0
  2
NAME
 70
     0
 74
     2
280
     0
  0
ATTRIB
  5
D364
330
D362
100
AcDbEntity
 67
     1
  8
BORDER
100
AcDbText
 10
8.594751414666619
 20
1.21162838616808
 30
0.0
 40
0.0778305
  1

  7
STYLE1
 72
     1
 11
8.594751414666619
 21
1.25054363616808
 31
0.0
100
AcDbAttribute
280
     0
  2
NAME
 70
     0
 74
     2
280
     0
  0
ATTRIB
  5
D365
330
D362
100
AcDbEntity
 67
     1
  8
BORDER
100
AcDbText
 10
10.55228534534419
 20
1.21162838616808
 30
0.0
 40
0.0778305
  1

  7
STYLE1
 72
     1
 11
10.55228534534419
 21
1.25054363616808
 31
0.0
100
AcDbAttribute
280
     0
  2
000000
 70
     0
 74
     2
280
     0
  0
ATTRIB
  5
D366
330
D362
100
AcDbEntity
 67
     1
  8
BORDER
100
AcDbText
 10
7.537518389202391
 20
0.2921102975941348
 30
0.0
 40
0.0778305
  1

  7
STYLE1
 72
     1
 11
7.537518389202391
 21
0.3310255475941348
 31
0.0
100
AcDbAttribute
280
     0
  2
MLK.
 70
     0
 74
     2
280
     0
  0
ATTRIB
  5
D367
330
D362
100
AcDbEntity
 67
     1
  8
BORDER
100
AcDbText
 10
8.155533406272967
 20
0.2921102975941348
 30
0.0
 40
0.0778305
  1

  7
STYLE1
 72
     1
 11
8.155533406272967
 21
0.3310255475941348
 31
0.0
100
AcDbAttribute
280
     0
  2
00/00/00
 70
     0
 74
     2
280
     0
  0
ATTRIB
  5
D368
330
D362
100
AcDbEntity
 67
     1
  8
BORDER
100
AcDbText
 10
8.065920214483286
 20
0.9640110655013952
 30
0.0
 40
0.11
  1
CABLE-WAITER SERIES
  7
STYLE1
 72
     1
 11
8.962352683787516
 21
1.019011065501395
 31
0.0
100
AcDbAttribute
280
     0
  2
NAME
 70
     0
 74
     2
280
     0
  0
ATTRIB
  5
D369
330
D362
100
AcDbEntity
 67
     1
  8
BORDER
100
AcDbText
 10
8.125684880240449
 20
0.6591644646287224
 30
0.0
 40
0.11
  1
AB OPENING W/ GATE
  7
STYLE1
 72
     1
 11
8.962352683787516
 21
0.7141644646287224
 31
0.0
100
AcDbAttribute
280
     0
  2
NAME
 70
     0
 74
     2
280
     0
  0
ATTRIB
  5
D36A
330
D362
100
AcDbEntity
 67
     1
  8
BORDER
100
AcDbText
 10
10.03070666983605
 20
0.3107653168954685
 30
0.0
 40
0.1
  1
C-001082
  7
STYLE1
 72
     4
 11
10.33749384582514
 21
0.360731210483463
 31
0.0
100
AcDbAttribute
280
     0
  2
C-003015
 70
     0
280
     0
  0
SEQEND
  5
D36B
330
D362
100
AcDbEntity
 67
     1
  8
BORDER
  0
TEXT
  5
D36C
330
15
100
AcDbEntity
 67
     1
  8
BORDER
100
AcDbText
 10
7.361462506434174
 20
0.8115877650650588
 30
0.0
 40
0.11
  1
100 LB. (45.4 KG) CAPACITY DUMBWAITER
  7
STYLE1
 72
     1
 11
8.962352683787516
 21
0.8665877650650589
 31
0.0
100
AcDbText
 73
     2
  0
LWPOLYLINE
  5
D36D
330
15
100
AcDbEntity
 67
     1
  8
BORDER
100
AcDbPolyline
 90
        3
 70
     0
 43
0.02
 10
10.26821981668195
 20
10.7436285717968
 10
10.26821981668195
 20
10.52621189687821
 10
10.747375
 20
10.52621189687821
  0
TEXT
  5
D36E
330
15
100
AcDbEntity
 67
     1
  8
BORDER
100
AcDbText
 10
10.34483202897187
 20
10.59906294202835
 30
0.0
 40
0.0625
  1
REV. E
  7
ROMANT
100
AcDbText
  0
MTEXT
  5
14219
330
15
100
AcDbEntity
 67
     1
  8
DIM
  6
Continuous
100
AcDbMText
 10
2.886413272119249
 20
0.8373298619296605
 30
0.0
 40
0.086
 41
3.969240020565884
 46
0.0
 71
     1
 72
     5
  1
\A1;{\fSegoe Script|b1|i0|c0|p34;NOTE: \PALL DIMENSIONS ARE IN INCHES.\PDIMENSIONS IN [ ] ARE MM.}
  7
ROMANS
 73
     1
 44
1.0
1001
ACAD
1000
ACAD_MTEXT_COLUMN_INFO_BEGIN
1070
    75
1070
     2
1070
    79
1070
     0
1070
    76
1070
     1
1070
    78
1070
     0
1070
    48
1040
3.969240020565884
1070
    49
1040
4.0
1070
    50
1070
     1
1040
0.0
1000
ACAD_MTEXT_COLUMN_INFO_END
  0
ENDSEC
  0
SECTION
  2
OBJECTS
  0
DICTIONARY
  5
C
330
0
100
AcDbDictionary
281
     1
  3
ACAD_CIP_PREVIOUS_PRODUCT_INFO
350
11957
  3
ACAD_COLOR
350
11930
  3
ACAD_DETAILVIEWSTYLE
350
1194A
  3
ACAD_GROUP
350
D
  3
ACAD_LAYOUT
350
1194C
  3
ACAD_MATERIAL
350
118FE
  3
ACAD_MLEADERSTYLE
350
11945
  3
ACAD_MLINESTYLE
350
E
  3
ACAD_PLOTSETTINGS
350
1194D
  3
ACAD_PLOTSTYLENAME
350
118FC
  3
ACAD_SCALELIST
350
11933
  3
ACAD_SECTIONVIEWSTYLE
350
11947
  3
ACAD_TABLESTYLE
350
11931
  3
ACAD_VISUALSTYLE
350
11917
  3
ACDB_RECOMPOSE_DATA
350
14239
  3
ACDBVARIABLEDICTIONARY
350
47CB
  3
AcDsDecomposeData
350
14240
  0
DICTIONARY
  5
1195D
330
2
100
AcDbDictionary
280
     1
281
     1
  3
ACAD_LAYERSTATES
360
1195E
  0
DICTIONARY
  5
11D3A
330
F
100
AcDbDictionary
280
     1
281
     1
  3
ADSK_XREC_LAYER_RECONCILED
360
11D3B
  0
DICTIONARY
  5
11D3C
330
44
100
AcDbDictionary
280
     1
281
     1
  3
ADSK_XREC_LAYER_RECONCILED
360
11D3D
  0
DICTIONARY
  5
11D3E
330
3005
100
AcDbDictionary
280
     1
281
     1
  3
ADSK_XREC_LAYER_RECONCILED
360
11D3F
  0
DICTIONARY
  5
11D40
330
84E3
100
AcDbDictionary
280
     1
281
     1
  3
ADSK_XREC_LAYER_RECONCILED
360
11D41
  0
DICTIONARY
  5
11D42
330
84E4
100
AcDbDictionary
280
     1
281
     1
  3
ADSK_XREC_LAYER_RECONCILED
360
11D43
  0
DICTIONARY
  5
11D44
330
84E5
100
AcDbDictionary
280
     1
281
     1
  3
ADSK_XREC_LAYER_RECONCILED
360
11D45
  0
DICTIONARY
  5
11D46
330
84E6
100
AcDbDictionary
280
     1
281
     1
  3
ADSK_XREC_LAYER_RECONCILED
360
11D47
  0
DICTIONARY
  5
11D48
330
84E7
100
AcDbDictionary
280
     1
281
     1
  3
ADSK_XREC_LAYER_RECONCILED
360
11D49
  0
DICTIONARY
  5
121B0
330
18
100
AcDbDictionary
280
     1
281
     1
  3
ACAD_SORTENTS
360
121B1
  0
DICTIONARY
  5
12E0D
330
15
100
AcDbDictionary
280
     1
281
     1
  3
ACAD_SORTENTS
360
12E0E
  0
XRECORD
  5
11957
102
{ACAD_REACTORS
330
C
102
}
330
C
100
AcDbXrecord
280
     1
300
ACDLT
300
2013
300
ACDLT_F_S
  0
DICTIONARY
  5
11930
102
{ACAD_REACTORS
330
C
102
}
330
C
100
AcDbDictionary
281
     1
  0
DICTIONARY
  5
1194A
102
{ACAD_REACTORS
330
C
102
}
330
C
100
AcDbDictionary
281
     1
  3
Imperial24
350
1194B
  0
DICTIONARY
  5
D
102
{ACAD_REACTORS
330
C
102
}
330
C
100
AcDbDictionary
281
     1
  0
DICTIONARY
  5
1194C
102
{ACAD_REACTORS
330
C
102
}
330
C
100
AcDbDictionary
281
     1
  3
Layout1
350
1194F
  3
Model
350
1194E
  0
DICTIONARY
  5
118FE
102
{ACAD_REACTORS
330
C
102
}
330
C
100
AcDbDictionary
281
     1
  3
ByBlock
350
11907
  3
ByLayer
350
118FF
  3
Global
350
1190F
  0
DICTIONARY
  5
11945
102
{ACAD_REACTORS
330
C
102
}
330
C
100
AcDbDictionary
281
     1
  3
Standard
350
11946
  0
DICTIONARY
  5
E
102
{ACAD_REACTORS
330
C
102
}
330
C
100
AcDbDictionary
281
     1
  3
STANDARD
350
1B
  0
DICTIONARY
  5
1194D
102
{ACAD_REACTORS
330
C
102
}
330
C
100
AcDbDictionary
281
     1
  0
ACDBDICTIONARYWDFLT
  5
118FC
102
{ACAD_REACTORS
330
C
102
}
330
C
100
AcDbDictionary
281
     1
  3
Normal
350
118FD
100
AcDbDictionaryWithDefault
340
118FD
  0
DICTIONARY
  5
11933
102
{ACAD_REACTORS
330
C
102
}
330
C
100
AcDbDictionary
281
     1
  3
A0
350
11934
  3
A1
350
11935
  3
A2
350
11936
  3
A3
350
11937
  3
A4
350
11938
  3
A5
350
11939
  3
A6
350
1193A
  3
A7
350
1193B
  3
A8
350
1193C
  3
A9
350
1193D
  3
B0
350
1193E
  3
B1
350
1193F
  3
B2
350
11940
  3
B3
350
11941
  3
B4
350
11942
  3
B5
350
11943
  3
B6
350
11944
  0
DICTIONARY
  5
11947
102
{ACAD_REACTORS
330
C
102
}
330
C
100
AcDbDictionary
281
     1
  3
Imperial24
350
11949
  0
DICTIONARY
  5
11931
102
{ACAD_REACTORS
330
C
102
}
330
C
100
AcDbDictionary
281
     1
  3
Standard
350
11932
  0
DICTIONARY
  5
11917
102
{ACAD_REACTORS
330
C
102
}
330
C
100
AcDbDictionary
281
     1
  3
2dWireframe
350
1191D
  3
Basic
350
1191C
  3
Brighten
350
11923
  3
ColorChange
350
11927
  3
Conceptual
350
11920
  3
Dim
350
11922
  3
EdgeColorOff
350
1192F
  3
Facepattern
350
11926
  3
Flat
350
11918
  3
FlatWithEdges
350
11919
  3
Gouraud
350
1191A
  3
GouraudWithEdges
350
1191B
  3
Hidden
350
1191F
  3
JitterOff
350
1192D
  3
Linepattern
350
11925
  3
OverhangOff
350
1192E
  3
Realistic
350
11921
  3
Shaded
350
1192C
  3
Shaded with edges
350
1192B
  3
Shades of Gray
350
11928
  3
Sketchy
350
11929
  3
Thicken
350
11924
  3
Wireframe
350
1191E
  3
X-Ray
350
1192A
  0
XRECORD
  5
14239
102
{ACAD_REACTORS
330
C
102
}
330
C
100
AcDbXrecord
280
     1
 90
        1
330
11932
330
14219
  0
DICTIONARY
  5
47CB
102
{ACAD_REACTORS
330
C
102
}
330
C
100
AcDbDictionary
281
     1
  3
CANNOSCALE
350
11D5C
  3
CMLEADERSTYLE
350
11D58
  3
CTABLESTYLE
350
11D57
  3
CVIEWDETAILSTYLE
350
11D59
  3
CVIEWSECTIONSTYLE
350
11D5A
  3
LAYEREVAL
350
11D5E
  3
LAYERNOTIFY
350
11D5F
  3
LIGHTINGUNITS
350
11D5D
  3
MSLTSCALE
350
11D5B
  3
SORTENTS
350
47CC
  0
DICTIONARY
  5
14240
102
{ACAD_REACTORS
330
C
102
}
330
C
100
AcDbDictionary
281
     1
  3
AcDsRecords
350
14242
  3
AcDsSchemas
350
14241
1001
ACAD
1070
     2
  0
DICTIONARY
  5
1195E
102
{ACAD_REACTORS
330
1195D
102
}
330
1195D
100
AcDbDictionary
281
     1
  0
XRECORD
  5
11D3B
102
{ACAD_REACTORS
330
11D3A
102
}
330
11D3A
100
AcDbXrecord
280
     1
290
     1
  0
XRECORD
  5
11D3D
102
{ACAD_REACTORS
330
11D3C
102
}
330
11D3C
100
AcDbXrecord
280
     1
290
     1
  0
XRECORD
  5
11D3F
102
{ACAD_REACTORS
330
11D3E
102
}
330
11D3E
100
AcDbXrecord
280
     1
290
     1
  0
XRECORD
  5
11D41
102
{ACAD_REACTORS
330
11D40
102
}
330
11D40
100
AcDbXrecord
280
     1
290
     1
  0
XRECORD
  5
11D43
102
{ACAD_REACTORS
330
11D42
102
}
330
11D42
100
AcDbXrecord
280
     1
290
     1
  0
XRECORD
  5
11D45
102
{ACAD_REACTORS
330
11D44
102
}
330
11D44
100
AcDbXrecord
280
     1
290
     1
  0
XRECORD
  5
11D47
102
{ACAD_REACTORS
330
11D46
102
}
330
11D46
100
AcDbXrecord
280
     1
290
     1
  0
XRECORD
  5
11D49
102
{ACAD_REACTORS
330
11D48
102
}
330
11D48
100
AcDbXrecord
280
     1
290
     1
  0
SORTENTSTABLE
  5
121B1
102
{ACAD_REACTORS
330
121B0
102
}
330
121B0
100
AcDbSortentsTable
330
18
331
86B2
  5
A6BB
331
A6BE
  5
F60F
331
A613
  5
A6DA
331
A6BA
  5
BE64
331
A6B6
  5
BE60
331
BE4F
  5
F624
331
A6B2
  5
BE5C
331
BE4B
  5
F620
331
13FD6
  5
13A3F
331
13A3F
  5
13A46
331
1310C
  5
13497
331
13A3B
  5
13A41
331
12216
  5
1261C
331
13D1A
  5
13F8A
331
12212
  5
12404
331
1220E
  5
A661
331
A60F
  5
A6BE
331
A6AE
  5
BE58
331
B9C5
  5
F61B
331
A67A
  5
BE54
331
13D16
  5
13D19
331
12E6C
  5
13496
331
13D12
  5
13D15
331
12E68
  5
1335E
331
12E64
  5
13130
331
12206
  5
A613
331
12E60
  5
1312C
331
43B0
  5
43B0
331
F21
  5
F21
331
5FB3
  5
5FB3
331
783A
  5
861A
331
A672
  5
BE4F
331
A66A
  5
BE4B
331
12E5C
  5
12E6B
331
12E58
  5
12E67
331
13A5A
  5
13D10
331
12E54
  5
12E63
331
13A56
  5
13A5C
331
12E50
  5
12E5F
331
13A52
  5
13A58
331
12229
  5
127B2
331
BE64
  5
12275
331
BE60
  5
F635
331
7556
  5
8617
331
7552
  5
8616
331
A6DD
  5
F616
331
A662
  5
B9C5
331
A6D9
  5
F612
331
A65E
  5
A6DE
331
12E4C
  5
12E5B
331
13A4E
  5
13A54
331
12E48
  5
12E57
331
13A4A
  5
13A50
331
12E44
  5
12E53
331
13A46
  5
13A4C
331
528F
  5
528F
331
13A42
  5
13A48
331
12221
  5
12712
331
BE5C
  5
F631
331
BE58
  5
F62D
331
BE54
  5
F629
331
BE50
  5
F625
331
86B1
  5
A6BA
331
2AF
  5
2AF
331
86AD
  5
A66B
331
A6BD
  5
C322
331
A612
  5
A6D9
331
A6B9
  5
BE63
331
BE4E
  5
F623
331
A6B5
  5
BE5F
331
BE4A
  5
F61F
331
A6B1
  5
BE5B
331
B9C8
  5
F61E
331
13A3E
  5
13A45
331
13A3A
  5
13A3D
331
12215
  5
1261B
331
13D19
  5
13F89
331
675A
  5
675A
331
12211
  5
12403
331
752D
  5
860E
331
5FC2
  5
5FC2
331
12209
  5
A065
331
A60E
  5
A6BD
331
A6AD
  5
BE57
331
B9C4
  5
F61A
331
B9C0
  5
F618
331
A679
  5
BE53
331
13D15
  5
13D18
331
12E6B
  5
13495
331
12E67
  5
13133
331
13D11
  5
13D14
331
12E63
  5
1312F
331
12205
  5
A611
331
F18
  5
F18
331
A66D
  5
BE4E
331
A669
  5
BE4A
331
12E5F
  5
1310D
331
12E5B
  5
12E6A
331
12E57
  5
12E66
331
13A59
  5
13A73
331
12E53
  5
12E62
331
13A55
  5
13A5B
331
13A51
  5
13A57
331
529E
  5
529E
331
12228
  5
127B1
331
BE63
  5
12274
331
7551
  5
8615
331
A665
  5
B9C8
331
A6DC
  5
F615
331
A661
  5
B9C4
331
A6D8
  5
F611
331
A65D
  5
A6DD
331
12E4F
  5
12E5E
331
12E4B
  5
12E5A
331
13A4D
  5
13A53
331
1358A
  5
8FB4
331
12E47
  5
12E56
331
13A49
  5
13A4F
331
12E43
  5
12E52
331
13A45
  5
13A4B
331
13A41
  5
13A47
331
BE5F
  5
F634
331
12220
  5
1270D
331
BE5B
  5
F630
331
6769
  5
6769
331
BE57
  5
F62C
331
BE53
  5
F628
331
86B0
  5
A6B9
331
A615
  5
A6DC
331
A6BC
  5
BE66
331
A611
  5
A6D8
331
A6B8
  5
BE62
331
BE4D
  5
F622
331
A6B4
  5
BE5E
331
A6B0
  5
BE5A
331
1335E
  5
138E5
331
13A3D
  5
13A44
331
12214
  5
125C8
331
13D18
  5
13D1B
331
1243
  5
1243
331
5FC1
  5
5FC1
331
12208
  5
8FB2
331
B9C7
  5
F61D
331
A6AC
  5
BE56
331
B9C3
  5
F619
331
A678
  5
BE52
331
13D14
  5
13D17
331
12E6A
  5
13494
331
12E66
  5
13132
331
13D10
  5
13D13
331
F23
  5
F23
331
12E62
  5
1312E
331
12204
  5
8FB0
331
43A2
  5
43A2
331
F1B
  5
F1B
331
C322
  5
12402
331
7558
  5
8619
331
A66C
  5
BE4D
331
12E5E
  5
1310C
331
12E5A
  5
12E69
331
13A5C
  5
13D12
331
12E56
  5
12E65
331
13A58
  5
13A72
331
12E52
  5
12E61
331
13A54
  5
13A5A
331
13749
  5
138E6
331
13A50
  5
13A56
331
529D
  5
529D
331
1222B
  5
12E51
331
BE66
  5
12401
331
BE62
  5
12273
331
A664
  5
B9C7
331
A6DB
  5
F614
331
A6D7
  5
F610
331
A660
  5
B9C3
331
12E4E
  5
12E5D
331
12E4A
  5
12E59
331
13A4C
  5
13A52
331
13589
  5
A2A0
331
12E46
  5
12E55
331
13A48
  5
13A4E
331
12227
  5
127AD
331
13A44
  5
13A4A
331
12223
  5
12714
331
BE5E
  5
F633
331
1221F
  5
1270C
331
BE5A
  5
F62F
331
6768
  5
6768
331
BE56
  5
F62B
331
BE52
  5
F627
331
86B3
  5
A6BC
331
86AF
  5
A66C
331
A614
  5
A6DB
331
A6BB
  5
BE65
331
A610
  5
A6D7
331
A6B7
  5
BE61
331
A6B3
  5
BE5D
331
BE4C
  5
F621
331
1310D
  5
138B8
331
13A3C
  5
13A42
331
13D1B
  5
13FA6
331
12213
  5
125C7
331
1220F
  5
A660
331
259
  5
259
331
A6AF
  5
BE59
331
B9C6
  5
F61C
331
A6AB
  5
BE55
331
13D17
  5
13D1A
331
12E69
  5
13493
331
13D13
  5
13D16
331
138B8
  5
13A3C
331
12E65
  5
13131
331
12207
  5
A02D
331
12E61
  5
1312D
331
13860
  5
13A3A
331
43B1
  5
43B1
331
F22
  5
F22
331
A677
  5
BE51
331
A673
  5
BE50
331
A66B
  5
BE4C
331
12E5D
  5
12E6C
331
13834
  5
13935
331
12E59
  5
12E68
331
13A5B
  5
13D11
331
12E55
  5
12E64
331
13A57
  5
13A5D
331
12E51
  5
12E60
331
13A53
  5
13A59
331
1222A
  5
12E50
331
BE65
  5
12276
331
BE61
  5
F636
331
7557
  5
8618
331
7537
  5
8614
331
A6DE
  5
F617
331
A663
  5
B9C6
331
A6DA
  5
F613
331
A65F
  5
B9C0
331
12E4D
  5
12E5C
331
13A4F
  5
13A55
331
12E49
  5
12E58
331
13A4B
  5
13A51
331
12E45
  5
12E54
331
13A47
  5
13A4D
331
12226
  5
127AC
331
13A43
  5
13A49
331
12222
  5
12713
331
BE5D
  5
F632
331
BE59
  5
F62E
331
BE55
  5
F62A
331
BE51
  5
F626
  0
SORTENTSTABLE
  5
12E0E
102
{ACAD_REACTORS
330
12E0D
102
}
330
12E0D
100
AcDbSortentsTable
330
15
331
D36C
  5
D36C
331
D28E
  5
D28E
331
D2AE
  5
D2AE
331
D2A5
  5
D2A5
331
D36E
  5
D36E
331
D2A7
  5
D2A7
331
D1CD
  5
D1CD
331
D281
  5
D281
331
D290
  5
D290
331
D289
  5
D289
331
D283
  5
D283
331
D2A9
  5
D2A9
331
6CA3
  5
6CA3
331
D28B
  5
D28B
331
D2AB
  5
D2AB
331
D285
  5
D285
331
D2B1
  5
D2B1
331
D287
  5
D287
331
D2AD
  5
D2AD
331
D28D
  5
D28D
331
D2A4
  5
D2A4
331
D2AF
  5
D2AF
331
D28F
  5
D28F
331
D2A6
  5
D2A6
331
D36D
  5
D36D
331
D2A8
  5
D2A8
331
D282
  5
D282
331
D288
  5
D288
331
D28A
  5
D28A
331
D2B0
  5
D2B0
331
D284
  5
D284
331
D2AA
  5
D2AA
331
D362
  5
D362
331
D28C
  5
D28C
331
D286
  5
D286
331
D2AC
  5
D2AC
  0
ACDBDETAILVIEWSTYLE
  5
1194B
102
{ACAD_REACTORS
330
1194A
102
}
330
1194A
100
AcDbModelDocViewStyle
 70
     0
  3
Imperial24
290
     0
100
AcDbDetailViewStyle
 70
     0
 71
     0
 90
        3
 71
     1
340
10
 62
   256
 40
0.24
340
0
 62
   256
 40
0.24
300

 40
0.36
280
     3
 71
     2
340
14
 90
       25
 62
   256
 71
     3
340
10
 62
   256
 40
0.24
 90
        1
 40
0.75
 90
        1
300
%<\AcVar ViewType \f "%tc1">% %<\AcVar ViewDetailId>%\PSCALE %<\AcVar ViewScale \f "%sn">%
 71
     4
340
14
 90
       25
 62
   256
340
14
 90
       25
 62
   256
280
     0
  0
LAYOUT
  5
1194F
102
{ACAD_REACTORS
330
1194C
102
}
330
1194C
100
AcDbPlotSettings
  1

  2
HP LaserJet 5200 Series PCL 5
  4
Letter
  6

 40
7.143749713897705
 41
5.027099609375
 42
7.14373779296875
 43
5.027069091796875
 44
215.8999938964844
 45
279.3999938964844
 46
0.0
 47
0.0
 48
0.0
 49
0.0
140
0.0
141
0.0
142
1.0
143
1.011582816144205
 70
   688
 72
     0
 73
     0
 74
     1
  7
monochrome.ctb
 75
     0
147
0.9885498093093804
 76
     0
 77
     2
 78
   300
148
-69.45014599935149
149
-5.938767802650037
100
AcDbLayout
  1
Layout1
 70
     0
 71
     1
 10
2.449750060863681
 20
0.0336000087701197
 11
11.04820375501023
 21
11.16101074327718
 12
0.0
 22
0.0
 32
0.0
 14
2.734195998098655
 24
0.2336136128719488
 34
-0.0000000000000058
 15
10.76310184785825
 25
10.76403984743893
 35
0.0000000000000104
146
0.0
 13
0.0
 23
0.0
 33
0.0
 16
1.0
 26
0.0
 36
0.0
 17
0.0
 27
1.0
 37
0.0
 76
     0
330
15
331
6CA3
1001
ACAD_PSEXT
1000
HP LaserJet 5200 Series PCL 5
1000
HP LaserJet 5200 Series PCL 5
1000
DOT4_001
1000

1070
     0
  0
LAYOUT
  5
1194E
102
{ACAD_REACTORS
330
1194C
102
}
330
1194C
100
AcDbPlotSettings
  1

  2
HP LaserJet 5200 Series PCL 5
  4

  6

 40
0.0
 41
0.0
 42
0.0
 43
0.0
 44
0.0
 45
0.0
 46
0.0
 47
0.0
 48
0.0
 49
0.0
140
0.0
141
0.0
142
1.0
143
1.0
 70
  1712
 72
     0
 73
     0
 74
     0
  7
monochrome.ctb
 75
     0
147
1.0
 76
     0
 77
     2
 78
   300
148
0.0
149
0.0
100
AcDbLayout
  1
Model
 70
     1
 71
     0
 10
0.0
 20
0.0
 11
12.0
 21
9.0
 12
0.0
 22
0.0
 32
0.0
 14
0.0
 24
0.0
 34
0.0
 15
0.0
 25
0.0
 35
0.0
146
0.0
 13
0.0
 23
0.0
 33
0.0
 16
1.0
 26
0.0
 36
0.0
 17
0.0
 27
1.0
 37
0.0
 76
     0
330
18
331
118F3
  0
MATERIAL
  5
11907
102
{ACAD_XDICTIONARY
360
11908
102
}
102
{ACAD_REACTORS
330
118FE
102
}
330
118FE
100
AcDbMaterial
  1
ByBlock
 72
     0
 43
0.0208333333333333
 43
0.0
 43
0.0
 43
0.0
 43
0.0
 43
0.0208333333333333
 43
0.0
 43
0.0
 43
0.0
 43
0.0
 43
1.0
 43
0.0
 43
0.0
 43
0.0
 43
0.0
 43
1.0
 77
     0
 47
0.0208333333333333
 47
0.0
 47
0.0
 47
0.0
 47
0.0
 47
0.0208333333333333
 47
0.0
 47
0.0
 47
0.0
 47
0.0
 47
1.0
 47
0.0
 47
0.0
 47
0.0
 47
0.0
 47
1.0
171
     0
 49
0.0208333333333333
 49
0.0
 49
0.0
 49
0.0
 49
0.0
 49
0.0208333333333333
 49
0.0
 49
0.0
 49
0.0
 49
0.0
 49
1.0
 49
0.0
 49
0.0
 49
0.0
 49
0.0
 49
1.0
175
     0
142
0.0208333333333333
142
0.0
142
0.0
142
0.0
142
0.0
142
0.0208333333333333
142
0.0
142
0.0
142
0.0
142
0.0
142
1.0
142
0.0
142
0.0
142
0.0
142
0.0
142
1.0
179
     0
144
0.0208333333333333
144
0.0
144
0.0
144
0.0
144
0.0
144
0.0208333333333333
144
0.0
144
0.0
144
0.0
144
0.0
144
1.0
144
0.0
144
0.0
144
0.0
144
0.0
144
1.0
147
0.0208333333333333
147
0.0
147
0.0
147
0.0
147
0.0
147
0.0208333333333333
147
0.0
147
0.0
147
0.0
147
0.0
147
1.0
147
0.0
147
0.0
147
0.0
147
0.0
147
1.0
  0
MATERIAL
  5
118FF
102
{ACAD_XDICTIONARY
360
11900
102
}
102
{ACAD_REACTORS
330
118FE
102
}
330
118FE
100
AcDbMaterial
  1
ByLayer
 72
     0
 43
0.0208333333333333
 43
0.0
 43
0.0
 43
0.0
 43
0.0
 43
0.0208333333333333
 43
0.0
 43
0.0
 43
0.0
 43
0.0
 43
1.0
 43
0.0
 43
0.0
 43
0.0
 43
0.0
 43
1.0
 77
     0
 47
0.0208333333333333
 47
0.0
 47
0.0
 47
0.0
 47
0.0
 47
0.0208333333333333
 47
0.0
 47
0.0
 47
0.0
 47
0.0
 47
1.0
 47
0.0
 47
0.0
 47
0.0
 47
0.0
 47
1.0
171
     0
 49
0.0208333333333333
 49
0.0
 49
0.0
 49
0.0
 49
0.0
 49
0.0208333333333333
 49
0.0
 49
0.0
 49
0.0
 49
0.0
 49
1.0
 49
0.0
 49
0.0
 49
0.0
 49
0.0
 49
1.0
175
     0
142
0.0208333333333333
142
0.0
142
0.0
142
0.0
142
0.0
142
0.0208333333333333
142
0.0
142
0.0
142
0.0
142
0.0
142
1.0
142
0.0
142
0.0
142
0.0
142
0.0
142
1.0
179
     0
144
0.0208333333333333
144
0.0
144
0.0
144
0.0
144
0.0
144
0.0208333333333333
144
0.0
144
0.0
144
0.0
144
0.0
144
1.0
144
0.0
144
0.0
144
0.0
144
0.0
144
1.0
147
0.0208333333333333
147
0.0
147
0.0
147
0.0
147
0.0
147
0.0208333333333333
147
0.0
147
0.0
147
0.0
147
0.0
147
1.0
147
0.0
147
0.0
147
0.0
147
0.0
147
1.0
  0
MATERIAL
  5
1190F
102
{ACAD_XDICTIONARY
360
11910
102
}
102
{ACAD_REACTORS
330
118FE
102
}
330
118FE
100
AcDbMaterial
  1
Global
 72
     0
 43
0.0208333333333333
 43
0.0
 43
0.0
 43
0.0
 43
0.0
 43
0.0208333333333333
 43
0.0
 43
0.0
 43
0.0
 43
0.0
 43
1.0
 43
0.0
 43
0.0
 43
0.0
 43
0.0
 43
1.0
 77
     0
 47
0.0208333333333333
 47
0.0
 47
0.0
 47
0.0
 47
0.0
 47
0.0208333333333333
 47
0.0
 47
0.0
 47
0.0
 47
0.0
 47
1.0
 47
0.0
 47
0.0
 47
0.0
 47
0.0
 47
1.0
171
     0
 49
0.0208333333333333
 49
0.0
 49
0.0
 49
0.0
 49
0.0
 49
0.0208333333333333
 49
0.0
 49
0.0
 49
0.0
 49
0.0
 49
1.0
 49
0.0
 49
0.0
 49
0.0
 49
0.0
 49
1.0
175
     0
142
0.0208333333333333
142
0.0
142
0.0
142
0.0
142
0.0
142
0.0208333333333333
142
0.0
142
0.0
142
0.0
142
0.0
142
1.0
142
0.0
142
0.0
142
0.0
142
0.0
142
1.0
179
     0
144
0.0208333333333333
144
0.0
144
0.0
144
0.0
144
0.0
144
0.0208333333333333
144
0.0
144
0.0
144
0.0
144
0.0
144
1.0
144
0.0
144
0.0
144
0.0
144
0.0
144
1.0
147
0.0208333333333333
147
0.0
147
0.0
147
0.0
147
0.0
147
0.0208333333333333
147
0.0
147
0.0
147
0.0
147
0.0
147
1.0
147
0.0
147
0.0
147
0.0
147
0.0
147
1.0
  0
MLEADERSTYLE
  5
11946
102
{ACAD_XDICTIONARY
360
14273
102
}
102
{ACAD_REACTORS
330
11945
102
}
330
11945
100
AcDbMLeaderStyle
179
     2
170
     2
171
     1
172
     0
 90
        2
 40
0.0
 41
0.0
173
     1
 91
-1056964608
340
12
 92
       -2
290
     1
 42
0.09
291
     1
 43
0.36
  3
Standard
 44
0.18
300

342
10
174
     1
178
     6
175
     1
176
     0
 93
-1056964608
 45
0.18
292
     0
297
     0
 46
0.18
 94
-1056964608
 47
1.0
 49
1.0
140
1.0
293
     1
141
0.0
294
     1
177
     0
142
1.0
295
     0
296
     0
143
0.125
271
     0
272
     9
273
     9
  0
MLINESTYLE
  5
1B
102
{ACAD_REACTORS
330
E
102
}
330
E
100
AcDbMlineStyle
  2
STANDARD
 70
     0
  3

 62
     0
 51
90.0
 52
90.0
 71
     2
 49
0.5
 62
   256
  6
BYLAYER
 49
-0.5
 62
   256
  6
BYLAYER
  0
ACDBPLACEHOLDER
  5
118FD
102
{ACAD_REACTORS
330
118FC
102
}
330
118FC
  0
SCALE
  5
11934
102
{ACAD_REACTORS
330
11933
102
}
330
11933
100
AcDbScale
 70
     0
300
1:1
140
1.0
141
1.0
290
     1
  0
SCALE
  5
11935
102
{ACAD_REACTORS
330
11933
102
}
330
11933
100
AcDbScale
 70
     0
300
1/128" = 1'-0"
140
0.0078125
141
12.0
290
     0
  0
SCALE
  5
11936
102
{ACAD_REACTORS
330
11933
102
}
330
11933
100
AcDbScale
 70
     0
300
1/64" = 1'-0"
140
0.015625
141
12.0
290
     0
  0
SCALE
  5
11937
102
{ACAD_REACTORS
330
11933
102
}
330
11933
100
AcDbScale
 70
     0
300
1/32" = 1'-0"
140
0.03125
141
12.0
290
     0
  0
SCALE
  5
11938
102
{ACAD_REACTORS
330
11933
102
}
330
11933
100
AcDbScale
 70
     0
300
1/16" = 1'-0"
140
0.0625
141
12.0
290
     0
  0
SCALE
  5
11939
102
{ACAD_REACTORS
330
11933
102
}
330
11933
100
AcDbScale
 70
     0
300
3/32" = 1'-0"
140
0.09375
141
12.0
290
     0
  0
SCALE
  5
1193A
102
{ACAD_REACTORS
330
11933
102
}
330
11933
100
AcDbScale
 70
     0
300
1/8" = 1'-0"
140
0.125
141
12.0
290
     0
  0
SCALE
  5
1193B
102
{ACAD_REACTORS
330
11933
102
}
330
11933
100
AcDbScale
 70
     0
300
3/16" = 1'-0"
140
0.1875
141
12.0
290
     0
  0
SCALE
  5
1193C
102
{ACAD_REACTORS
330
11933
102
}
330
11933
100
AcDbScale
 70
     0
300
1/4" = 1'-0"
140
0.25
141
12.0
290
     0
  0
SCALE
  5
1193D
102
{ACAD_REACTORS
330
11933
102
}
330
11933
100
AcDbScale
 70
     0
300
3/8" = 1'-0"
140
0.375
141
12.0
290
     0
  0
SCALE
  5
1193E
102
{ACAD_REACTORS
330
11933
102
}
330
11933
100
AcDbScale
 70
     0
300
1/2" = 1'-0"
140
0.5
141
12.0
290
     0
  0
SCALE
  5
1193F
102
{ACAD_REACTORS
330
11933
102
}
330
11933
100
AcDbScale
 70
     0
300
3/4" = 1'-0"
140
0.75
141
12.0
290
     0
  0
SCALE
  5
11940
102
{ACAD_REACTORS
330
11933
102
}
330
11933
100
AcDbScale
 70
     0
300
1" = 1'-0"
140
1.0
141
12.0
290
     0
  0
SCALE
  5
11941
102
{ACAD_REACTORS
330
11933
102
}
330
11933
100
AcDbScale
 70
     0
300
1-1/2" = 1'-0"
140
1.5
141
12.0
290
     0
  0
SCALE
  5
11942
102
{ACAD_REACTORS
330
11933
102
}
330
11933
100
AcDbScale
 70
     0
300
3" = 1'-0"
140
3.0
141
12.0
290
     0
  0
SCALE
  5
11943
102
{ACAD_REACTORS
330
11933
102
}
330
11933
100
AcDbScale
 70
     0
300
6" = 1'-0"
140
6.0
141
12.0
290
     0
  0
SCALE
  5
11944
102
{ACAD_REACTORS
330
11933
102
}
330
11933
100
AcDbScale
 70
     0
300
1'-0" = 1'-0"
140
12.0
141
12.0
290
     0
  0
ACDBSECTIONVIEWSTYLE
  5
11949
102
{ACAD_REACTORS
330
11947
102
}
330
11947
100
AcDbModelDocViewStyle
 70
     0
  3
Imperial24
290
     0
100
AcDbSectionViewStyle
 70
     0
 71
     0
 90
       78
 71
     1
340
10
 62
   256
 40
0.24
340
0
340
0
 62
   256
 40
0.24
300
I, O, Q, S, X, Z
 40
0.48
 90
        3
 40
0.18
 90
        1
 71
     2
340
11948
 90
       25
 62
   256
340
14
 90
       50
 62
   256
 40
0.24
 40
0.0
 40
0.24
 71
     3
340
10
 62
   256
 40
0.24
 90
        1
 40
0.75
 90
        1
300
%<\AcVar ViewType \f "%tc1">% %<\AcVar ViewSectionStartId>%-%<\AcVar ViewSectionEndId>%\PSCALE %<\AcVar ViewScale \f "%sn">%
 71
     4
 62
   256
 62
   257
300
ANSI31
 40
1.0
 90
        0
290
     0
290
     0
 90
        6
 40
0.0
 40
1.570796326794896
 40
0.2617993877991494
 40
1.308996938995747
 40
-0.2617993877991494
 40
1.832595714594046
  0
TABLESTYLE
  5
11932
102
{ACAD_XDICTIONARY
360
14237
102
}
102
{ACAD_REACTORS
330
11931
102
}
330
11931
100
AcDbTableStyle
280
     0
  3
Standard
 70
     0
 71
     0
 40
0.06
 41
0.06
280
     0
281
     0
  7
STANDARD
140
0.18
170
     2
 62
     0
 63
     7
283
     0
 90
      512
 91
        0
  1

274
    -2
284
     1
 64
     0
275
    -2
285
     1
 65
     0
276
    -2
286
     1
 66
     0
277
    -2
287
     1
 67
     0
278
    -2
288
     1
 68
     0
279
    -2
289
     1
 69
     0
  7
STANDARD
140
0.25
170
     5
 62
     0
 63
     7
283
     0
 90
      512
 91
        0
  1

274
    -2
284
     1
 64
     0
275
    -2
285
     1
 65
     0
276
    -2
286
     1
 66
     0
277
    -2
287
     1
 67
     0
278
    -2
288
     1
 68
     0
279
    -2
289
     1
 69
     0
  7
STANDARD
140
0.18
170
     5
 62
     0
 63
     7
283
     0
 90
      512
 91
        0
  1

274
    -2
284
     1
 64
     0
275
    -2
285
     1
 65
     0
276
    -2
286
     1
 66
     0
277
    -2
287
     1
 67
     0
278
    -2
288
     1
 68
     0
279
    -2
289
     1
 69
     0
  0
VISUALSTYLE
  5
1191D
102
{ACAD_XDICTIONARY
360
1424D
102
}
102
{ACAD_REACTORS
330
11917
102
}
330
11917
100
AcDbVisualStyle
  2
2dWireframe
 70
     4
177
     2
291
     0
 71
     0
176
     1
 72
     2
176
     1
 73
     0
176
     1
 90
        0
176
     1
 40
0.6
176
     1
 41
30.0
176
     1
 63
     7
421
 16777215
176
     1
 74
     1
176
     1
 91
        4
176
     1
 64
     7
176
     1
 65
   257
176
     1
 75
     1
176
     1
175
     1
176
     1
 42
1.0
176
     1
 92
        0
176
     1
 66
   257
176
     1
 43
1.0
176
     1
 76
     1
176
     1
 77
     6
176
     1
 78
     2
176
     1
 67
     7
176
     1
 79
     5
176
     1
170
     0
176
     1
171
     0
176
     1
290
     0
176
     1
 93
        1
176
     1
 44
0.0
176
     1
173
     0
176
     1
1001
ACAD
1000
AcDbSavedByObjectVersion
1070
     0
  0
VISUALSTYLE
  5
1191C
102
{ACAD_XDICTIONARY
360
1424B
102
}
102
{ACAD_REACTORS
330
11917
102
}
330
11917
100
AcDbVisualStyle
  2
Basic
 70
     7
177
     2
291
     1
 71
     1
176
     1
 72
     0
176
     1
 73
     1
176
     1
 90
        0
176
     1
 40
0.6
176
     1
 41
30.0
176
     1
 63
     7
421
 16777215
176
     1
 74
     0
176
     1
 91
        4
176
     1
 64
     7
176
     1
 65
   257
176
     1
 75
     1
176
     1
175
     1
176
     1
 42
1.0
176
     1
 92
        8
176
     1
 66
     7
176
     1
 43
1.0
176
     1
 76
     1
176
     1
 77
     6
176
     1
 78
     2
176
     1
 67
     7
176
     1
 79
     5
176
     1
170
     0
176
     1
171
     0
176
     1
290
     0
176
     1
 93
        1
176
     1
 44
0.0
176
     1
173
     0
176
     1
1001
ACAD
1000
AcDbSavedByObjectVersion
1070
     0
  0
VISUALSTYLE
  5
11923
102
{ACAD_XDICTIONARY
360
14259
102
}
102
{ACAD_REACTORS
330
11917
102
}
330
11917
100
AcDbVisualStyle
  2
Brighten
 70
    12
177
     2
291
     1
 71
     2
176
     1
 72
     2
176
     1
 73
     0
176
     1
 90
        0
176
     1
 40
0.6
176
     1
 41
30.0
176
     1
 63
     7
421
 16777215
176
     1
 74
     1
176
     1
 91
        4
176
     1
 64
     7
176
     1
 65
   257
176
     1
 75
     1
176
     1
175
     1
176
     1
 42
1.0
176
     1
 92
        8
176
     1
 66
     7
176
     1
 43
1.0
176
     1
 76
     1
176
     1
 77
     6
176
     1
 78
     2
176
     1
 67
     7
176
     1
 79
     5
176
     1
170
     0
176
     1
171
     0
176
     1
290
     0
176
     1
 93
        1
176
     1
 44
50.0
176
     1
173
     0
176
     1
1001
ACAD
1000
AcDbSavedByObjectVersion
1070
     0
  0
VISUALSTYLE
  5
11927
102
{ACAD_XDICTIONARY
360
14261
102
}
102
{ACAD_REACTORS
330
11917
102
}
330
11917
100
AcDbVisualStyle
  2
ColorChange
 70
    16
177
     2
291
     1
 71
     2
176
     1
 72
     2
176
     1
 73
     3
176
     1
 90
        0
176
     1
 40
0.6
176
     1
 41
30.0
176
     1
 63
     8
421
  8421504
176
     1
 74
     1
176
     1
 91
        4
176
     1
 64
     7
176
     1
 65
   257
176
     1
 75
     1
176
     1
175
     1
176
     1
 42
1.0
176
     1
 92
        8
176
     1
 66
     8
424
  8421504
176
     1
 43
1.0
176
     1
 76
     1
176
     1
 77
     6
176
     1
 78
     2
176
     1
 67
     7
176
     1
 79
     5
176
     1
170
     0
176
     1
171
     0
176
     1
290
     0
176
     1
 93
        1
176
     1
 44
0.0
176
     1
173
     0
176
     1
1001
ACAD
1000
AcDbSavedByObjectVersion
1070
     0
  0
VISUALSTYLE
  5
11920
102
{ACAD_XDICTIONARY
360
14253
102
}
102
{ACAD_REACTORS
330
11917
102
}
330
11917
100
AcDbVisualStyle
  2
Conceptual
 70
     9
177
     2
291
     0
 71
     3
176
     1
 72
     2
176
     1
 73
     0
176
     1
 90
        0
176
     1
 40
0.6
176
     1
 41
30.0
176
     1
 63
     7
421
 16777215
176
     1
 74
     2
176
     1
 91
        2
176
     1
 64
     7
176
     1
 65
   257
176
     1
 75
     1
176
     1
175
     1
176
     1
 42
179.0
176
     1
 92
        8
176
     1
 66
     7
176
     1
 43
1.0
176
     1
 76
     1
176
     1
 77
     6
176
     1
 78
     2
176
     1
 67
     7
176
     1
 79
     3
176
     1
170
     0
176
     1
171
     0
176
     1
290
     0
176
     1
 93
        1
176
     1
 44
0.0
176
     1
173
     0
176
     1
1001
ACAD
1000
AcDbSavedByObjectVersion
1070
     0
  0
VISUALSTYLE
  5
11922
102
{ACAD_XDICTIONARY
360
14257
102
}
102
{ACAD_REACTORS
330
11917
102
}
330
11917
100
AcDbVisualStyle
  2
Dim
 70
    11
177
     2
291
     1
 71
     2
176
     1
 72
     2
176
     1
 73
     0
176
     1
 90
        0
176
     1
 40
0.6
176
     1
 41
30.0
176
     1
 63
     7
421
 16777215
176
     1
 74
     1
176
     1
 91
        4
176
     1
 64
     7
176
     1
 65
   257
176
     1
 75
     1
176
     1
175
     1
176
     1
 42
1.0
176
     1
 92
        8
176
     1
 66
     7
176
     1
 43
1.0
176
     1
 76
     1
176
     1
 77
     6
176
     1
 78
     2
176
     1
 67
     7
176
     1
 79
     5
176
     1
170
     0
176
     1
171
     0
176
     1
290
     0
176
     1
 93
        1
176
     1
 44
-50.0
176
     1
173
     0
176
     1
1001
ACAD
1000
AcDbSavedByObjectVersion
1070
     0
  0
VISUALSTYLE
  5
1192F
102
{ACAD_XDICTIONARY
360
14271
102
}
102
{ACAD_REACTORS
330
11917
102
}
330
11917
100
AcDbVisualStyle
  2
EdgeColorOff
 70
    22
177
     2
291
     1
 71
     2
176
     0
 72
     2
176
     0
 73
     0
176
     0
 90
        0
176
     0
 40
0.6
176
     0
 41
30.0
176
     0
 63
     7
421
 16777215
176
     0
 74
     1
176
     0
 91
        4
176
     0
 64
     7
176
     0
 65
   257
176
     0
 75
     1
176
     0
175
     1
176
     0
 42
1.0
176
     0
 92
        8
176
     2
 66
     7
176
     0
 43
1.0
176
     0
 76
     1
176
     0
 77
     6
176
     0
 78
     2
176
     0
 67
     7
176
     0
 79
     5
176
     0
170
     0
176
     0
171
     0
176
     0
290
     0
176
     0
 93
        1
176
     0
 44
0.0
176
     0
173
     0
176
     0
1001
ACAD
1000
AcDbSavedByObjectVersion
1070
     0
  0
VISUALSTYLE
  5
11926
102
{ACAD_XDICTIONARY
360
1425F
102
}
102
{ACAD_REACTORS
330
11917
102
}
330
11917
100
AcDbVisualStyle
  2
Facepattern
 70
    15
177
     2
291
     1
 71
     2
176
     1
 72
     2
176
     1
 73
     0
176
     1
 90
        0
176
     1
 40
0.6
176
     1
 41
30.0
176
     1
 63
     7
421
 16777215
176
     1
 74
     1
176
     1
 91
        4
176
     1
 64
     7
176
     1
 65
   257
176
     1
 75
     1
176
     1
175
     1
176
     1
 42
1.0
176
     1
 92
        8
176
     1
 66
     7
176
     1
 43
1.0
176
     1
 76
     1
176
     1
 77
     6
176
     1
 78
     2
176
     1
 67
     7
176
     1
 79
     5
176
     1
170
     0
176
     1
171
     0
176
     1
290
     0
176
     1
 93
        1
176
     1
 44
0.0
176
     1
173
     0
176
     1
1001
ACAD
1000
AcDbSavedByObjectVersion
1070
     0
  0
VISUALSTYLE
  5
11918
102
{ACAD_XDICTIONARY
360
14243
102
}
102
{ACAD_REACTORS
330
11917
102
}
330
11917
100
AcDbVisualStyle
  2
Flat
 70
     0
177
     2
291
     1
 71
     2
176
     1
 72
     1
176
     1
 73
     1
176
     1
 90
        2
176
     1
 40
0.6
176
     1
 41
30.0
176
     1
 63
     7
421
 16777215
176
     1
 74
     0
176
     1
 91
        0
176
     1
 64
     7
176
     1
 65
   257
176
     1
 75
     1
176
     1
175
     1
176
     1
 42
1.0
176
     1
 92
        8
176
     1
 66
     7
176
     1
 43
1.0
176
     1
 76
     1
176
     1
 77
     6
176
     1
 78
     2
176
     1
 67
     7
176
     1
 79
     5
176
     1
170
     0
176
     1
171
     0
176
     1
290
     0
176
     1
 93
       13
176
     1
 44
0.0
176
     1
173
     0
176
     1
1001
ACAD
1000
AcDbSavedByObjectVersion
1070
     0
  0
VISUALSTYLE
  5
11919
102
{ACAD_XDICTIONARY
360
14245
102
}
102
{ACAD_REACTORS
330
11917
102
}
330
11917
100
AcDbVisualStyle
  2
FlatWithEdges
 70
     1
177
     2
291
     1
 71
     2
176
     1
 72
     1
176
     1
 73
     1
176
     1
 90
        2
176
     1
 40
0.6
176
     1
 41
30.0
176
     1
 63
     7
421
 16777215
176
     1
 74
     1
176
     1
 91
        0
176
     1
 64
     7
176
     1
 65
   257
176
     1
 75
     1
176
     1
175
     1
176
     1
 42
1.0
176
     1
 92
        0
176
     1
 66
   257
176
     1
 43
1.0
176
     1
 76
     1
176
     1
 77
     6
176
     1
 78
     2
176
     1
 67
     7
176
     1
 79
     5
176
     1
170
     0
176
     1
171
     0
176
     1
290
     0
176
     1
 93
       13
176
     1
 44
0.0
176
     1
173
     0
176
     1
1001
ACAD
1000
AcDbSavedByObjectVersion
1070
     0
  0
VISUALSTYLE
  5
1191A
102
{ACAD_XDICTIONARY
360
14247
102
}
102
{ACAD_REACTORS
330
11917
102
}
330
11917
100
AcDbVisualStyle
  2
Gouraud
 70
     2
177
     2
291
     1
 71
     2
176
     1
 72
     2
176
     1
 73
     1
176
     1
 90
        2
176
     1
 40
0.6
176
     1
 41
30.0
176
     1
 63
     7
421
 16777215
176
     1
 74
     0
176
     1
 91
        0
176
     1
 64
     7
176
     1
 65
   257
176
     1
 75
     1
176
     1
175
     1
176
     1
 42
1.0
176
     1
 92
        0
176
     1
 66
     7
176
     1
 43
1.0
176
     1
 76
     1
176
     1
 77
     6
176
     1
 78
     2
176
     1
 67
     7
176
     1
 79
     5
176
     1
170
     0
176
     1
171
     0
176
     1
290
     0
176
     1
 93
       13
176
     1
 44
0.0
176
     1
173
     0
176
     1
1001
ACAD
1000
AcDbSavedByObjectVersion
1070
     0
  0
VISUALSTYLE
  5
1191B
102
{ACAD_XDICTIONARY
360
14249
102
}
102
{ACAD_REACTORS
330
11917
102
}
330
11917
100
AcDbVisualStyle
  2
GouraudWithEdges
 70
     3
177
     2
291
     1
 71
     2
176
     1
 72
     2
176
     1
 73
     1
176
     1
 90
        2
176
     1
 40
0.6
176
     1
 41
30.0
176
     1
 63
     7
421
 16777215
176
     1
 74
     1
176
     1
 91
        0
176
     1
 64
     7
176
     1
 65
   257
176
     1
 75
     1
176
     1
175
     1
176
     1
 42
1.0
176
     1
 92
        0
176
     1
 66
   257
176
     1
 43
1.0
176
     1
 76
     1
176
     1
 77
     6
176
     1
 78
     2
176
     1
 67
     7
176
     1
 79
     5
176
     1
170
     0
176
     1
171
     0
176
     1
290
     0
176
     1
 93
       13
176
     1
 44
0.0
176
     1
173
     0
176
     1
1001
ACAD
1000
AcDbSavedByObjectVersion
1070
     0
  0
VISUALSTYLE
  5
1191F
102
{ACAD_XDICTIONARY
360
14251
102
}
102
{ACAD_REACTORS
330
11917
102
}
330
11917
100
AcDbVisualStyle
  2
Hidden
 70
     6
177
     2
291
     0
 71
     1
176
     1
 72
     2
176
     1
 73
     2
176
     1
 90
        0
176
     1
 40
0.6
176
     1
 41
30.0
176
     1
 63
     7
421
 16777215
176
     1
 74
     2
176
     1
 91
        2
176
     1
 64
     7
176
     1
 65
   257
176
     1
 75
     2
176
     1
175
     1
176
     1
 42
40.0
176
     1
 92
        0
176
     1
 66
   257
176
     1
 43
1.0
176
     1
 76
     1
176
     1
 77
     6
176
     1
 78
     2
176
     1
 67
     7
176
     1
 79
     3
176
     1
170
     0
176
     1
171
     0
176
     1
290
     0
176
     1
 93
        1
176
     1
 44
0.0
176
     1
173
     0
176
     1
1001
ACAD
1000
AcDbSavedByObjectVersion
1070
     0
  0
VISUALSTYLE
  5
1192D
102
{ACAD_XDICTIONARY
360
1426D
102
}
102
{ACAD_REACTORS
330
11917
102
}
330
11917
100
AcDbVisualStyle
  2
JitterOff
 70
    20
177
     2
291
     1
 71
     2
176
     0
 72
     2
176
     0
 73
     0
176
     0
 90
        0
176
     0
 40
0.6
176
     0
 41
30.0
176
     0
 63
     7
421
 16777215
176
     0
 74
     1
176
     0
 91
        4
176
     0
 64
     7
176
     0
 65
   257
176
     0
 75
     1
176
     0
175
     1
176
     0
 42
1.0
176
     0
 92
       10
176
     2
 66
     7
176
     0
 43
1.0
176
     0
 76
     1
176
     0
 77
     6
176
     0
 78
     2
176
     0
 67
     7
176
     0
 79
     5
176
     0
170
     0
176
     0
171
     0
176
     0
290
     0
176
     0
 93
        1
176
     0
 44
0.0
176
     0
173
     0
176
     0
1001
ACAD
1000
AcDbSavedByObjectVersion
1070
     0
  0
VISUALSTYLE
  5
11925
102
{ACAD_XDICTIONARY
360
1425D
102
}
102
{ACAD_REACTORS
330
11917
102
}
330
11917
100
AcDbVisualStyle
  2
Linepattern
 70
    14
177
     2
291
     1
 71
     2
176
     1
 72
     2
176
     1
 73
     0
176
     1
 90
        0
176
     1
 40
0.6
176
     1
 41
30.0
176
     1
 63
     7
421
 16777215
176
     1
 74
     1
176
     1
 91
        4
176
     1
 64
     7
176
     1
 65
   257
176
     1
 75
     7
176
     1
175
     7
176
     1
 42
1.0
176
     1
 92
        8
176
     1
 66
     7
176
     1
 43
1.0
176
     1
 76
     1
176
     1
 77
     6
176
     1
 78
     2
176
     1
 67
     7
176
     1
 79
     5
176
     1
170
     0
176
     1
171
     0
176
     1
290
     0
176
     1
 93
        1
176
     1
 44
0.0
176
     1
173
     0
176
     1
1001
ACAD
1000
AcDbSavedByObjectVersion
1070
     0
  0
VISUALSTYLE
  5
1192E
102
{ACAD_XDICTIONARY
360
1426F
102
}
102
{ACAD_REACTORS
330
11917
102
}
330
11917
100
AcDbVisualStyle
  2
OverhangOff
 70
    21
177
     2
291
     1
 71
     2
176
     0
 72
     2
176
     0
 73
     0
176
     0
 90
        0
176
     0
 40
0.6
176
     0
 41
30.0
176
     0
 63
     7
421
 16777215
176
     0
 74
     1
176
     0
 91
        4
176
     0
 64
     7
176
     0
 65
   257
176
     0
 75
     1
176
     0
175
     1
176
     0
 42
1.0
176
     0
 92
        9
176
     2
 66
     7
176
     0
 43
1.0
176
     0
 76
     1
176
     0
 77
     6
176
     0
 78
     2
176
     0
 67
     7
176
     0
 79
     5
176
     0
170
     0
176
     0
171
     0
176
     0
290
     0
176
     0
 93
        1
176
     0
 44
0.0
176
     0
173
     0
176
     0
1001
ACAD
1000
AcDbSavedByObjectVersion
1070
     0
  0
VISUALSTYLE
  5
11921
102
{ACAD_XDICTIONARY
360
14255
102
}
102
{ACAD_REACTORS
330
11917
102
}
330
11917
100
AcDbVisualStyle
  2
Realistic
 70
     8
177
     2
291
     0
 71
     2
176
     1
 72
     3
176
     1
 73
     0
176
     1
 90
        2
176
     1
 40
0.6
176
     1
 41
30.0
176
     1
 63
     7
421
 16777215
176
     1
 74
     0
176
     1
 91
        0
176
     1
 64
     7
176
     1
 65
   257
176
     1
 75
     1
176
     1
175
     1
176
     1
 42
1.0
176
     1
 92
        8
176
     1
 66
   257
176
     1
 43
1.0
176
     1
 76
     1
176
     1
 77
     6
176
     1
 78
     2
176
     1
 67
     7
176
     1
 79
     3
176
     1
170
     0
176
     1
171
     0
176
     1
290
     0
176
     1
 93
       13
176
     1
 44
0.0
176
     1
173
     0
176
     1
1001
ACAD
1000
AcDbSavedByObjectVersion
1070
     0
  0
VISUALSTYLE
  5
1192C
102
{ACAD_XDICTIONARY
360
1426B
102
}
102
{ACAD_REACTORS
330
11917
102
}
330
11917
100
AcDbVisualStyle
  2
Shaded
 70
    27
177
     2
291
     0
 71
     2
176
     1
 72
     2
176
     1
 73
     1
176
     1
 90
        2
176
     1
 40
0.6
176
     1
 41
30.0
176
     1
 63
     7
421
 16777215
176
     1
 74
     0
176
     1
 91
        4
176
     1
 64
     7
176
     1
 65
   257
176
     1
 75
     1
176
     1
175
     1
176
     1
 42
1.0
176
     1
 92
        8
176
     1
 66
   257
176
     1
 43
1.0
176
     1
 76
     1
176
     1
 77
     6
176
     1
 78
     2
176
     1
 67
     8
425
  7895160
176
     1
 79
     3
176
     1
170
     0
176
     1
171
     0
176
     1
290
     0
176
     1
 93
        5
176
     1
 44
0.0
176
     1
173
     0
176
     1
1001
ACAD
1000
AcDbSavedByObjectVersion
1070
     0
  0
VISUALSTYLE
  5
1192B
102
{ACAD_XDICTIONARY
360
14269
102
}
102
{ACAD_REACTORS
330
11917
102
}
330
11917
100
AcDbVisualStyle
  2
Shaded with edges
 70
    26
177
     2
291
     0
 71
     2
176
     1
 72
     2
176
     1
 73
     1
176
     1
 90
        2
176
     1
 40
0.6
176
     1
 41
30.0
176
     1
 63
     7
421
 16777215
176
     1
 74
     1
176
     1
 91
       10
176
     1
 64
     7
176
     1
 65
   257
176
     1
 75
     2
176
     1
175
     1
176
     1
 42
1.0
176
     1
 92
        8
176
     1
 66
   257
176
     1
 43
1.0
176
     1
 76
     1
176
     1
 77
     6
176
     1
 78
     2
176
     1
 67
     7
176
     1
 79
     3
176
     1
170
     0
176
     1
171
     0
176
     1
290
     0
176
     1
 93
        5
176
     1
 44
0.0
176
     1
173
     0
176
     1
1001
ACAD
1000
AcDbSavedByObjectVersion
1070
     0
  0
VISUALSTYLE
  5
11928
102
{ACAD_XDICTIONARY
360
14263
102
}
102
{ACAD_REACTORS
330
11917
102
}
330
11917
100
AcDbVisualStyle
  2
Shades of Gray
 70
    23
177
     2
291
     0
 71
     2
176
     1
 72
     2
176
     1
 73
     3
176
     1
 90
        0
176
     1
 40
0.6
176
     1
 41
30.0
176
     1
 63
     7
421
 16777215
176
     1
 74
     2
176
     1
 91
        2
176
     1
 64
     7
176
     1
 65
     7
176
     1
 75
     1
176
     1
175
     1
176
     1
 42
40.0
176
     1
 92
        8
176
     1
 66
     7
176
     1
 43
1.0
176
     1
 76
     1
176
     1
 77
     6
176
     1
 78
     2
176
     1
 67
     7
176
     1
 79
     3
176
     1
170
     0
176
     1
171
     0
176
     1
290
     0
176
     1
 93
        1
176
     1
 44
0.0
176
     1
173
     0
176
     1
1001
ACAD
1000
AcDbSavedByObjectVersion
1070
     0
  0
VISUALSTYLE
  5
11929
102
{ACAD_XDICTIONARY
360
14265
102
}
102
{ACAD_REACTORS
330
11917
102
}
330
11917
100
AcDbVisualStyle
  2
Sketchy
 70
    24
177
     2
291
     0
 71
     1
176
     1
 72
     2
176
     1
 73
     2
176
     1
 90
        0
176
     1
 40
0.6
176
     1
 41
30.0
176
     1
 63
     7
421
 16777215
176
     1
 74
     2
176
     1
 91
        2
176
     1
 64
     7
176
     1
 65
     7
176
     1
 75
     1
176
     1
175
     1
176
     1
 42
40.0
176
     1
 92
       11
176
     1
 66
     7
176
     1
 43
1.0
176
     1
 76
     1
176
     1
 77
     6
176
     1
 78
     2
176
     1
 67
     7
176
     1
 79
     6
176
     1
170
     0
176
     1
171
     0
176
     1
290
     0
176
     1
 93
        1
176
     1
 44
0.0
176
     1
173
     0
176
     1
1001
ACAD
1000
AcDbSavedByObjectVersion
1070
     0
  0
VISUALSTYLE
  5
11924
102
{ACAD_XDICTIONARY
360
1425B
102
}
102
{ACAD_REACTORS
330
11917
102
}
330
11917
100
AcDbVisualStyle
  2
Thicken
 70
    13
177
     2
291
     1
 71
     2
176
     1
 72
     2
176
     1
 73
     0
176
     1
 90
        0
176
     1
 40
0.6
176
     1
 41
30.0
176
     1
 63
     7
421
 16777215
176
     1
 74
     1
176
     1
 91
        4
176
     1
 64
     7
176
     1
 65
   257
176
     1
 75
     1
176
     1
175
     1
176
     1
 42
1.0
176
     1
 92
       12
176
     1
 66
     7
176
     1
 43
1.0
176
     1
 76
     1
176
     1
 77
     6
176
     1
 78
     2
176
     1
 67
     7
176
     1
 79
     5
176
     1
170
     0
176
     1
171
     0
176
     1
290
     0
176
     1
 93
        1
176
     1
 44
0.0
176
     1
173
     0
176
     1
1001
ACAD
1000
AcDbSavedByObjectVersion
1070
     0
  0
VISUALSTYLE
  5
1191E
102
{ACAD_XDICTIONARY
360
1424F
102
}
102
{ACAD_REACTORS
330
11917
102
}
330
11917
100
AcDbVisualStyle
  2
Wireframe
 70
     5
177
     2
291
     0
 71
     0
176
     1
 72
     2
176
     1
 73
     0
176
     1
 90
        0
176
     1
 40
0.6
176
     1
 41
30.0
176
     1
 63
     7
421
 16777215
176
     1
 74
     1
176
     1
 91
        4
176
     1
 64
     7
176
     1
 65
   257
176
     1
 75
     1
176
     1
175
     1
176
     1
 42
1.0
176
     1
 92
        0
176
     1
 66
   257
176
     1
 43
1.0
176
     1
 76
     1
176
     1
 77
     6
176
     1
 78
     2
176
     1
 67
     7
176
     1
 79
     3
176
     1
170
     0
176
     1
171
     0
176
     1
290
     0
176
     1
 93
        1
176
     1
 44
0.0
176
     1
173
     0
176
     1
1001
ACAD
1000
AcDbSavedByObjectVersion
1070
     0
  0
VISUALSTYLE
  5
1192A
102
{ACAD_XDICTIONARY
360
14267
102
}
102
{ACAD_REACTORS
330
11917
102
}
330
11917
100
AcDbVisualStyle
  2
X-Ray
 70
    25
177
     2
291
     0
 71
     2
176
     1
 72
     2
176
     1
 73
     1
176
     1
 90
        1
176
     1
 40
0.5
176
     1
 41
30.0
176
     1
 63
     7
421
 16777215
176
     1
 74
     1
176
     1
 91
        0
176
     1
 64
     7
176
     1
 65
   257
176
     1
 75
     1
176
     1
175
     1
176
     1
 42
1.0
176
     1
 92
        8
176
     1
 66
     7
176
     1
 43
1.0
176
     1
 76
     1
176
     1
 77
     6
176
     1
 78
     2
176
     1
 67
     7
176
     1
 79
     3
176
     1
170
     0
176
     1
171
     0
176
     1
290
     0
176
     1
 93
       13
176
     1
 44
0.0
176
     1
173
     0
176
     1
1001
ACAD
1000
AcDbSavedByObjectVersion
1070
     0
  0
DICTIONARYVAR
  5
11D5C
102
{ACAD_REACTORS
330
47CB
102
}
330
47CB
100
DictionaryVariables
280
     0
  1
1:1
  0
DICTIONARYVAR
  5
11D58
102
{ACAD_REACTORS
330
47CB
102
}
330
47CB
100
DictionaryVariables
280
     0
  1
STANDARD
  0
DICTIONARYVAR
  5
11D57
102
{ACAD_REACTORS
330
47CB
102
}
330
47CB
100
DictionaryVariables
280
     0
  1
STANDARD
  0
DICTIONARYVAR
  5
11D59
102
{ACAD_REACTORS
330
47CB
102
}
330
47CB
100
DictionaryVariables
280
     0
  1
Imperial24
  0
DICTIONARYVAR
  5
11D5A
102
{ACAD_REACTORS
330
47CB
102
}
330
47CB
100
DictionaryVariables
280
     0
  1
Imperial24
  0
DICTIONARYVAR
  5
11D5E
102
{ACAD_REACTORS
330
47CB
102
}
330
47CB
100
DictionaryVariables
280
     0
  1
1
  0
DICTIONARYVAR
  5
11D5F
102
{ACAD_REACTORS
330
47CB
102
}
330
47CB
100
DictionaryVariables
280
     0
  1
15
  0
DICTIONARYVAR
  5
11D5D
102
{ACAD_REACTORS
330
47CB
102
}
330
47CB
100
DictionaryVariables
280
     0
  1
0
  0
DICTIONARYVAR
  5
11D5B
102
{ACAD_REACTORS
330
47CB
102
}
330
47CB
100
DictionaryVariables
280
     0
  1
0
  0
DICTIONARYVAR
  5
47CC
102
{ACAD_REACTORS
330
47CB
102
}
330
47CB
100
DictionaryVariables
280
     0
  1
96
  0
DICTIONARY
  5
14242
102
{ACAD_REACTORS
330
14240
102
}
330
14240
100
AcDbDictionary
281
     1
  0
DICTIONARY
  5
14241
102
{ACAD_REACTORS
330
14240
102
}
330
14240
100
AcDbDictionary
281
     1
  3
8796083751584
350
1423A
  3
8796083751600
350
1423B
  3
8796083751616
350
1423C
  3
8796083751632
350
1423D
  3
8796083751648
350
1423E
  3
8796083751664
350
1423F
  0
DICTIONARY
  5
11908
330
11907
100
AcDbDictionary
280
     1
281
     1
  3
BUMPTILE
360
1190A
  3
DIFFUSETILE
360
11909
  3
OPACITYTILE
360
1190D
  3
REFLECTIONTILE
360
1190C
  3
REFRACTIONTILE
360
1190E
  3
SPECULARTILE
360
1190B
  0
DICTIONARY
  5
11900
330
118FF
100
AcDbDictionary
280
     1
281
     1
  3
BUMPTILE
360
11902
  3
DIFFUSETILE
360
11901
  3
OPACITYTILE
360
11905
  3
REFLECTIONTILE
360
11904
  3
REFRACTIONTILE
360
11906
  3
SPECULARTILE
360
11903
  0
DICTIONARY
  5
11910
330
1190F
100
AcDbDictionary
280
     1
281
     1
  3
BUMPTILE
360
11912
  3
DIFFUSETILE
360
11911
  3
OPACITYTILE
360
11915
  3
REFLECTIONTILE
360
11914
  3
REFRACTIONTILE
360
11916
  3
SPECULARTILE
360
11913
  0
DICTIONARY
  5
14273
330
11946
100
AcDbDictionary
280
     1
281
     1
  3
ACAD_XREC_ROUNDTRIP
360
14274
  0
DICTIONARY
  5
14237
330
11932
100
AcDbDictionary
280
     1
281
     1
  3
ACAD_ROUNDTRIP_2008_TABLESTYLE_CELLSTYLEMAP
360
14238
  0
DICTIONARY
  5
1424D
330
1191D
100
AcDbDictionary
280
     1
281
     1
  3
ACAD_XREC_ROUNDTRIP
360
1424E
  0
DICTIONARY
  5
1424B
330
1191C
100
AcDbDictionary
280
     1
281
     1
  3
ACAD_XREC_ROUNDTRIP
360
1424C
  0
DICTIONARY
  5
14259
330
11923
100
AcDbDictionary
280
     1
281
     1
  3
ACAD_XREC_ROUNDTRIP
360
1425A
  0
DICTIONARY
  5
14261
330
11927
100
AcDbDictionary
280
     1
281
     1
  3
ACAD_XREC_ROUNDTRIP
360
14262
  0
DICTIONARY
  5
14253
330
11920
100
AcDbDictionary
280
     1
281
     1
  3
ACAD_XREC_ROUNDTRIP
360
14254
  0
DICTIONARY
  5
14257
330
11922
100
AcDbDictionary
280
     1
281
     1
  3
ACAD_XREC_ROUNDTRIP
360
14258
  0
DICTIONARY
  5
14271
330
1192F
100
AcDbDictionary
280
     1
281
     1
  3
ACAD_XREC_ROUNDTRIP
360
14272
  0
DICTIONARY
  5
1425F
330
11926
100
AcDbDictionary
280
     1
281
     1
  3
ACAD_XREC_ROUNDTRIP
360
14260
  0
DICTIONARY
  5
14243
330
11918
100
AcDbDictionary
280
     1
281
     1
  3
ACAD_XREC_ROUNDTRIP
360
14244
  0
DICTIONARY
  5
14245
330
11919
100
AcDbDictionary
280
     1
281
     1
  3
ACAD_XREC_ROUNDTRIP
360
14246
  0
DICTIONARY
  5
14247
330
1191A
100
AcDbDictionary
280
     1
281
     1
  3
ACAD_XREC_ROUNDTRIP
360
14248
  0
DICTIONARY
  5
14249
330
1191B
100
AcDbDictionary
280
     1
281
     1
  3
ACAD_XREC_ROUNDTRIP
360
1424A
  0
DICTIONARY
  5
14251
330
1191F
100
AcDbDictionary
280
     1
281
     1
  3
ACAD_XREC_ROUNDTRIP
360
14252
  0
DICTIONARY
  5
1426D
330
1192D
100
AcDbDictionary
280
     1
281
     1
  3
ACAD_XREC_ROUNDTRIP
360
1426E
  0
DICTIONARY
  5
1425D
330
11925
100
AcDbDictionary
280
     1
281
     1
  3
ACAD_XREC_ROUNDTRIP
360
1425E
  0
DICTIONARY
  5
1426F
330
1192E
100
AcDbDictionary
280
     1
281
     1
  3
ACAD_XREC_ROUNDTRIP
360
14270
  0
DICTIONARY
  5
14255
330
11921
100
AcDbDictionary
280
     1
281
     1
  3
ACAD_XREC_ROUNDTRIP
360
14256
  0
DICTIONARY
  5
1426B
330
1192C
100
AcDbDictionary
280
     1
281
     1
  3
ACAD_XREC_ROUNDTRIP
360
1426C
  0
DICTIONARY
  5
14269
330
1192B
100
AcDbDictionary
280
     1
281
     1
  3
ACAD_XREC_ROUNDTRIP
360
1426A
  0
DICTIONARY
  5
14263
330
11928
100
AcDbDictionary
280
     1
281
     1
  3
ACAD_XREC_ROUNDTRIP
360
14264
  0
DICTIONARY
  5
14265
330
11929
100
AcDbDictionary
280
     1
281
     1
  3
ACAD_XREC_ROUNDTRIP
360
14266
  0
DICTIONARY
  5
1425B
330
11924
100
AcDbDictionary
280
     1
281
     1
  3
ACAD_XREC_ROUNDTRIP
360
1425C
  0
DICTIONARY
  5
1424F
330
1191E
100
AcDbDictionary
280
     1
281
     1
  3
ACAD_XREC_ROUNDTRIP
360
14250
  0
DICTIONARY
  5
14267
330
1192A
100
AcDbDictionary
280
     1
281
     1
  3
ACAD_XREC_ROUNDTRIP
360
14268
  0
XRECORD
  5
1423A
102
{ACAD_REACTORS
330
14241
102
}
330
14241
100
AcDbXrecord
280
     1
  1
AcDb_Thumbnail_Schema
102
{ATTRRECORD
341
1423C
  2
AcDbDs::TreatedAsObjectData
280
     1
291
     1
102
ATTRRECORD}
102
{ATTRRECORD
341
1423D
  2
AcDbDs::Legacy
280
     1
291
     1
102
ATTRRECORD}
  2
AcDbDs::ID
280
    10
 91
        8
102
{ATTRRECORD
341
1423E
  2
AcDs:Indexable
280
     1
291
     1
102
ATTRRECORD}
102
{ATTRRECORD
341
1423F
  2
AcDbDs::HandleAttribute
280
     7
282
     1
102
ATTRRECORD}
  2
Thumbnail_Data
280
    15
 91
        0
  0
XRECORD
  5
1423B
102
{ACAD_REACTORS
330
14241
102
}
330
14241
100
AcDbXrecord
280
     1
  1
AcDb3DSolid_ASM_Data
102
{ATTRRECORD
341
1423C
  2
AcDbDs::TreatedAsObjectData
280
     1
291
     1
102
ATTRRECORD}
102
{ATTRRECORD
341
1423D
  2
AcDbDs::Legacy
280
     1
291
     1
102
ATTRRECORD}
  2
AcDbDs::ID
280
    10
 91
        8
102
{ATTRRECORD
341
1423E
  2
AcDs:Indexable
280
     1
291
     1
102
ATTRRECORD}
102
{ATTRRECORD
341
1423F
  2
AcDbDs::HandleAttribute
280
     7
282
     1
102
ATTRRECORD}
  2
ASM_Data
280
    15
 91
        0
  0
XRECORD
  5
1423C
102
{ACAD_REACTORS
330
14241
102
}
330
14241
100
AcDbXrecord
280
     1
  1
AcDbDs::TreatedAsObjectDataSchema
  2
AcDbDs::TreatedAsObjectData
280
     1
 91
        0
  0
XRECORD
  5
1423D
102
{ACAD_REACTORS
330
14241
102
}
330
14241
100
AcDbXrecord
280
     1
  1
AcDbDs::LegacySchema
  2
AcDbDs::Legacy
280
     1
 91
        0
  0
XRECORD
  5
1423E
102
{ACAD_REACTORS
330
14241
102
}
330
14241
100
AcDbXrecord
280
     1
  1
AcDbDs::IndexedPropertySchema
  2
AcDs:Indexable
280
     1
 91
        0
  0
XRECORD
  5
1423F
102
{ACAD_REACTORS
330
14241
102
}
330
14241
100
AcDbXrecord
280
     1
  1
AcDbDs::HandleAttributeSchema
  2
AcDbDs::HandleAttribute
280
     7
 91
        1
284
     1
  0
XRECORD
  5
1190A
102
{ACAD_REACTORS
330
11908
102
}
330
11908
100
AcDbXrecord
280
     1
270
     1
271
     1
  0
XRECORD
  5
11909
102
{ACAD_REACTORS
330
11908
102
}
330
11908
100
AcDbXrecord
280
     1
270
     1
271
     1
  0
XRECORD
  5
1190D
102
{ACAD_REACTORS
330
11908
102
}
330
11908
100
AcDbXrecord
280
     1
270
     1
271
     1
  0
XRECORD
  5
1190C
102
{ACAD_REACTORS
330
11908
102
}
330
11908
100
AcDbXrecord
280
     1
270
     1
271
     1
  0
XRECORD
  5
1190E
102
{ACAD_REACTORS
330
11908
102
}
330
11908
100
AcDbXrecord
280
     1
270
     1
271
     1
  0
XRECORD
  5
1190B
102
{ACAD_REACTORS
330
11908
102
}
330
11908
100
AcDbXrecord
280
     1
270
     1
271
     1
  0
XRECORD
  5
11902
102
{ACAD_REACTORS
330
11900
102
}
330
11900
100
AcDbXrecord
280
     1
270
     1
271
     1
  0
XRECORD
  5
11901
102
{ACAD_REACTORS
330
11900
102
}
330
11900
100
AcDbXrecord
280
     1
270
     1
271
     1
  0
XRECORD
  5
11905
102
{ACAD_REACTORS
330
11900
102
}
330
11900
100
AcDbXrecord
280
     1
270
     1
271
     1
  0
XRECORD
  5
11904
102
{ACAD_REACTORS
330
11900
102
}
330
11900
100
AcDbXrecord
280
     1
270
     1
271
     1
  0
XRECORD
  5
11906
102
{ACAD_REACTORS
330
11900
102
}
330
11900
100
AcDbXrecord
280
     1
270
     1
271
     1
  0
XRECORD
  5
11903
102
{ACAD_REACTORS
330
11900
102
}
330
11900
100
AcDbXrecord
280
     1
270
     1
271
     1
  0
XRECORD
  5
11912
102
{ACAD_REACTORS
330
11910
102
}
330
11910
100
AcDbXrecord
280
     1
270
     1
271
     1
  0
XRECORD
  5
11911
102
{ACAD_REACTORS
330
11910
102
}
330
11910
100
AcDbXrecord
280
     1
270
     1
271
     1
  0
XRECORD
  5
11915
102
{ACAD_REACTORS
330
11910
102
}
330
11910
100
AcDbXrecord
280
     1
270
     1
271
     1
  0
XRECORD
  5
11914
102
{ACAD_REACTORS
330
11910
102
}
330
11910
100
AcDbXrecord
280
     1
270
     1
271
     1
  0
XRECORD
  5
11916
102
{ACAD_REACTORS
330
11910
102
}
330
11910
100
AcDbXrecord
280
     1
270
     1
271
     1
  0
XRECORD
  5
11913
102
{ACAD_REACTORS
330
11910
102
}
330
11910
100
AcDbXrecord
280
     1
270
     1
271
     1
  0
XRECORD
  5
14274
102
{ACAD_REACTORS
330
14273
102
}
330
14273
100
AcDbXrecord
280
     1
102
ACAD_ROUNDTRIP_2012_MLEADER_STYLE
298
     1
  0
CELLSTYLEMAP
  5
14238
102
{ACAD_REACTORS
330
14237
102
}
330
14237
100
AcDbCellStyleMap
 90
        3
300
CELLSTYLE
  1
TABLEFORMAT_BEGIN
 90
        5
170
     1
 91
        0
 92
    32768
 62
   257
 93
        1
300
CONTENTFORMAT
  1
CONTENTFORMAT_BEGIN
 90
        0
 91
        0
 92
      512
 93
        0
300

 40
0.0
140
1.0
 94
        5
 62
     0
340
10
144
0.25
309
CONTENTFORMAT_END
171
     0
 94
        0
309
TABLEFORMAT_END
  1
CELLSTYLE_BEGIN
 90
        1
 91
        1
300
_TITLE
309
CELLSTYLE_END
300
CELLSTYLE
  1
TABLEFORMAT_BEGIN
 90
        5
170
     1
 91
        0
 92
        0
 62
   257
 93
        1
300
CONTENTFORMAT
  1
CONTENTFORMAT_BEGIN
 90
        0
 91
        0
 92
      512
 93
        0
300

 40
0.0
140
1.0
 94
        5
 62
     0
340
10
144
0.18
309
CONTENTFORMAT_END
171
     0
 94
        0
309
TABLEFORMAT_END
  1
CELLSTYLE_BEGIN
 90
        2
 91
        1
300
_HEADER
309
CELLSTYLE_END
300
CELLSTYLE
  1
TABLEFORMAT_BEGIN
 90
        5
170
     1
 91
        0
 92
        0
 62
   257
 93
        1
300
CONTENTFORMAT
  1
CONTENTFORMAT_BEGIN
 90
        0
 91
        0
 92
      512
 93
        0
300

 40
0.0
140
1.0
 94
        2
 62
     0
340
10
144
0.18
309
CONTENTFORMAT_END
171
     0
 94
        0
309
TABLEFORMAT_END
  1
CELLSTYLE_BEGIN
 90
        3
 91
        2
300
_DATA
309
CELLSTYLE_END
  0
XRECORD
  5
1424E
102
{ACAD_REACTORS
330
1424D
102
}
330
1424D
100
AcDbXrecord
280
     1
102
RTVSPost2010Prop28
280
     1
102
RTVSPost2010PropOp28
 70
     1
102
RTVSPost2010Prop29
280
     1
102
RTVSPost2010PropOp29
 70
     1
102
RTVSPost2010Prop30
280
     0
102
RTVSPost2010PropOp30
 70
     1
102
RTVSPost2010Prop31
280
     0
102
RTVSPost2010PropOp31
 70
     1
102
RTVSPost2010Prop32
280
     0
102
RTVSPost2010PropOp32
 70
     1
102
RTVSPost2010Prop33
280
     0
102
RTVSPost2010PropOp33
 70
     1
102
RTVSPost2010Prop34
280
     0
102
RTVSPost2010PropOp34
 70
     1
102
RTVSPost2010Prop35
280
     0
102
RTVSPost2010PropOp35
 70
     1
102
RTVSPost2010Prop36
280
     0
102
RTVSPost2010PropOp36
 70
     1
102
RTVSPost2010Prop37
 90
       50
102
RTVSPost2010PropOp37
 70
     1
102
RTVSPost2010Prop38
140
0.0
102
RTVSPost2010PropOp38
 70
     1
102
RTVSPost2010Prop39
140
1.0
102
RTVSPost2010PropOp39
 70
     1
102
RTVSPost2010Prop40
 90
        0
102
RTVSPost2010PropOp40
 70
     1
102
RTVSPost2010Prop41ColorIndex
 90
       18
102
RTVSPost2010Prop41ColorRGB
 90
        0
102
RTVSPost2010PropOp41
 70
     1
102
RTVSPost2010Prop42
 90
       50
102
RTVSPost2010PropOp42
 70
     1
102
RTVSPost2010Prop43
 90
        3
102
RTVSPost2010PropOp43
 70
     1
102
RTVSPost2010Prop44ColorIndex
 90
        5
102
RTVSPost2010Prop44ColorRGB
 90
      255
102
RTVSPost2010PropOp44
 70
     1
102
RTVSPost2010Prop45
280
     0
102
RTVSPost2010PropOp45
 70
     1
102
RTVSPost2010Prop46
 90
       50
102
RTVSPost2010PropOp46
 70
     1
102
RTVSPost2010Prop47
 90
       50
102
RTVSPost2010PropOp47
 70
     1
102
RTVSPost2010Prop48
 90
       50
102
RTVSPost2010PropOp48
 70
     1
102
RTVSPost2010Prop49
280
     0
102
RTVSPost2010PropOp49
 70
     1
102
RTVSPost2010Prop50
 90
       50
102
RTVSPost2010PropOp50
 70
     1
102
RTVSPost2010Prop51ColorIndex
 90
      256
102
RTVSPost2010Prop51ColorRGB
 90
-16777216
102
RTVSPost2010PropOp51
 70
     0
102
RTVSPost2010Prop52
140
1.0
102
RTVSPost2010PropOp52
 70
     0
102
RTVSPost2010Prop53
 90
        2
102
RTVSPost2010PropOp53
 70
     1
102
RTVSPost2010Prop54
  1
strokes_ogs.tif
102
RTVSPost2010PropOp54
 70
     1
102
RTVSPost2010Prop55
280
     0
102
RTVSPost2010PropOp55
 70
     1
102
RTVSPost2010Prop56
140
1.0
102
RTVSPost2010PropOp56
 70
     1
102
RTVSPost2010Prop57
140
1.0
102
RTVSPost2010PropOp57
 70
     1
  0
XRECORD
  5
1424C
102
{ACAD_REACTORS
330
1424B
102
}
330
1424B
100
AcDbXrecord
280
     1
102
RTVSPost2010Prop28
280
     0
102
RTVSPost2010PropOp28
 70
     1
102
RTVSPost2010Prop29
280
     1
102
RTVSPost2010PropOp29
 70
     1
102
RTVSPost2010Prop30
280
     1
102
RTVSPost2010PropOp30
 70
     1
102
RTVSPost2010Prop31
280
     0
102
RTVSPost2010PropOp31
 70
     1
102
RTVSPost2010Prop32
280
     0
102
RTVSPost2010PropOp32
 70
     1
102
RTVSPost2010Prop33
280
     0
102
RTVSPost2010PropOp33
 70
     1
102
RTVSPost2010Prop34
280
     0
102
RTVSPost2010PropOp34
 70
     1
102
RTVSPost2010Prop35
280
     0
102
RTVSPost2010PropOp35
 70
     1
102
RTVSPost2010Prop36
280
     0
102
RTVSPost2010PropOp36
 70
     1
102
RTVSPost2010Prop37
 90
       50
102
RTVSPost2010PropOp37
 70
     1
102
RTVSPost2010Prop38
140
0.0
102
RTVSPost2010PropOp38
 70
     1
102
RTVSPost2010Prop39
140
1.0
102
RTVSPost2010PropOp39
 70
     1
102
RTVSPost2010Prop40
 90
        0
102
RTVSPost2010PropOp40
 70
     1
102
RTVSPost2010Prop41ColorIndex
 90
       18
102
RTVSPost2010Prop41ColorRGB
 90
        0
102
RTVSPost2010PropOp41
 70
     1
102
RTVSPost2010Prop42
 90
       50
102
RTVSPost2010PropOp42
 70
     1
102
RTVSPost2010Prop43
 90
        3
102
RTVSPost2010PropOp43
 70
     1
102
RTVSPost2010Prop44ColorIndex
 90
        5
102
RTVSPost2010Prop44ColorRGB
 90
      255
102
RTVSPost2010PropOp44
 70
     1
102
RTVSPost2010Prop45
280
     0
102
RTVSPost2010PropOp45
 70
     1
102
RTVSPost2010Prop46
 90
       50
102
RTVSPost2010PropOp46
 70
     1
102
RTVSPost2010Prop47
 90
       50
102
RTVSPost2010PropOp47
 70
     1
102
RTVSPost2010Prop48
 90
       50
102
RTVSPost2010PropOp48
 70
     1
102
RTVSPost2010Prop49
280
     0
102
RTVSPost2010PropOp49
 70
     1
102
RTVSPost2010Prop50
 90
       50
102
RTVSPost2010PropOp50
 70
     1
102
RTVSPost2010Prop51ColorIndex
 90
      256
102
RTVSPost2010Prop51ColorRGB
 90
-16777216
102
RTVSPost2010PropOp51
 70
     0
102
RTVSPost2010Prop52
140
1.0
102
RTVSPost2010PropOp52
 70
     0
102
RTVSPost2010Prop53
 90
        2
102
RTVSPost2010PropOp53
 70
     1
102
RTVSPost2010Prop54
  1
strokes_ogs.tif
102
RTVSPost2010PropOp54
 70
     1
102
RTVSPost2010Prop55
280
     0
102
RTVSPost2010PropOp55
 70
     1
102
RTVSPost2010Prop56
140
1.0
102
RTVSPost2010PropOp56
 70
     1
102
RTVSPost2010Prop57
140
1.0
102
RTVSPost2010PropOp57
 70
     1
  0
XRECORD
  5
1425A
102
{ACAD_REACTORS
330
14259
102
}
330
14259
100
AcDbXrecord
280
     1
102
RTVSPost2010Prop28
280
     0
102
RTVSPost2010PropOp28
 70
     1
102
RTVSPost2010Prop29
280
     1
102
RTVSPost2010PropOp29
 70
     1
102
RTVSPost2010Prop30
280
     1
102
RTVSPost2010PropOp30
 70
     1
102
RTVSPost2010Prop31
280
     0
102
RTVSPost2010PropOp31
 70
     1
102
RTVSPost2010Prop32
280
     0
102
RTVSPost2010PropOp32
 70
     1
102
RTVSPost2010Prop33
280
     0
102
RTVSPost2010PropOp33
 70
     1
102
RTVSPost2010Prop34
280
     0
102
RTVSPost2010PropOp34
 70
     1
102
RTVSPost2010Prop35
280
     0
102
RTVSPost2010PropOp35
 70
     1
102
RTVSPost2010Prop36
280
     0
102
RTVSPost2010PropOp36
 70
     1
102
RTVSPost2010Prop37
 90
       50
102
RTVSPost2010PropOp37
 70
     1
102
RTVSPost2010Prop38
140
0.0
102
RTVSPost2010PropOp38
 70
     1
102
RTVSPost2010Prop39
140
1.0
102
RTVSPost2010PropOp39
 70
     1
102
RTVSPost2010Prop40
 90
        0
102
RTVSPost2010PropOp40
 70
     1
102
RTVSPost2010Prop41ColorIndex
 90
       18
102
RTVSPost2010Prop41ColorRGB
 90
        0
102
RTVSPost2010PropOp41
 70
     1
102
RTVSPost2010Prop42
 90
       50
102
RTVSPost2010PropOp42
 70
     1
102
RTVSPost2010Prop43
 90
        3
102
RTVSPost2010PropOp43
 70
     1
102
RTVSPost2010Prop44ColorIndex
 90
        5
102
RTVSPost2010Prop44ColorRGB
 90
      255
102
RTVSPost2010PropOp44
 70
     1
102
RTVSPost2010Prop45
280
     0
102
RTVSPost2010PropOp45
 70
     1
102
RTVSPost2010Prop46
 90
       50
102
RTVSPost2010PropOp46
 70
     1
102
RTVSPost2010Prop47
 90
       50
102
RTVSPost2010PropOp47
 70
     1
102
RTVSPost2010Prop48
 90
       50
102
RTVSPost2010PropOp48
 70
     1
102
RTVSPost2010Prop49
280
     0
102
RTVSPost2010PropOp49
 70
     1
102
RTVSPost2010Prop50
 90
       50
102
RTVSPost2010PropOp50
 70
     1
102
RTVSPost2010Prop51ColorIndex
 90
      256
102
RTVSPost2010Prop51ColorRGB
 90
-16777216
102
RTVSPost2010PropOp51
 70
     0
102
RTVSPost2010Prop52
140
1.0
102
RTVSPost2010PropOp52
 70
     0
102
RTVSPost2010Prop53
 90
        2
102
RTVSPost2010PropOp53
 70
     1
102
RTVSPost2010Prop54
  1
strokes_ogs.tif
102
RTVSPost2010PropOp54
 70
     1
102
RTVSPost2010Prop55
280
     0
102
RTVSPost2010PropOp55
 70
     1
102
RTVSPost2010Prop56
140
1.0
102
RTVSPost2010PropOp56
 70
     1
102
RTVSPost2010Prop57
140
1.0
102
RTVSPost2010PropOp57
 70
     1
  0
XRECORD
  5
14262
102
{ACAD_REACTORS
330
14261
102
}
330
14261
100
AcDbXrecord
280
     1
102
RTVSPost2010Prop28
280
     0
102
RTVSPost2010PropOp28
 70
     1
102
RTVSPost2010Prop29
280
     1
102
RTVSPost2010PropOp29
 70
     1
102
RTVSPost2010Prop30
280
     1
102
RTVSPost2010PropOp30
 70
     1
102
RTVSPost2010Prop31
280
     0
102
RTVSPost2010PropOp31
 70
     1
102
RTVSPost2010Prop32
280
     0
102
RTVSPost2010PropOp32
 70
     1
102
RTVSPost2010Prop33
280
     0
102
RTVSPost2010PropOp33
 70
     1
102
RTVSPost2010Prop34
280
     0
102
RTVSPost2010PropOp34
 70
     1
102
RTVSPost2010Prop35
280
     0
102
RTVSPost2010PropOp35
 70
     1
102
RTVSPost2010Prop36
280
     0
102
RTVSPost2010PropOp36
 70
     1
102
RTVSPost2010Prop37
 90
       50
102
RTVSPost2010PropOp37
 70
     1
102
RTVSPost2010Prop38
140
0.0
102
RTVSPost2010PropOp38
 70
     1
102
RTVSPost2010Prop39
140
1.0
102
RTVSPost2010PropOp39
 70
     1
102
RTVSPost2010Prop40
 90
        0
102
RTVSPost2010PropOp40
 70
     1
102
RTVSPost2010Prop41ColorIndex
 90
       18
102
RTVSPost2010Prop41ColorRGB
 90
        0
102
RTVSPost2010PropOp41
 70
     1
102
RTVSPost2010Prop42
 90
       50
102
RTVSPost2010PropOp42
 70
     1
102
RTVSPost2010Prop43
 90
        3
102
RTVSPost2010PropOp43
 70
     1
102
RTVSPost2010Prop44ColorIndex
 90
        5
102
RTVSPost2010Prop44ColorRGB
 90
      255
102
RTVSPost2010PropOp44
 70
     1
102
RTVSPost2010Prop45
280
     0
102
RTVSPost2010PropOp45
 70
     1
102
RTVSPost2010Prop46
 90
       50
102
RTVSPost2010PropOp46
 70
     1
102
RTVSPost2010Prop47
 90
       50
102
RTVSPost2010PropOp47
 70
     1
102
RTVSPost2010Prop48
 90
       50
102
RTVSPost2010PropOp48
 70
     1
102
RTVSPost2010Prop49
280
     0
102
RTVSPost2010PropOp49
 70
     1
102
RTVSPost2010Prop50
 90
       50
102
RTVSPost2010PropOp50
 70
     1
102
RTVSPost2010Prop51ColorIndex
 90
      256
102
RTVSPost2010Prop51ColorRGB
 90
-16777216
102
RTVSPost2010PropOp51
 70
     0
102
RTVSPost2010Prop52
140
1.0
102
RTVSPost2010PropOp52
 70
     0
102
RTVSPost2010Prop53
 90
        2
102
RTVSPost2010PropOp53
 70
     1
102
RTVSPost2010Prop54
  1
strokes_ogs.tif
102
RTVSPost2010PropOp54
 70
     1
102
RTVSPost2010Prop55
280
     0
102
RTVSPost2010PropOp55
 70
     1
102
RTVSPost2010Prop56
140
1.0
102
RTVSPost2010PropOp56
 70
     1
102
RTVSPost2010Prop57
140
1.0
102
RTVSPost2010PropOp57
 70
     1
  0
XRECORD
  5
14254
102
{ACAD_REACTORS
330
14253
102
}
330
14253
100
AcDbXrecord
280
     1
102
RTVSPost2010Prop28
280
     0
102
RTVSPost2010PropOp28
 70
     1
102
RTVSPost2010Prop29
280
     1
102
RTVSPost2010PropOp29
 70
     1
102
RTVSPost2010Prop30
280
     1
102
RTVSPost2010PropOp30
 70
     1
102
RTVSPost2010Prop31
280
     0
102
RTVSPost2010PropOp31
 70
     1
102
RTVSPost2010Prop32
280
     0
102
RTVSPost2010PropOp32
 70
     1
102
RTVSPost2010Prop33
280
     0
102
RTVSPost2010PropOp33
 70
     1
102
RTVSPost2010Prop34
280
     0
102
RTVSPost2010PropOp34
 70
     1
102
RTVSPost2010Prop35
280
     0
102
RTVSPost2010PropOp35
 70
     1
102
RTVSPost2010Prop36
280
     0
102
RTVSPost2010PropOp36
 70
     1
102
RTVSPost2010Prop37
 90
       50
102
RTVSPost2010PropOp37
 70
     1
102
RTVSPost2010Prop38
140
0.0
102
RTVSPost2010PropOp38
 70
     1
102
RTVSPost2010Prop39
140
1.0
102
RTVSPost2010PropOp39
 70
     1
102
RTVSPost2010Prop40
 90
        0
102
RTVSPost2010PropOp40
 70
     1
102
RTVSPost2010Prop41ColorIndex
 90
       18
102
RTVSPost2010Prop41ColorRGB
 90
        0
102
RTVSPost2010PropOp41
 70
     1
102
RTVSPost2010Prop42
 90
       50
102
RTVSPost2010PropOp42
 70
     1
102
RTVSPost2010Prop43
 90
        3
102
RTVSPost2010PropOp43
 70
     1
102
RTVSPost2010Prop44ColorIndex
 90
        5
102
RTVSPost2010Prop44ColorRGB
 90
      255
102
RTVSPost2010PropOp44
 70
     1
102
RTVSPost2010Prop45
280
     0
102
RTVSPost2010PropOp45
 70
     1
102
RTVSPost2010Prop46
 90
       50
102
RTVSPost2010PropOp46
 70
     1
102
RTVSPost2010Prop47
 90
       50
102
RTVSPost2010PropOp47
 70
     1
102
RTVSPost2010Prop48
 90
       50
102
RTVSPost2010PropOp48
 70
     1
102
RTVSPost2010Prop49
280
     0
102
RTVSPost2010PropOp49
 70
     1
102
RTVSPost2010Prop50
 90
       50
102
RTVSPost2010PropOp50
 70
     1
102
RTVSPost2010Prop51ColorIndex
 90
      256
102
RTVSPost2010Prop51ColorRGB
 90
-16777216
102
RTVSPost2010PropOp51
 70
     0
102
RTVSPost2010Prop52
140
1.0
102
RTVSPost2010PropOp52
 70
     0
102
RTVSPost2010Prop53
 90
        2
102
RTVSPost2010PropOp53
 70
     1
102
RTVSPost2010Prop54
  1
strokes_ogs.tif
102
RTVSPost2010PropOp54
 70
     1
102
RTVSPost2010Prop55
280
     0
102
RTVSPost2010PropOp55
 70
     1
102
RTVSPost2010Prop56
140
1.0
102
RTVSPost2010PropOp56
 70
     1
102
RTVSPost2010Prop57
140
1.0
102
RTVSPost2010PropOp57
 70
     1
  0
XRECORD
  5
14258
102
{ACAD_REACTORS
330
14257
102
}
330
14257
100
AcDbXrecord
280
     1
102
RTVSPost2010Prop28
280
     0
102
RTVSPost2010PropOp28
 70
     1
102
RTVSPost2010Prop29
280
     1
102
RTVSPost2010PropOp29
 70
     1
102
RTVSPost2010Prop30
280
     1
102
RTVSPost2010PropOp30
 70
     1
102
RTVSPost2010Prop31
280
     0
102
RTVSPost2010PropOp31
 70
     1
102
RTVSPost2010Prop32
280
     0
102
RTVSPost2010PropOp32
 70
     1
102
RTVSPost2010Prop33
280
     0
102
RTVSPost2010PropOp33
 70
     1
102
RTVSPost2010Prop34
280
     0
102
RTVSPost2010PropOp34
 70
     1
102
RTVSPost2010Prop35
280
     0
102
RTVSPost2010PropOp35
 70
     1
102
RTVSPost2010Prop36
280
     0
102
RTVSPost2010PropOp36
 70
     1
102
RTVSPost2010Prop37
 90
       50
102
RTVSPost2010PropOp37
 70
     1
102
RTVSPost2010Prop38
140
0.0
102
RTVSPost2010PropOp38
 70
     1
102
RTVSPost2010Prop39
140
1.0
102
RTVSPost2010PropOp39
 70
     1
102
RTVSPost2010Prop40
 90
        0
102
RTVSPost2010PropOp40
 70
     1
102
RTVSPost2010Prop41ColorIndex
 90
       18
102
RTVSPost2010Prop41ColorRGB
 90
        0
102
RTVSPost2010PropOp41
 70
     1
102
RTVSPost2010Prop42
 90
       50
102
RTVSPost2010PropOp42
 70
     1
102
RTVSPost2010Prop43
 90
        3
102
RTVSPost2010PropOp43
 70
     1
102
RTVSPost2010Prop44ColorIndex
 90
        5
102
RTVSPost2010Prop44ColorRGB
 90
      255
102
RTVSPost2010PropOp44
 70
     1
102
RTVSPost2010Prop45
280
     0
102
RTVSPost2010PropOp45
 70
     1
102
RTVSPost2010Prop46
 90
       50
102
RTVSPost2010PropOp46
 70
     1
102
RTVSPost2010Prop47
 90
       50
102
RTVSPost2010PropOp47
 70
     1
102
RTVSPost2010Prop48
 90
       50
102
RTVSPost2010PropOp48
 70
     1
102
RTVSPost2010Prop49
280
     0
102
RTVSPost2010PropOp49
 70
     1
102
RTVSPost2010Prop50
 90
       50
102
RTVSPost2010PropOp50
 70
     1
102
RTVSPost2010Prop51ColorIndex
 90
      256
102
RTVSPost2010Prop51ColorRGB
 90
-16777216
102
RTVSPost2010PropOp51
 70
     0
102
RTVSPost2010Prop52
140
1.0
102
RTVSPost2010PropOp52
 70
     0
102
RTVSPost2010Prop53
 90
        2
102
RTVSPost2010PropOp53
 70
     1
102
RTVSPost2010Prop54
  1
strokes_ogs.tif
102
RTVSPost2010PropOp54
 70
     1
102
RTVSPost2010Prop55
280
     0
102
RTVSPost2010PropOp55
 70
     1
102
RTVSPost2010Prop56
140
1.0
102
RTVSPost2010PropOp56
 70
     1
102
RTVSPost2010Prop57
140
1.0
102
RTVSPost2010PropOp57
 70
     1
  0
XRECORD
  5
14272
102
{ACAD_REACTORS
330
14271
102
}
330
14271
100
AcDbXrecord
280
     1
102
RTVSPost2010Prop28
280
     0
102
RTVSPost2010PropOp28
 70
     0
102
RTVSPost2010Prop29
280
     1
102
RTVSPost2010PropOp29
 70
     0
102
RTVSPost2010Prop30
280
     1
102
RTVSPost2010PropOp30
 70
     0
102
RTVSPost2010Prop31
280
     0
102
RTVSPost2010PropOp31
 70
     0
102
RTVSPost2010Prop32
280
     0
102
RTVSPost2010PropOp32
 70
     0
102
RTVSPost2010Prop33
280
     0
102
RTVSPost2010PropOp33
 70
     0
102
RTVSPost2010Prop34
280
     0
102
RTVSPost2010PropOp34
 70
     0
102
RTVSPost2010Prop35
280
     0
102
RTVSPost2010PropOp35
 70
     0
102
RTVSPost2010Prop36
280
     0
102
RTVSPost2010PropOp36
 70
     0
102
RTVSPost2010Prop37
 90
       50
102
RTVSPost2010PropOp37
 70
     0
102
RTVSPost2010Prop38
140
0.0
102
RTVSPost2010PropOp38
 70
     0
102
RTVSPost2010Prop39
140
1.0
102
RTVSPost2010PropOp39
 70
     0
102
RTVSPost2010Prop40
 90
        0
102
RTVSPost2010PropOp40
 70
     0
102
RTVSPost2010Prop41ColorIndex
 90
       18
102
RTVSPost2010Prop41ColorRGB
 90
        0
102
RTVSPost2010PropOp41
 70
     0
102
RTVSPost2010Prop42
 90
       50
102
RTVSPost2010PropOp42
 70
     0
102
RTVSPost2010Prop43
 90
        3
102
RTVSPost2010PropOp43
 70
     0
102
RTVSPost2010Prop44ColorIndex
 90
        5
102
RTVSPost2010Prop44ColorRGB
 90
      255
102
RTVSPost2010PropOp44
 70
     0
102
RTVSPost2010Prop45
280
     0
102
RTVSPost2010PropOp45
 70
     0
102
RTVSPost2010Prop46
 90
       50
102
RTVSPost2010PropOp46
 70
     0
102
RTVSPost2010Prop47
 90
       50
102
RTVSPost2010PropOp47
 70
     0
102
RTVSPost2010Prop48
 90
       50
102
RTVSPost2010PropOp48
 70
     0
102
RTVSPost2010Prop49
280
     0
102
RTVSPost2010PropOp49
 70
     0
102
RTVSPost2010Prop50
 90
       50
102
RTVSPost2010PropOp50
 70
     0
102
RTVSPost2010Prop51ColorIndex
 90
      256
102
RTVSPost2010Prop51ColorRGB
 90
-16777216
102
RTVSPost2010PropOp51
 70
     0
102
RTVSPost2010Prop52
140
1.0
102
RTVSPost2010PropOp52
 70
     0
102
RTVSPost2010Prop53
 90
        2
102
RTVSPost2010PropOp53
 70
     0
102
RTVSPost2010Prop54
  1
strokes_ogs.tif
102
RTVSPost2010PropOp54
 70
     0
102
RTVSPost2010Prop55
280
     0
102
RTVSPost2010PropOp55
 70
     0
102
RTVSPost2010Prop56
140
1.0
102
RTVSPost2010PropOp56
 70
     0
102
RTVSPost2010Prop57
140
1.0
102
RTVSPost2010PropOp57
 70
     0
  0
XRECORD
  5
14260
102
{ACAD_REACTORS
330
1425F
102
}
330
1425F
100
AcDbXrecord
280
     1
102
RTVSPost2010Prop28
280
     0
102
RTVSPost2010PropOp28
 70
     1
102
RTVSPost2010Prop29
280
     1
102
RTVSPost2010PropOp29
 70
     1
102
RTVSPost2010Prop30
280
     1
102
RTVSPost2010PropOp30
 70
     1
102
RTVSPost2010Prop31
280
     0
102
RTVSPost2010PropOp31
 70
     1
102
RTVSPost2010Prop32
280
     0
102
RTVSPost2010PropOp32
 70
     1
102
RTVSPost2010Prop33
280
     0
102
RTVSPost2010PropOp33
 70
     1
102
RTVSPost2010Prop34
280
     0
102
RTVSPost2010PropOp34
 70
     1
102
RTVSPost2010Prop35
280
     0
102
RTVSPost2010PropOp35
 70
     1
102
RTVSPost2010Prop36
280
     0
102
RTVSPost2010PropOp36
 70
     1
102
RTVSPost2010Prop37
 90
       50
102
RTVSPost2010PropOp37
 70
     1
102
RTVSPost2010Prop38
140
0.0
102
RTVSPost2010PropOp38
 70
     1
102
RTVSPost2010Prop39
140
1.0
102
RTVSPost2010PropOp39
 70
     1
102
RTVSPost2010Prop40
 90
        0
102
RTVSPost2010PropOp40
 70
     1
102
RTVSPost2010Prop41ColorIndex
 90
       18
102
RTVSPost2010Prop41ColorRGB
 90
        0
102
RTVSPost2010PropOp41
 70
     1
102
RTVSPost2010Prop42
 90
       50
102
RTVSPost2010PropOp42
 70
     1
102
RTVSPost2010Prop43
 90
        3
102
RTVSPost2010PropOp43
 70
     1
102
RTVSPost2010Prop44ColorIndex
 90
        5
102
RTVSPost2010Prop44ColorRGB
 90
      255
102
RTVSPost2010PropOp44
 70
     1
102
RTVSPost2010Prop45
280
     0
102
RTVSPost2010PropOp45
 70
     1
102
RTVSPost2010Prop46
 90
       50
102
RTVSPost2010PropOp46
 70
     1
102
RTVSPost2010Prop47
 90
       50
102
RTVSPost2010PropOp47
 70
     1
102
RTVSPost2010Prop48
 90
       50
102
RTVSPost2010PropOp48
 70
     1
102
RTVSPost2010Prop49
280
     0
102
RTVSPost2010PropOp49
 70
     1
102
RTVSPost2010Prop50
 90
       50
102
RTVSPost2010PropOp50
 70
     1
102
RTVSPost2010Prop51ColorIndex
 90
      256
102
RTVSPost2010Prop51ColorRGB
 90
-16777216
102
RTVSPost2010PropOp51
 70
     0
102
RTVSPost2010Prop52
140
1.0
102
RTVSPost2010PropOp52
 70
     0
102
RTVSPost2010Prop53
 90
        2
102
RTVSPost2010PropOp53
 70
     1
102
RTVSPost2010Prop54
  1
strokes_ogs.tif
102
RTVSPost2010PropOp54
 70
     1
102
RTVSPost2010Prop55
280
     0
102
RTVSPost2010PropOp55
 70
     1
102
RTVSPost2010Prop56
140
1.0
102
RTVSPost2010PropOp56
 70
     1
102
RTVSPost2010Prop57
140
1.0
102
RTVSPost2010PropOp57
 70
     1
  0
XRECORD
  5
14244
102
{ACAD_REACTORS
330
14243
102
}
330
14243
100
AcDbXrecord
280
     1
102
RTVSPost2010Prop28
280
     0
102
RTVSPost2010PropOp28
 70
     1
102
RTVSPost2010Prop29
280
     1
102
RTVSPost2010PropOp29
 70
     1
102
RTVSPost2010Prop30
280
     1
102
RTVSPost2010PropOp30
 70
     1
102
RTVSPost2010Prop31
280
     0
102
RTVSPost2010PropOp31
 70
     1
102
RTVSPost2010Prop32
280
     0
102
RTVSPost2010PropOp32
 70
     1
102
RTVSPost2010Prop33
280
     0
102
RTVSPost2010PropOp33
 70
     1
102
RTVSPost2010Prop34
280
     0
102
RTVSPost2010PropOp34
 70
     1
102
RTVSPost2010Prop35
280
     0
102
RTVSPost2010PropOp35
 70
     1
102
RTVSPost2010Prop36
280
     0
102
RTVSPost2010PropOp36
 70
     1
102
RTVSPost2010Prop37
 90
       50
102
RTVSPost2010PropOp37
 70
     1
102
RTVSPost2010Prop38
140
0.0
102
RTVSPost2010PropOp38
 70
     1
102
RTVSPost2010Prop39
140
1.0
102
RTVSPost2010PropOp39
 70
     1
102
RTVSPost2010Prop40
 90
        0
102
RTVSPost2010PropOp40
 70
     1
102
RTVSPost2010Prop41ColorIndex
 90
       18
102
RTVSPost2010Prop41ColorRGB
 90
        0
102
RTVSPost2010PropOp41
 70
     1
102
RTVSPost2010Prop42
 90
       50
102
RTVSPost2010PropOp42
 70
     1
102
RTVSPost2010Prop43
 90
        3
102
RTVSPost2010PropOp43
 70
     1
102
RTVSPost2010Prop44ColorIndex
 90
        5
102
RTVSPost2010Prop44ColorRGB
 90
      255
102
RTVSPost2010PropOp44
 70
     1
102
RTVSPost2010Prop45
280
     0
102
RTVSPost2010PropOp45
 70
     1
102
RTVSPost2010Prop46
 90
       50
102
RTVSPost2010PropOp46
 70
     1
102
RTVSPost2010Prop47
 90
       50
102
RTVSPost2010PropOp47
 70
     1
102
RTVSPost2010Prop48
 90
       50
102
RTVSPost2010PropOp48
 70
     1
102
RTVSPost2010Prop49
280
     0
102
RTVSPost2010PropOp49
 70
     1
102
RTVSPost2010Prop50
 90
       50
102
RTVSPost2010PropOp50
 70
     1
102
RTVSPost2010Prop51ColorIndex
 90
      256
102
RTVSPost2010Prop51ColorRGB
 90
-16777216
102
RTVSPost2010PropOp51
 70
     0
102
RTVSPost2010Prop52
140
1.0
102
RTVSPost2010PropOp52
 70
     0
102
RTVSPost2010Prop53
 90
        2
102
RTVSPost2010PropOp53
 70
     1
102
RTVSPost2010Prop54
  1
strokes_ogs.tif
102
RTVSPost2010PropOp54
 70
     1
102
RTVSPost2010Prop55
280
     0
102
RTVSPost2010PropOp55
 70
     1
102
RTVSPost2010Prop56
140
1.0
102
RTVSPost2010PropOp56
 70
     1
102
RTVSPost2010Prop57
140
1.0
102
RTVSPost2010PropOp57
 70
     1
  0
XRECORD
  5
14246
102
{ACAD_REACTORS
330
14245
102
}
330
14245
100
AcDbXrecord
280
     1
102
RTVSPost2010Prop28
280
     0
102
RTVSPost2010PropOp28
 70
     1
102
RTVSPost2010Prop29
280
     1
102
RTVSPost2010PropOp29
 70
     1
102
RTVSPost2010Prop30
280
     1
102
RTVSPost2010PropOp30
 70
     1
102
RTVSPost2010Prop31
280
     0
102
RTVSPost2010PropOp31
 70
     1
102
RTVSPost2010Prop32
280
     0
102
RTVSPost2010PropOp32
 70
     1
102
RTVSPost2010Prop33
280
     0
102
RTVSPost2010PropOp33
 70
     1
102
RTVSPost2010Prop34
280
     0
102
RTVSPost2010PropOp34
 70
     1
102
RTVSPost2010Prop35
280
     0
102
RTVSPost2010PropOp35
 70
     1
102
RTVSPost2010Prop36
280
     0
102
RTVSPost2010PropOp36
 70
     1
102
RTVSPost2010Prop37
 90
       50
102
RTVSPost2010PropOp37
 70
     1
102
RTVSPost2010Prop38
140
0.0
102
RTVSPost2010PropOp38
 70
     1
102
RTVSPost2010Prop39
140
1.0
102
RTVSPost2010PropOp39
 70
     1
102
RTVSPost2010Prop40
 90
        0
102
RTVSPost2010PropOp40
 70
     1
102
RTVSPost2010Prop41ColorIndex
 90
       18
102
RTVSPost2010Prop41ColorRGB
 90
        0
102
RTVSPost2010PropOp41
 70
     1
102
RTVSPost2010Prop42
 90
       50
102
RTVSPost2010PropOp42
 70
     1
102
RTVSPost2010Prop43
 90
        3
102
RTVSPost2010PropOp43
 70
     1
102
RTVSPost2010Prop44ColorIndex
 90
        5
102
RTVSPost2010Prop44ColorRGB
 90
      255
102
RTVSPost2010PropOp44
 70
     1
102
RTVSPost2010Prop45
280
     0
102
RTVSPost2010PropOp45
 70
     1
102
RTVSPost2010Prop46
 90
       50
102
RTVSPost2010PropOp46
 70
     1
102
RTVSPost2010Prop47
 90
       50
102
RTVSPost2010PropOp47
 70
     1
102
RTVSPost2010Prop48
 90
       50
102
RTVSPost2010PropOp48
 70
     1
102
RTVSPost2010Prop49
280
     0
102
RTVSPost2010PropOp49
 70
     1
102
RTVSPost2010Prop50
 90
       50
102
RTVSPost2010PropOp50
 70
     1
102
RTVSPost2010Prop51ColorIndex
 90
      256
102
RTVSPost2010Prop51ColorRGB
 90
-16777216
102
RTVSPost2010PropOp51
 70
     0
102
RTVSPost2010Prop52
140
1.0
102
RTVSPost2010PropOp52
 70
     0
102
RTVSPost2010Prop53
 90
        2
102
RTVSPost2010PropOp53
 70
     1
102
RTVSPost2010Prop54
  1
strokes_ogs.tif
102
RTVSPost2010PropOp54
 70
     1
102
RTVSPost2010Prop55
280
     0
102
RTVSPost2010PropOp55
 70
     1
102
RTVSPost2010Prop56
140
1.0
102
RTVSPost2010PropOp56
 70
     1
102
RTVSPost2010Prop57
140
1.0
102
RTVSPost2010PropOp57
 70
     1
  0
XRECORD
  5
14248
102
{ACAD_REACTORS
330
14247
102
}
330
14247
100
AcDbXrecord
280
     1
102
RTVSPost2010Prop28
280
     0
102
RTVSPost2010PropOp28
 70
     1
102
RTVSPost2010Prop29
280
     1
102
RTVSPost2010PropOp29
 70
     1
102
RTVSPost2010Prop30
280
     1
102
RTVSPost2010PropOp30
 70
     1
102
RTVSPost2010Prop31
280
     0
102
RTVSPost2010PropOp31
 70
     1
102
RTVSPost2010Prop32
280
     0
102
RTVSPost2010PropOp32
 70
     1
102
RTVSPost2010Prop33
280
     0
102
RTVSPost2010PropOp33
 70
     1
102
RTVSPost2010Prop34
280
     0
102
RTVSPost2010PropOp34
 70
     1
102
RTVSPost2010Prop35
280
     0
102
RTVSPost2010PropOp35
 70
     1
102
RTVSPost2010Prop36
280
     0
102
RTVSPost2010PropOp36
 70
     1
102
RTVSPost2010Prop37
 90
       50
102
RTVSPost2010PropOp37
 70
     1
102
RTVSPost2010Prop38
140
0.0
102
RTVSPost2010PropOp38
 70
     1
102
RTVSPost2010Prop39
140
1.0
102
RTVSPost2010PropOp39
 70
     1
102
RTVSPost2010Prop40
 90
        0
102
RTVSPost2010PropOp40
 70
     1
102
RTVSPost2010Prop41ColorIndex
 90
       18
102
RTVSPost2010Prop41ColorRGB
 90
        0
102
RTVSPost2010PropOp41
 70
     1
102
RTVSPost2010Prop42
 90
       50
102
RTVSPost2010PropOp42
 70
     1
102
RTVSPost2010Prop43
 90
        3
102
RTVSPost2010PropOp43
 70
     1
102
RTVSPost2010Prop44ColorIndex
 90
        5
102
RTVSPost2010Prop44ColorRGB
 90
      255
102
RTVSPost2010PropOp44
 70
     1
102
RTVSPost2010Prop45
280
     0
102
RTVSPost2010PropOp45
 70
     1
102
RTVSPost2010Prop46
 90
       50
102
RTVSPost2010PropOp46
 70
     1
102
RTVSPost2010Prop47
 90
       50
102
RTVSPost2010PropOp47
 70
     1
102
RTVSPost2010Prop48
 90
       50
102
RTVSPost2010PropOp48
 70
     1
102
RTVSPost2010Prop49
280
     0
102
RTVSPost2010PropOp49
 70
     1
102
RTVSPost2010Prop50
 90
       50
102
RTVSPost2010PropOp50
 70
     1
102
RTVSPost2010Prop51ColorIndex
 90
      256
102
RTVSPost2010Prop51ColorRGB
 90
-16777216
102
RTVSPost2010PropOp51
 70
     0
102
RTVSPost2010Prop52
140
1.0
102
RTVSPost2010PropOp52
 70
     0
102
RTVSPost2010Prop53
 90
        2
102
RTVSPost2010PropOp53
 70
     1
102
RTVSPost2010Prop54
  1
strokes_ogs.tif
102
RTVSPost2010PropOp54
 70
     1
102
RTVSPost2010Prop55
280
     0
102
RTVSPost2010PropOp55
 70
     1
102
RTVSPost2010Prop56
140
1.0
102
RTVSPost2010PropOp56
 70
     1
102
RTVSPost2010Prop57
140
1.0
102
RTVSPost2010PropOp57
 70
     1
  0
XRECORD
  5
1424A
102
{ACAD_REACTORS
330
14249
102
}
330
14249
100
AcDbXrecord
280
     1
102
RTVSPost2010Prop28
280
     0
102
RTVSPost2010PropOp28
 70
     1
102
RTVSPost2010Prop29
280
     1
102
RTVSPost2010PropOp29
 70
     1
102
RTVSPost2010Prop30
280
     1
102
RTVSPost2010PropOp30
 70
     1
102
RTVSPost2010Prop31
280
     0
102
RTVSPost2010PropOp31
 70
     1
102
RTVSPost2010Prop32
280
     0
102
RTVSPost2010PropOp32
 70
     1
102
RTVSPost2010Prop33
280
     0
102
RTVSPost2010PropOp33
 70
     1
102
RTVSPost2010Prop34
280
     0
102
RTVSPost2010PropOp34
 70
     1
102
RTVSPost2010Prop35
280
     0
102
RTVSPost2010PropOp35
 70
     1
102
RTVSPost2010Prop36
280
     0
102
RTVSPost2010PropOp36
 70
     1
102
RTVSPost2010Prop37
 90
       50
102
RTVSPost2010PropOp37
 70
     1
102
RTVSPost2010Prop38
140
0.0
102
RTVSPost2010PropOp38
 70
     1
102
RTVSPost2010Prop39
140
1.0
102
RTVSPost2010PropOp39
 70
     1
102
RTVSPost2010Prop40
 90
        0
102
RTVSPost2010PropOp40
 70
     1
102
RTVSPost2010Prop41ColorIndex
 90
       18
102
RTVSPost2010Prop41ColorRGB
 90
        0
102
RTVSPost2010PropOp41
 70
     1
102
RTVSPost2010Prop42
 90
       50
102
RTVSPost2010PropOp42
 70
     1
102
RTVSPost2010Prop43
 90
        3
102
RTVSPost2010PropOp43
 70
     1
102
RTVSPost2010Prop44ColorIndex
 90
        5
102
RTVSPost2010Prop44ColorRGB
 90
      255
102
RTVSPost2010PropOp44
 70
     1
102
RTVSPost2010Prop45
280
     0
102
RTVSPost2010PropOp45
 70
     1
102
RTVSPost2010Prop46
 90
       50
102
RTVSPost2010PropOp46
 70
     1
102
RTVSPost2010Prop47
 90
       50
102
RTVSPost2010PropOp47
 70
     1
102
RTVSPost2010Prop48
 90
       50
102
RTVSPost2010PropOp48
 70
     1
102
RTVSPost2010Prop49
280
     0
102
RTVSPost2010PropOp49
 70
     1
102
RTVSPost2010Prop50
 90
       50
102
RTVSPost2010PropOp50
 70
     1
102
RTVSPost2010Prop51ColorIndex
 90
      256
102
RTVSPost2010Prop51ColorRGB
 90
-16777216
102
RTVSPost2010PropOp51
 70
     0
102
RTVSPost2010Prop52
140
1.0
102
RTVSPost2010PropOp52
 70
     0
102
RTVSPost2010Prop53
 90
        2
102
RTVSPost2010PropOp53
 70
     1
102
RTVSPost2010Prop54
  1
strokes_ogs.tif
102
RTVSPost2010PropOp54
 70
     1
102
RTVSPost2010Prop55
280
     0
102
RTVSPost2010PropOp55
 70
     1
102
RTVSPost2010Prop56
140
1.0
102
RTVSPost2010PropOp56
 70
     1
102
RTVSPost2010Prop57
140
1.0
102
RTVSPost2010PropOp57
 70
     1
  0
XRECORD
  5
14252
102
{ACAD_REACTORS
330
14251
102
}
330
14251
100
AcDbXrecord
280
     1
102
RTVSPost2010Prop28
280
     0
102
RTVSPost2010PropOp28
 70
     1
102
RTVSPost2010Prop29
280
     1
102
RTVSPost2010PropOp29
 70
     1
102
RTVSPost2010Prop30
280
     1
102
RTVSPost2010PropOp30
 70
     1
102
RTVSPost2010Prop31
280
     0
102
RTVSPost2010PropOp31
 70
     1
102
RTVSPost2010Prop32
280
     0
102
RTVSPost2010PropOp32
 70
     1
102
RTVSPost2010Prop33
280
     0
102
RTVSPost2010PropOp33
 70
     1
102
RTVSPost2010Prop34
280
     0
102
RTVSPost2010PropOp34
 70
     1
102
RTVSPost2010Prop35
280
     0
102
RTVSPost2010PropOp35
 70
     1
102
RTVSPost2010Prop36
280
     0
102
RTVSPost2010PropOp36
 70
     1
102
RTVSPost2010Prop37
 90
       50
102
RTVSPost2010PropOp37
 70
     1
102
RTVSPost2010Prop38
140
0.0
102
RTVSPost2010PropOp38
 70
     1
102
RTVSPost2010Prop39
140
1.0
102
RTVSPost2010PropOp39
 70
     1
102
RTVSPost2010Prop40
 90
        0
102
RTVSPost2010PropOp40
 70
     1
102
RTVSPost2010Prop41ColorIndex
 90
       18
102
RTVSPost2010Prop41ColorRGB
 90
        0
102
RTVSPost2010PropOp41
 70
     1
102
RTVSPost2010Prop42
 90
       50
102
RTVSPost2010PropOp42
 70
     1
102
RTVSPost2010Prop43
 90
        3
102
RTVSPost2010PropOp43
 70
     1
102
RTVSPost2010Prop44ColorIndex
 90
        5
102
RTVSPost2010Prop44ColorRGB
 90
      255
102
RTVSPost2010PropOp44
 70
     1
102
RTVSPost2010Prop45
280
     0
102
RTVSPost2010PropOp45
 70
     1
102
RTVSPost2010Prop46
 90
       50
102
RTVSPost2010PropOp46
 70
     1
102
RTVSPost2010Prop47
 90
       50
102
RTVSPost2010PropOp47
 70
     1
102
RTVSPost2010Prop48
 90
       50
102
RTVSPost2010PropOp48
 70
     1
102
RTVSPost2010Prop49
280
     0
102
RTVSPost2010PropOp49
 70
     1
102
RTVSPost2010Prop50
 90
       50
102
RTVSPost2010PropOp50
 70
     1
102
RTVSPost2010Prop51ColorIndex
 90
      256
102
RTVSPost2010Prop51ColorRGB
 90
-16777216
102
RTVSPost2010PropOp51
 70
     0
102
RTVSPost2010Prop52
140
1.0
102
RTVSPost2010PropOp52
 70
     0
102
RTVSPost2010Prop53
 90
        2
102
RTVSPost2010PropOp53
 70
     1
102
RTVSPost2010Prop54
  1
strokes_ogs.tif
102
RTVSPost2010PropOp54
 70
     1
102
RTVSPost2010Prop55
280
     0
102
RTVSPost2010PropOp55
 70
     1
102
RTVSPost2010Prop56
140
1.0
102
RTVSPost2010PropOp56
 70
     1
102
RTVSPost2010Prop57
140
1.0
102
RTVSPost2010PropOp57
 70
     1
  0
XRECORD
  5
1426E
102
{ACAD_REACTORS
330
1426D
102
}
330
1426D
100
AcDbXrecord
280
     1
102
RTVSPost2010Prop28
280
     0
102
RTVSPost2010PropOp28
 70
     0
102
RTVSPost2010Prop29
280
     1
102
RTVSPost2010PropOp29
 70
     0
102
RTVSPost2010Prop30
280
     1
102
RTVSPost2010PropOp30
 70
     0
102
RTVSPost2010Prop31
280
     0
102
RTVSPost2010PropOp31
 70
     0
102
RTVSPost2010Prop32
280
     0
102
RTVSPost2010PropOp32
 70
     0
102
RTVSPost2010Prop33
280
     0
102
RTVSPost2010PropOp33
 70
     0
102
RTVSPost2010Prop34
280
     0
102
RTVSPost2010PropOp34
 70
     0
102
RTVSPost2010Prop35
280
     0
102
RTVSPost2010PropOp35
 70
     0
102
RTVSPost2010Prop36
280
     0
102
RTVSPost2010PropOp36
 70
     0
102
RTVSPost2010Prop37
 90
       50
102
RTVSPost2010PropOp37
 70
     0
102
RTVSPost2010Prop38
140
0.0
102
RTVSPost2010PropOp38
 70
     0
102
RTVSPost2010Prop39
140
1.0
102
RTVSPost2010PropOp39
 70
     0
102
RTVSPost2010Prop40
 90
        0
102
RTVSPost2010PropOp40
 70
     0
102
RTVSPost2010Prop41ColorIndex
 90
       18
102
RTVSPost2010Prop41ColorRGB
 90
        0
102
RTVSPost2010PropOp41
 70
     0
102
RTVSPost2010Prop42
 90
       50
102
RTVSPost2010PropOp42
 70
     0
102
RTVSPost2010Prop43
 90
        3
102
RTVSPost2010PropOp43
 70
     0
102
RTVSPost2010Prop44ColorIndex
 90
        5
102
RTVSPost2010Prop44ColorRGB
 90
      255
102
RTVSPost2010PropOp44
 70
     0
102
RTVSPost2010Prop45
280
     0
102
RTVSPost2010PropOp45
 70
     0
102
RTVSPost2010Prop46
 90
       50
102
RTVSPost2010PropOp46
 70
     0
102
RTVSPost2010Prop47
 90
       50
102
RTVSPost2010PropOp47
 70
     0
102
RTVSPost2010Prop48
 90
       50
102
RTVSPost2010PropOp48
 70
     0
102
RTVSPost2010Prop49
280
     0
102
RTVSPost2010PropOp49
 70
     0
102
RTVSPost2010Prop50
 90
       50
102
RTVSPost2010PropOp50
 70
     0
102
RTVSPost2010Prop51ColorIndex
 90
      256
102
RTVSPost2010Prop51ColorRGB
 90
-16777216
102
RTVSPost2010PropOp51
 70
     0
102
RTVSPost2010Prop52
140
1.0
102
RTVSPost2010PropOp52
 70
     0
102
RTVSPost2010Prop53
 90
        2
102
RTVSPost2010PropOp53
 70
     0
102
RTVSPost2010Prop54
  1
strokes_ogs.tif
102
RTVSPost2010PropOp54
 70
     0
102
RTVSPost2010Prop55
280
     0
102
RTVSPost2010PropOp55
 70
     0
102
RTVSPost2010Prop56
140
1.0
102
RTVSPost2010PropOp56
 70
     0
102
RTVSPost2010Prop57
140
1.0
102
RTVSPost2010PropOp57
 70
     0
  0
XRECORD
  5
1425E
102
{ACAD_REACTORS
330
1425D
102
}
330
1425D
100
AcDbXrecord
280
     1
102
RTVSPost2010Prop28
280
     0
102
RTVSPost2010PropOp28
 70
     1
102
RTVSPost2010Prop29
280
     1
102
RTVSPost2010PropOp29
 70
     1
102
RTVSPost2010Prop30
280
     1
102
RTVSPost2010PropOp30
 70
     1
102
RTVSPost2010Prop31
280
     0
102
RTVSPost2010PropOp31
 70
     1
102
RTVSPost2010Prop32
280
     0
102
RTVSPost2010PropOp32
 70
     1
102
RTVSPost2010Prop33
280
     0
102
RTVSPost2010PropOp33
 70
     1
102
RTVSPost2010Prop34
280
     0
102
RTVSPost2010PropOp34
 70
     1
102
RTVSPost2010Prop35
280
     0
102
RTVSPost2010PropOp35
 70
     1
102
RTVSPost2010Prop36
280
     0
102
RTVSPost2010PropOp36
 70
     1
102
RTVSPost2010Prop37
 90
       50
102
RTVSPost2010PropOp37
 70
     1
102
RTVSPost2010Prop38
140
0.0
102
RTVSPost2010PropOp38
 70
     1
102
RTVSPost2010Prop39
140
1.0
102
RTVSPost2010PropOp39
 70
     1
102
RTVSPost2010Prop40
 90
        0
102
RTVSPost2010PropOp40
 70
     1
102
RTVSPost2010Prop41ColorIndex
 90
       18
102
RTVSPost2010Prop41ColorRGB
 90
        0
102
RTVSPost2010PropOp41
 70
     1
102
RTVSPost2010Prop42
 90
       50
102
RTVSPost2010PropOp42
 70
     1
102
RTVSPost2010Prop43
 90
        3
102
RTVSPost2010PropOp43
 70
     1
102
RTVSPost2010Prop44ColorIndex
 90
        5
102
RTVSPost2010Prop44ColorRGB
 90
      255
102
RTVSPost2010PropOp44
 70
     1
102
RTVSPost2010Prop45
280
     0
102
RTVSPost2010PropOp45
 70
     1
102
RTVSPost2010Prop46
 90
       50
102
RTVSPost2010PropOp46
 70
     1
102
RTVSPost2010Prop47
 90
       50
102
RTVSPost2010PropOp47
 70
     1
102
RTVSPost2010Prop48
 90
       50
102
RTVSPost2010PropOp48
 70
     1
102
RTVSPost2010Prop49
280
     0
102
RTVSPost2010PropOp49
 70
     1
102
RTVSPost2010Prop50
 90
       50
102
RTVSPost2010PropOp50
 70
     1
102
RTVSPost2010Prop51ColorIndex
 90
      256
102
RTVSPost2010Prop51ColorRGB
 90
-16777216
102
RTVSPost2010PropOp51
 70
     0
102
RTVSPost2010Prop52
140
1.0
102
RTVSPost2010PropOp52
 70
     0
102
RTVSPost2010Prop53
 90
        2
102
RTVSPost2010PropOp53
 70
     1
102
RTVSPost2010Prop54
  1
strokes_ogs.tif
102
RTVSPost2010PropOp54
 70
     1
102
RTVSPost2010Prop55
280
     0
102
RTVSPost2010PropOp55
 70
     1
102
RTVSPost2010Prop56
140
1.0
102
RTVSPost2010PropOp56
 70
     1
102
RTVSPost2010Prop57
140
1.0
102
RTVSPost2010PropOp57
 70
     1
  0
XRECORD
  5
14270
102
{ACAD_REACTORS
330
1426F
102
}
330
1426F
100
AcDbXrecord
280
     1
102
RTVSPost2010Prop28
280
     0
102
RTVSPost2010PropOp28
 70
     0
102
RTVSPost2010Prop29
280
     1
102
RTVSPost2010PropOp29
 70
     0
102
RTVSPost2010Prop30
280
     1
102
RTVSPost2010PropOp30
 70
     0
102
RTVSPost2010Prop31
280
     0
102
RTVSPost2010PropOp31
 70
     0
102
RTVSPost2010Prop32
280
     0
102
RTVSPost2010PropOp32
 70
     0
102
RTVSPost2010Prop33
280
     0
102
RTVSPost2010PropOp33
 70
     0
102
RTVSPost2010Prop34
280
     0
102
RTVSPost2010PropOp34
 70
     0
102
RTVSPost2010Prop35
280
     0
102
RTVSPost2010PropOp35
 70
     0
102
RTVSPost2010Prop36
280
     0
102
RTVSPost2010PropOp36
 70
     0
102
RTVSPost2010Prop37
 90
       50
102
RTVSPost2010PropOp37
 70
     0
102
RTVSPost2010Prop38
140
0.0
102
RTVSPost2010PropOp38
 70
     0
102
RTVSPost2010Prop39
140
1.0
102
RTVSPost2010PropOp39
 70
     0
102
RTVSPost2010Prop40
 90
        0
102
RTVSPost2010PropOp40
 70
     0
102
RTVSPost2010Prop41ColorIndex
 90
       18
102
RTVSPost2010Prop41ColorRGB
 90
        0
102
RTVSPost2010PropOp41
 70
     0
102
RTVSPost2010Prop42
 90
       50
102
RTVSPost2010PropOp42
 70
     0
102
RTVSPost2010Prop43
 90
        3
102
RTVSPost2010PropOp43
 70
     0
102
RTVSPost2010Prop44ColorIndex
 90
        5
102
RTVSPost2010Prop44ColorRGB
 90
      255
102
RTVSPost2010PropOp44
 70
     0
102
RTVSPost2010Prop45
280
     0
102
RTVSPost2010PropOp45
 70
     0
102
RTVSPost2010Prop46
 90
       50
102
RTVSPost2010PropOp46
 70
     0
102
RTVSPost2010Prop47
 90
       50
102
RTVSPost2010PropOp47
 70
     0
102
RTVSPost2010Prop48
 90
       50
102
RTVSPost2010PropOp48
 70
     0
102
RTVSPost2010Prop49
280
     0
102
RTVSPost2010PropOp49
 70
     0
102
RTVSPost2010Prop50
 90
       50
102
RTVSPost2010PropOp50
 70
     0
102
RTVSPost2010Prop51ColorIndex
 90
      256
102
RTVSPost2010Prop51ColorRGB
 90
-16777216
102
RTVSPost2010PropOp51
 70
     0
102
RTVSPost2010Prop52
140
1.0
102
RTVSPost2010PropOp52
 70
     0
102
RTVSPost2010Prop53
 90
        2
102
RTVSPost2010PropOp53
 70
     0
102
RTVSPost2010Prop54
  1
strokes_ogs.tif
102
RTVSPost2010PropOp54
 70
     0
102
RTVSPost2010Prop55
280
     0
102
RTVSPost2010PropOp55
 70
     0
102
RTVSPost2010Prop56
140
1.0
102
RTVSPost2010PropOp56
 70
     0
102
RTVSPost2010Prop57
140
1.0
102
RTVSPost2010PropOp57
 70
     0
  0
XRECORD
  5
14256
102
{ACAD_REACTORS
330
14255
102
}
330
14255
100
AcDbXrecord
280
     1
102
RTVSPost2010Prop28
280
     0
102
RTVSPost2010PropOp28
 70
     1
102
RTVSPost2010Prop29
280
     1
102
RTVSPost2010PropOp29
 70
     1
102
RTVSPost2010Prop30
280
     1
102
RTVSPost2010PropOp30
 70
     1
102
RTVSPost2010Prop31
280
     0
102
RTVSPost2010PropOp31
 70
     1
102
RTVSPost2010Prop32
280
     0
102
RTVSPost2010PropOp32
 70
     1
102
RTVSPost2010Prop33
280
     0
102
RTVSPost2010PropOp33
 70
     1
102
RTVSPost2010Prop34
280
     0
102
RTVSPost2010PropOp34
 70
     1
102
RTVSPost2010Prop35
280
     0
102
RTVSPost2010PropOp35
 70
     1
102
RTVSPost2010Prop36
280
     0
102
RTVSPost2010PropOp36
 70
     1
102
RTVSPost2010Prop37
 90
       50
102
RTVSPost2010PropOp37
 70
     1
102
RTVSPost2010Prop38
140
0.0
102
RTVSPost2010PropOp38
 70
     1
102
RTVSPost2010Prop39
140
1.0
102
RTVSPost2010PropOp39
 70
     1
102
RTVSPost2010Prop40
 90
        0
102
RTVSPost2010PropOp40
 70
     1
102
RTVSPost2010Prop41ColorIndex
 90
       18
102
RTVSPost2010Prop41ColorRGB
 90
        0
102
RTVSPost2010PropOp41
 70
     1
102
RTVSPost2010Prop42
 90
       50
102
RTVSPost2010PropOp42
 70
     1
102
RTVSPost2010Prop43
 90
        3
102
RTVSPost2010PropOp43
 70
     1
102
RTVSPost2010Prop44ColorIndex
 90
        5
102
RTVSPost2010Prop44ColorRGB
 90
      255
102
RTVSPost2010PropOp44
 70
     1
102
RTVSPost2010Prop45
280
     0
102
RTVSPost2010PropOp45
 70
     1
102
RTVSPost2010Prop46
 90
       50
102
RTVSPost2010PropOp46
 70
     1
102
RTVSPost2010Prop47
 90
       50
102
RTVSPost2010PropOp47
 70
     1
102
RTVSPost2010Prop48
 90
       50
102
RTVSPost2010PropOp48
 70
     1
102
RTVSPost2010Prop49
280
     0
102
RTVSPost2010PropOp49
 70
     1
102
RTVSPost2010Prop50
 90
       50
102
RTVSPost2010PropOp50
 70
     1
102
RTVSPost2010Prop51ColorIndex
 90
      256
102
RTVSPost2010Prop51ColorRGB
 90
-16777216
102
RTVSPost2010PropOp51
 70
     0
102
RTVSPost2010Prop52
140
1.0
102
RTVSPost2010PropOp52
 70
     0
102
RTVSPost2010Prop53
 90
        2
102
RTVSPost2010PropOp53
 70
     1
102
RTVSPost2010Prop54
  1
strokes_ogs.tif
102
RTVSPost2010PropOp54
 70
     1
102
RTVSPost2010Prop55
280
     0
102
RTVSPost2010PropOp55
 70
     1
102
RTVSPost2010Prop56
140
1.0
102
RTVSPost2010PropOp56
 70
     1
102
RTVSPost2010Prop57
140
1.0
102
RTVSPost2010PropOp57
 70
     1
  0
XRECORD
  5
1426C
102
{ACAD_REACTORS
330
1426B
102
}
330
1426B
100
AcDbXrecord
280
     1
102
RTVSPost2010Prop28
280
     0
102
RTVSPost2010PropOp28
 70
     1
102
RTVSPost2010Prop29
280
     1
102
RTVSPost2010PropOp29
 70
     1
102
RTVSPost2010Prop30
280
     1
102
RTVSPost2010PropOp30
 70
     1
102
RTVSPost2010Prop31
280
     0
102
RTVSPost2010PropOp31
 70
     1
102
RTVSPost2010Prop32
280
     0
102
RTVSPost2010PropOp32
 70
     1
102
RTVSPost2010Prop33
280
     0
102
RTVSPost2010PropOp33
 70
     1
102
RTVSPost2010Prop34
280
     0
102
RTVSPost2010PropOp34
 70
     1
102
RTVSPost2010Prop35
280
     0
102
RTVSPost2010PropOp35
 70
     1
102
RTVSPost2010Prop36
280
     0
102
RTVSPost2010PropOp36
 70
     1
102
RTVSPost2010Prop37
 90
       50
102
RTVSPost2010PropOp37
 70
     1
102
RTVSPost2010Prop38
140
0.0
102
RTVSPost2010PropOp38
 70
     1
102
RTVSPost2010Prop39
140
1.0
102
RTVSPost2010PropOp39
 70
     1
102
RTVSPost2010Prop40
 90
        0
102
RTVSPost2010PropOp40
 70
     1
102
RTVSPost2010Prop41ColorIndex
 90
       18
102
RTVSPost2010Prop41ColorRGB
 90
        0
102
RTVSPost2010PropOp41
 70
     1
102
RTVSPost2010Prop42
 90
       50
102
RTVSPost2010PropOp42
 70
     1
102
RTVSPost2010Prop43
 90
        3
102
RTVSPost2010PropOp43
 70
     1
102
RTVSPost2010Prop44ColorIndex
 90
        5
102
RTVSPost2010Prop44ColorRGB
 90
      255
102
RTVSPost2010PropOp44
 70
     1
102
RTVSPost2010Prop45
280
     0
102
RTVSPost2010PropOp45
 70
     1
102
RTVSPost2010Prop46
 90
       50
102
RTVSPost2010PropOp46
 70
     1
102
RTVSPost2010Prop47
 90
       50
102
RTVSPost2010PropOp47
 70
     1
102
RTVSPost2010Prop48
 90
       50
102
RTVSPost2010PropOp48
 70
     1
102
RTVSPost2010Prop49
280
     0
102
RTVSPost2010PropOp49
 70
     1
102
RTVSPost2010Prop50
 90
       50
102
RTVSPost2010PropOp50
 70
     1
102
RTVSPost2010Prop51ColorIndex
 90
      256
102
RTVSPost2010Prop51ColorRGB
 90
-16777216
102
RTVSPost2010PropOp51
 70
     0
102
RTVSPost2010Prop52
140
1.0
102
RTVSPost2010PropOp52
 70
     0
102
RTVSPost2010Prop53
 90
        2
102
RTVSPost2010PropOp53
 70
     1
102
RTVSPost2010Prop54
  1
strokes_ogs.tif
102
RTVSPost2010PropOp54
 70
     1
102
RTVSPost2010Prop55
280
     0
102
RTVSPost2010PropOp55
 70
     1
102
RTVSPost2010Prop56
140
1.0
102
RTVSPost2010PropOp56
 70
     1
102
RTVSPost2010Prop57
140
1.0
102
RTVSPost2010PropOp57
 70
     1
  0
XRECORD
  5
1426A
102
{ACAD_REACTORS
330
14269
102
}
330
14269
100
AcDbXrecord
280
     1
102
RTVSPost2010Prop28
280
     0
102
RTVSPost2010PropOp28
 70
     1
102
RTVSPost2010Prop29
280
     1
102
RTVSPost2010PropOp29
 70
     1
102
RTVSPost2010Prop30
280
     1
102
RTVSPost2010PropOp30
 70
     1
102
RTVSPost2010Prop31
280
     0
102
RTVSPost2010PropOp31
 70
     1
102
RTVSPost2010Prop32
280
     0
102
RTVSPost2010PropOp32
 70
     1
102
RTVSPost2010Prop33
280
     0
102
RTVSPost2010PropOp33
 70
     1
102
RTVSPost2010Prop34
280
     0
102
RTVSPost2010PropOp34
 70
     1
102
RTVSPost2010Prop35
280
     0
102
RTVSPost2010PropOp35
 70
     1
102
RTVSPost2010Prop36
280
     0
102
RTVSPost2010PropOp36
 70
     1
102
RTVSPost2010Prop37
 90
       50
102
RTVSPost2010PropOp37
 70
     1
102
RTVSPost2010Prop38
140
0.0
102
RTVSPost2010PropOp38
 70
     1
102
RTVSPost2010Prop39
140
1.0
102
RTVSPost2010PropOp39
 70
     1
102
RTVSPost2010Prop40
 90
        0
102
RTVSPost2010PropOp40
 70
     1
102
RTVSPost2010Prop41ColorIndex
 90
       18
102
RTVSPost2010Prop41ColorRGB
 90
        0
102
RTVSPost2010PropOp41
 70
     1
102
RTVSPost2010Prop42
 90
       50
102
RTVSPost2010PropOp42
 70
     1
102
RTVSPost2010Prop43
 90
        3
102
RTVSPost2010PropOp43
 70
     1
102
RTVSPost2010Prop44ColorIndex
 90
        5
102
RTVSPost2010Prop44ColorRGB
 90
      255
102
RTVSPost2010PropOp44
 70
     1
102
RTVSPost2010Prop45
280
     0
102
RTVSPost2010PropOp45
 70
     1
102
RTVSPost2010Prop46
 90
       50
102
RTVSPost2010PropOp46
 70
     1
102
RTVSPost2010Prop47
 90
       50
102
RTVSPost2010PropOp47
 70
     1
102
RTVSPost2010Prop48
 90
       50
102
RTVSPost2010PropOp48
 70
     1
102
RTVSPost2010Prop49
280
     0
102
RTVSPost2010PropOp49
 70
     1
102
RTVSPost2010Prop50
 90
       50
102
RTVSPost2010PropOp50
 70
     1
102
RTVSPost2010Prop51ColorIndex
 90
      256
102
RTVSPost2010Prop51ColorRGB
 90
-16777216
102
RTVSPost2010PropOp51
 70
     0
102
RTVSPost2010Prop52
140
1.0
102
RTVSPost2010PropOp52
 70
     0
102
RTVSPost2010Prop53
 90
        2
102
RTVSPost2010PropOp53
 70
     1
102
RTVSPost2010Prop54
  1
strokes_ogs.tif
102
RTVSPost2010PropOp54
 70
     1
102
RTVSPost2010Prop55
280
     0
102
RTVSPost2010PropOp55
 70
     1
102
RTVSPost2010Prop56
140
1.0
102
RTVSPost2010PropOp56
 70
     1
102
RTVSPost2010Prop57
140
1.0
102
RTVSPost2010PropOp57
 70
     1
  0
XRECORD
  5
14264
102
{ACAD_REACTORS
330
14263
102
}
330
14263
100
AcDbXrecord
280
     1
102
RTVSPost2010Prop28
280
     0
102
RTVSPost2010PropOp28
 70
     1
102
RTVSPost2010Prop29
280
     1
102
RTVSPost2010PropOp29
 70
     1
102
RTVSPost2010Prop30
280
     1
102
RTVSPost2010PropOp30
 70
     1
102
RTVSPost2010Prop31
280
     0
102
RTVSPost2010PropOp31
 70
     1
102
RTVSPost2010Prop32
280
     0
102
RTVSPost2010PropOp32
 70
     1
102
RTVSPost2010Prop33
280
     0
102
RTVSPost2010PropOp33
 70
     1
102
RTVSPost2010Prop34
280
     0
102
RTVSPost2010PropOp34
 70
     1
102
RTVSPost2010Prop35
280
     0
102
RTVSPost2010PropOp35
 70
     1
102
RTVSPost2010Prop36
280
     0
102
RTVSPost2010PropOp36
 70
     1
102
RTVSPost2010Prop37
 90
       50
102
RTVSPost2010PropOp37
 70
     1
102
RTVSPost2010Prop38
140
0.0
102
RTVSPost2010PropOp38
 70
     1
102
RTVSPost2010Prop39
140
1.0
102
RTVSPost2010PropOp39
 70
     1
102
RTVSPost2010Prop40
 90
        0
102
RTVSPost2010PropOp40
 70
     1
102
RTVSPost2010Prop41ColorIndex
 90
       18
102
RTVSPost2010Prop41ColorRGB
 90
        0
102
RTVSPost2010PropOp41
 70
     1
102
RTVSPost2010Prop42
 90
       50
102
RTVSPost2010PropOp42
 70
     1
102
RTVSPost2010Prop43
 90
        3
102
RTVSPost2010PropOp43
 70
     1
102
RTVSPost2010Prop44ColorIndex
 90
        5
102
RTVSPost2010Prop44ColorRGB
 90
      255
102
RTVSPost2010PropOp44
 70
     1
102
RTVSPost2010Prop45
280
     0
102
RTVSPost2010PropOp45
 70
     1
102
RTVSPost2010Prop46
 90
       50
102
RTVSPost2010PropOp46
 70
     1
102
RTVSPost2010Prop47
 90
       50
102
RTVSPost2010PropOp47
 70
     1
102
RTVSPost2010Prop48
 90
       50
102
RTVSPost2010PropOp48
 70
     1
102
RTVSPost2010Prop49
280
     0
102
RTVSPost2010PropOp49
 70
     1
102
RTVSPost2010Prop50
 90
       50
102
RTVSPost2010PropOp50
 70
     1
102
RTVSPost2010Prop51ColorIndex
 90
      256
102
RTVSPost2010Prop51ColorRGB
 90
-16777216
102
RTVSPost2010PropOp51
 70
     0
102
RTVSPost2010Prop52
140
1.0
102
RTVSPost2010PropOp52
 70
     0
102
RTVSPost2010Prop53
 90
        2
102
RTVSPost2010PropOp53
 70
     1
102
RTVSPost2010Prop54
  1
strokes_ogs.tif
102
RTVSPost2010PropOp54
 70
     1
102
RTVSPost2010Prop55
280
     0
102
RTVSPost2010PropOp55
 70
     1
102
RTVSPost2010Prop56
140
1.0
102
RTVSPost2010PropOp56
 70
     1
102
RTVSPost2010Prop57
140
1.0
102
RTVSPost2010PropOp57
 70
     1
  0
XRECORD
  5
14266
102
{ACAD_REACTORS
330
14265
102
}
330
14265
100
AcDbXrecord
280
     1
102
RTVSPost2010Prop28
280
     0
102
RTVSPost2010PropOp28
 70
     1
102
RTVSPost2010Prop29
280
     1
102
RTVSPost2010PropOp29
 70
     1
102
RTVSPost2010Prop30
280
     1
102
RTVSPost2010PropOp30
 70
     1
102
RTVSPost2010Prop31
280
     0
102
RTVSPost2010PropOp31
 70
     1
102
RTVSPost2010Prop32
280
     0
102
RTVSPost2010PropOp32
 70
     1
102
RTVSPost2010Prop33
280
     0
102
RTVSPost2010PropOp33
 70
     1
102
RTVSPost2010Prop34
280
     0
102
RTVSPost2010PropOp34
 70
     1
102
RTVSPost2010Prop35
280
     0
102
RTVSPost2010PropOp35
 70
     1
102
RTVSPost2010Prop36
280
     0
102
RTVSPost2010PropOp36
 70
     1
102
RTVSPost2010Prop37
 90
       50
102
RTVSPost2010PropOp37
 70
     1
102
RTVSPost2010Prop38
140
0.0
102
RTVSPost2010PropOp38
 70
     1
102
RTVSPost2010Prop39
140
1.0
102
RTVSPost2010PropOp39
 70
     1
102
RTVSPost2010Prop40
 90
        0
102
RTVSPost2010PropOp40
 70
     1
102
RTVSPost2010Prop41ColorIndex
 90
       18
102
RTVSPost2010Prop41ColorRGB
 90
        0
102
RTVSPost2010PropOp41
 70
     1
102
RTVSPost2010Prop42
 90
       50
102
RTVSPost2010PropOp42
 70
     1
102
RTVSPost2010Prop43
 90
        3
102
RTVSPost2010PropOp43
 70
     1
102
RTVSPost2010Prop44ColorIndex
 90
        5
102
RTVSPost2010Prop44ColorRGB
 90
      255
102
RTVSPost2010PropOp44
 70
     1
102
RTVSPost2010Prop45
280
     0
102
RTVSPost2010PropOp45
 70
     1
102
RTVSPost2010Prop46
 90
       50
102
RTVSPost2010PropOp46
 70
     1
102
RTVSPost2010Prop47
 90
       50
102
RTVSPost2010PropOp47
 70
     1
102
RTVSPost2010Prop48
 90
       50
102
RTVSPost2010PropOp48
 70
     1
102
RTVSPost2010Prop49
280
     0
102
RTVSPost2010PropOp49
 70
     1
102
RTVSPost2010Prop50
 90
       50
102
RTVSPost2010PropOp50
 70
     1
102
RTVSPost2010Prop51ColorIndex
 90
      256
102
RTVSPost2010Prop51ColorRGB
 90
-16777216
102
RTVSPost2010PropOp51
 70
     0
102
RTVSPost2010Prop52
140
1.0
102
RTVSPost2010PropOp52
 70
     0
102
RTVSPost2010Prop53
 90
        2
102
RTVSPost2010PropOp53
 70
     1
102
RTVSPost2010Prop54
  1
strokes_ogs.tif
102
RTVSPost2010PropOp54
 70
     1
102
RTVSPost2010Prop55
280
     0
102
RTVSPost2010PropOp55
 70
     1
102
RTVSPost2010Prop56
140
1.0
102
RTVSPost2010PropOp56
 70
     1
102
RTVSPost2010Prop57
140
1.0
102
RTVSPost2010PropOp57
 70
     1
  0
XRECORD
  5
1425C
102
{ACAD_REACTORS
330
1425B
102
}
330
1425B
100
AcDbXrecord
280
     1
102
RTVSPost2010Prop28
280
     0
102
RTVSPost2010PropOp28
 70
     1
102
RTVSPost2010Prop29
280
     1
102
RTVSPost2010PropOp29
 70
     1
102
RTVSPost2010Prop30
280
     1
102
RTVSPost2010PropOp30
 70
     1
102
RTVSPost2010Prop31
280
     0
102
RTVSPost2010PropOp31
 70
     1
102
RTVSPost2010Prop32
280
     0
102
RTVSPost2010PropOp32
 70
     1
102
RTVSPost2010Prop33
280
     0
102
RTVSPost2010PropOp33
 70
     1
102
RTVSPost2010Prop34
280
     0
102
RTVSPost2010PropOp34
 70
     1
102
RTVSPost2010Prop35
280
     0
102
RTVSPost2010PropOp35
 70
     1
102
RTVSPost2010Prop36
280
     0
102
RTVSPost2010PropOp36
 70
     1
102
RTVSPost2010Prop37
 90
       50
102
RTVSPost2010PropOp37
 70
     1
102
RTVSPost2010Prop38
140
0.0
102
RTVSPost2010PropOp38
 70
     1
102
RTVSPost2010Prop39
140
1.0
102
RTVSPost2010PropOp39
 70
     1
102
RTVSPost2010Prop40
 90
        0
102
RTVSPost2010PropOp40
 70
     1
102
RTVSPost2010Prop41ColorIndex
 90
       18
102
RTVSPost2010Prop41ColorRGB
 90
        0
102
RTVSPost2010PropOp41
 70
     1
102
RTVSPost2010Prop42
 90
       50
102
RTVSPost2010PropOp42
 70
     1
102
RTVSPost2010Prop43
 90
        3
102
RTVSPost2010PropOp43
 70
     1
102
RTVSPost2010Prop44ColorIndex
 90
        5
102
RTVSPost2010Prop44ColorRGB
 90
      255
102
RTVSPost2010PropOp44
 70
     1
102
RTVSPost2010Prop45
280
     0
102
RTVSPost2010PropOp45
 70
     1
102
RTVSPost2010Prop46
 90
       50
102
RTVSPost2010PropOp46
 70
     1
102
RTVSPost2010Prop47
 90
       50
102
RTVSPost2010PropOp47
 70
     1
102
RTVSPost2010Prop48
 90
       50
102
RTVSPost2010PropOp48
 70
     1
102
RTVSPost2010Prop49
280
     0
102
RTVSPost2010PropOp49
 70
     1
102
RTVSPost2010Prop50
 90
       50
102
RTVSPost2010PropOp50
 70
     1
102
RTVSPost2010Prop51ColorIndex
 90
      256
102
RTVSPost2010Prop51ColorRGB
 90
-16777216
102
RTVSPost2010PropOp51
 70
     0
102
RTVSPost2010Prop52
140
1.0
102
RTVSPost2010PropOp52
 70
     0
102
RTVSPost2010Prop53
 90
        2
102
RTVSPost2010PropOp53
 70
     1
102
RTVSPost2010Prop54
  1
strokes_ogs.tif
102
RTVSPost2010PropOp54
 70
     1
102
RTVSPost2010Prop55
280
     0
102
RTVSPost2010PropOp55
 70
     1
102
RTVSPost2010Prop56
140
1.0
102
RTVSPost2010PropOp56
 70
     1
102
RTVSPost2010Prop57
140
1.0
102
RTVSPost2010PropOp57
 70
     1
  0
XRECORD
  5
14250
102
{ACAD_REACTORS
330
1424F
102
}
330
1424F
100
AcDbXrecord
280
     1
102
RTVSPost2010Prop28
280
     0
102
RTVSPost2010PropOp28
 70
     1
102
RTVSPost2010Prop29
280
     1
102
RTVSPost2010PropOp29
 70
     1
102
RTVSPost2010Prop30
280
     1
102
RTVSPost2010PropOp30
 70
     1
102
RTVSPost2010Prop31
280
     0
102
RTVSPost2010PropOp31
 70
     1
102
RTVSPost2010Prop32
280
     0
102
RTVSPost2010PropOp32
 70
     1
102
RTVSPost2010Prop33
280
     0
102
RTVSPost2010PropOp33
 70
     1
102
RTVSPost2010Prop34
280
     0
102
RTVSPost2010PropOp34
 70
     1
102
RTVSPost2010Prop35
280
     0
102
RTVSPost2010PropOp35
 70
     1
102
RTVSPost2010Prop36
280
     0
102
RTVSPost2010PropOp36
 70
     1
102
RTVSPost2010Prop37
 90
       50
102
RTVSPost2010PropOp37
 70
     1
102
RTVSPost2010Prop38
140
0.0
102
RTVSPost2010PropOp38
 70
     1
102
RTVSPost2010Prop39
140
1.0
102
RTVSPost2010PropOp39
 70
     1
102
RTVSPost2010Prop40
 90
        0
102
RTVSPost2010PropOp40
 70
     1
102
RTVSPost2010Prop41ColorIndex
 90
       18
102
RTVSPost2010Prop41ColorRGB
 90
        0
102
RTVSPost2010PropOp41
 70
     1
102
RTVSPost2010Prop42
 90
       50
102
RTVSPost2010PropOp42
 70
     1
102
RTVSPost2010Prop43
 90
        3
102
RTVSPost2010PropOp43
 70
     1
102
RTVSPost2010Prop44ColorIndex
 90
        5
102
RTVSPost2010Prop44ColorRGB
 90
      255
102
RTVSPost2010PropOp44
 70
     1
102
RTVSPost2010Prop45
280
     0
102
RTVSPost2010PropOp45
 70
     1
102
RTVSPost2010Prop46
 90
       50
102
RTVSPost2010PropOp46
 70
     1
102
RTVSPost2010Prop47
 90
       50
102
RTVSPost2010PropOp47
 70
     1
102
RTVSPost2010Prop48
 90
       50
102
RTVSPost2010PropOp48
 70
     1
102
RTVSPost2010Prop49
280
     0
102
RTVSPost2010PropOp49
 70
     1
102
RTVSPost2010Prop50
 90
       50
102
RTVSPost2010PropOp50
 70
     1
102
RTVSPost2010Prop51ColorIndex
 90
      256
102
RTVSPost2010Prop51ColorRGB
 90
-16777216
102
RTVSPost2010PropOp51
 70
     0
102
RTVSPost2010Prop52
140
1.0
102
RTVSPost2010PropOp52
 70
     0
102
RTVSPost2010Prop53
 90
        2
102
RTVSPost2010PropOp53
 70
     1
102
RTVSPost2010Prop54
  1
strokes_ogs.tif
102
RTVSPost2010PropOp54
 70
     1
102
RTVSPost2010Prop55
280
     0
102
RTVSPost2010PropOp55
 70
     1
102
RTVSPost2010Prop56
140
1.0
102
RTVSPost2010PropOp56
 70
     1
102
RTVSPost2010Prop57
140
1.0
102
RTVSPost2010PropOp57
 70
     1
  0
XRECORD
  5
14268
102
{ACAD_REACTORS
330
14267
102
}
330
14267
100
AcDbXrecord
280
     1
102
RTVSPost2010Prop28
280
     0
102
RTVSPost2010PropOp28
 70
     1
102
RTVSPost2010Prop29
280
     1
102
RTVSPost2010PropOp29
 70
     1
102
RTVSPost2010Prop30
280
     1
102
RTVSPost2010PropOp30
 70
     1
102
RTVSPost2010Prop31
280
     0
102
RTVSPost2010PropOp31
 70
     1
102
RTVSPost2010Prop32
280
     0
102
RTVSPost2010PropOp32
 70
     1
102
RTVSPost2010Prop33
280
     0
102
RTVSPost2010PropOp33
 70
     1
102
RTVSPost2010Prop34
280
     0
102
RTVSPost2010PropOp34
 70
     1
102
RTVSPost2010Prop35
280
     0
102
RTVSPost2010PropOp35
 70
     1
102
RTVSPost2010Prop36
280
     0
102
RTVSPost2010PropOp36
 70
     1
102
RTVSPost2010Prop37
 90
       50
102
RTVSPost2010PropOp37
 70
     1
102
RTVSPost2010Prop38
140
0.0
102
RTVSPost2010PropOp38
 70
     1
102
RTVSPost2010Prop39
140
1.0
102
RTVSPost2010PropOp39
 70
     1
102
RTVSPost2010Prop40
 90
        0
102
RTVSPost2010PropOp40
 70
     1
102
RTVSPost2010Prop41ColorIndex
 90
       18
102
RTVSPost2010Prop41ColorRGB
 90
        0
102
RTVSPost2010PropOp41
 70
     1
102
RTVSPost2010Prop42
 90
       50
102
RTVSPost2010PropOp42
 70
     1
102
RTVSPost2010Prop43
 90
        3
102
RTVSPost2010PropOp43
 70
     1
102
RTVSPost2010Prop44ColorIndex
 90
        5
102
RTVSPost2010Prop44ColorRGB
 90
      255
102
RTVSPost2010PropOp44
 70
     1
102
RTVSPost2010Prop45
280
     0
102
RTVSPost2010PropOp45
 70
     1
102
RTVSPost2010Prop46
 90
       50
102
RTVSPost2010PropOp46
 70
     1
102
RTVSPost2010Prop47
 90
       50
102
RTVSPost2010PropOp47
 70
     1
102
RTVSPost2010Prop48
 90
       50
102
RTVSPost2010PropOp48
 70
     1
102
RTVSPost2010Prop49
280
     0
102
RTVSPost2010PropOp49
 70
     1
102
RTVSPost2010Prop50
 90
       50
102
RTVSPost2010PropOp50
 70
     1
102
RTVSPost2010Prop51ColorIndex
 90
      256
102
RTVSPost2010Prop51ColorRGB
 90
-16777216
102
RTVSPost2010PropOp51
 70
     0
102
RTVSPost2010Prop52
140
1.0
102
RTVSPost2010PropOp52
 70
     0
102
RTVSPost2010Prop53
 90
        2
102
RTVSPost2010PropOp53
 70
     1
102
RTVSPost2010Prop54
  1
strokes_ogs.tif
102
RTVSPost2010PropOp54
 70
     1
102
RTVSPost2010Prop55
280
     0
102
RTVSPost2010PropOp55
 70
     1
102
RTVSPost2010Prop56
140
1.0
102
RTVSPost2010PropOp56
 70
     1
102
RTVSPost2010Prop57
140
1.0
102
RTVSPost2010PropOp57
 70
     1
  0
ENDSEC
  0
EOF
