  0
SECTION
  2
HEADER
  9
$ACADVER
  1
AC1024
  9
$ACADMAINTVER
 70
   119
  9
$DWGCODEPAGE
  3
ANSI_1252
  9
$LASTSAVEDBY
  1
mlk
  9
$INSBASE
 10
0.0
 20
0.0
 30
0.0
  9
$EXTMIN
 10
171.4595408686782
 20
113.6758473540293
 30
-0.0000000000000853
  9
$EXTMAX
 10
256.9061469976646
 20
177.1342702644229
 30
0.000000000000052
  9
$LIMMIN
 10
0.0
 20
0.0
  9
$LIMMAX
 10
12.0
 20
9.0
  9
$ORTHOMODE
 70
     1
  9
$REGENMODE
 70
     1
  9
$FILLMODE
 70
     1
  9
$QTEXTMODE
 70
     0
  9
$MIRRTEXT
 70
     0
  9
$LTSCALE
 40
1.0
  9
$ATTMODE
 70
     1
  9
$TEXTSIZE
 40
0.8
  9
$TRACEWID
 40
0.05
  9
$TEXTSTYLE
  7
CKSTANDARD
  9
$CLAYER
  8
0
  9
$CELTYPE
  6
BYLAYER
  9
$CECOLOR
 62
   256
  9
$CELTSCALE
 40
1.0
  9
$DISPSILH
 70
     0
  9
$DIMSCALE
 40
6.0
  9
$DIMASZ
 40
0.18
  9
$DIMEXO
 40
0.0625
  9
$DIMDLI
 40
0.38
  9
$DIMRND
 40
0.0
  9
$DIMDLE
 40
0.0
  9
$DIMEXE
 40
0.0625
  9
$DIMTP
 40
0.0
  9
$DIMTM
 40
0.0
  9
$DIMTXT
 40
0.18
  9
$DIMCEN
 40
0.09
  9
$DIMTSZ
 40
0.0
  9
$DIMTOL
 70
     0
  9
$DIMLIM
 70
     0
  9
$DIMTIH
 70
     1
  9
$DIMTOH
 70
     1
  9
$DIMSE1
 70
     0
  9
$DIMSE2
 70
     0
  9
$DIMTAD
 70
     0
  9
$DIMZIN
 70
     0
  9
$DIMBLK
  1

  9
$DIMASO
 70
     1
  9
$DIMSHO
 70
     1
  9
$DIMPOST
  1
"
  9
$DIMAPOST
  1

  9
$DIMALT
 70
     0
  9
$DIMALTD
 70
     2
  9
$DIMALTF
 40
25.4
  9
$DIMLFAC
 40
1.0
  9
$DIMTOFL
 70
     0
  9
$DIMTVP
 40
0.0
  9
$DIMTIX
 70
     0
  9
$DIMSOXD
 70
     0
  9
$DIMSAH
 70
     0
  9
$DIMBLK1
  1

  9
$DIMBLK2
  1

  9
$DIMSTYLE
  2
GEO
  9
$DIMCLRD
 70
     0
  9
$DIMCLRE
 70
     0
  9
$DIMCLRT
 70
     0
  9
$DIMTFAC
 40
1.0
  9
$DIMGAP
 40
0.09
  9
$DIMJUST
 70
     0
  9
$DIMSD1
 70
     0
  9
$DIMSD2
 70
     0
  9
$DIMTOLJ
 70
     1
  9
$DIMTZIN
 70
     0
  9
$DIMALTZ
 70
     0
  9
$DIMALTTZ
 70
     0
  9
$DIMUPT
 70
     0
  9
$DIMDEC
 70
     4
  9
$DIMTDEC
 70
     4
  9
$DIMALTU
 70
     2
  9
$DIMALTTD
 70
     2
  9
$DIMTXSTY
  7
ROMANT
  9
$DIMAUNIT
 70
     0
  9
$DIMADEC
 70
     0
  9
$DIMALTRND
 40
0.0
  9
$DIMAZIN
 70
     0
  9
$DIMDSEP
 70
    46
  9
$DIMATFIT
 70
     3
  9
$DIMFRAC
 70
     2
  9
$DIMLDRBLK
  1

  9
$DIMLUNIT
 70
     5
  9
$DIMLWD
 70
    -2
  9
$DIMLWE
 70
    -2
  9
$DIMTMOVE
 70
     0
  9
$DIMFXL
 40
1.0
  9
$DIMFXLON
 70
     0
  9
$DIMJOGANG
 40
0.7853981633974483
  9
$DIMTFILL
 70
     0
  9
$DIMTFILLCLR
 70
     0
  9
$DIMARCSYM
 70
     0
  9
$DIMLTYPE
  6

  9
$DIMLTEX1
  6

  9
$DIMLTEX2
  6

  9
$DIMTXTDIRECTION
 70
     0
  9
$LUNITS
 70
     2
  9
$LUPREC
 70
    10
  9
$SKETCHINC
 40
0.1
  9
$FILLETRAD
 40
0.0
  9
$AUNITS
 70
     0
  9
$AUPREC
 70
     0
  9
$MENU
  1
acad
  9
$ELEVATION
 40
0.0
  9
$PELEVATION
 40
0.0
  9
$THICKNESS
 40
0.0
  9
$LIMCHECK
 70
     0
  9
$CHAMFERA
 40
0.0
  9
$CHAMFERB
 40
0.0
  9
$CHAMFERC
 40
0.0
  9
$CHAMFERD
 40
0.0
  9
$SKPOLY
 70
     0
  9
$TDCREATE
 40
2451813.401902674
  9
$TDUCREATE
 40
2451813.610236007
  9
$TDUPDATE
 40
2456909.344510023
  9
$TDUUPDATE
 40
2456909.552843357
  9
$TDINDWG
 40
0.2095835301
  9
$TDUSRTIMER
 40
0.2095835301
  9
$USRTIMER
 70
     1
  9
$ANGBASE
 50
0.0
  9
$ANGDIR
 70
     0
  9
$PDMODE
 70
     2
  9
$PDSIZE
 40
0.0
  9
$PLINEWID
 40
0.0
  9
$SPLFRAME
 70
     0
  9
$SPLINETYPE
 70
     6
  9
$SPLINESEGS
 70
     8
  9
$HANDSEED
  5
13BEF
  9
$SURFTAB1
 70
     6
  9
$SURFTAB2
 70
     6
  9
$SURFTYPE
 70
     6
  9
$SURFU
 70
     6
  9
$SURFV
 70
     6
  9
$UCSBASE
  2

  9
$UCSNAME
  2

  9
$UCSORG
 10
0.0
 20
0.0
 30
0.0
  9
$UCSXDIR
 10
1.0
 20
0.0
 30
0.0
  9
$UCSYDIR
 10
0.0
 20
1.0
 30
0.0
  9
$UCSORTHOREF
  2

  9
$UCSORTHOVIEW
 70
     0
  9
$UCSORGTOP
 10
0.0
 20
0.0
 30
0.0
  9
$UCSORGBOTTOM
 10
0.0
 20
0.0
 30
0.0
  9
$UCSORGLEFT
 10
0.0
 20
0.0
 30
0.0
  9
$UCSORGRIGHT
 10
0.0
 20
0.0
 30
0.0
  9
$UCSORGFRONT
 10
0.0
 20
0.0
 30
0.0
  9
$UCSORGBACK
 10
0.0
 20
0.0
 30
0.0
  9
$PUCSBASE
  2

  9
$PUCSNAME
  2

  9
$PUCSORG
 10
0.0
 20
0.0
 30
0.0
  9
$PUCSXDIR
 10
1.0
 20
0.0
 30
0.0
  9
$PUCSYDIR
 10
0.0
 20
1.0
 30
0.0
  9
$PUCSORTHOREF
  2

  9
$PUCSORTHOVIEW
 70
     0
  9
$PUCSORGTOP
 10
0.0
 20
0.0
 30
0.0
  9
$PUCSORGBOTTOM
 10
0.0
 20
0.0
 30
0.0
  9
$PUCSORGLEFT
 10
0.0
 20
0.0
 30
0.0
  9
$PUCSORGRIGHT
 10
0.0
 20
0.0
 30
0.0
  9
$PUCSORGFRONT
 10
0.0
 20
0.0
 30
0.0
  9
$PUCSORGBACK
 10
0.0
 20
0.0
 30
0.0
  9
$USERI1
 70
     0
  9
$USERI2
 70
     0
  9
$USERI3
 70
     0
  9
$USERI4
 70
     0
  9
$USERI5
 70
     0
  9
$USERR1
 40
0.0
  9
$USERR2
 40
0.0
  9
$USERR3
 40
0.0
  9
$USERR4
 40
0.0
  9
$USERR5
 40
0.0
  9
$WORLDVIEW
 70
     1
  9
$SHADEDGE
 70
     3
  9
$SHADEDIF
 70
    70
  9
$TILEMODE
 70
     0
  9
$MAXACTVP
 70
    16
  9
$PINSBASE
 10
0.0
 20
0.0
 30
0.0
  9
$PLIMCHECK
 70
     0
  9
$PEXTMIN
 10
2.734195998098655
 20
0.2336136128719488
 30
-0.0000000000112498
  9
$PEXTMAX
 10
10.76310184785825
 20
10.76403984743893
 30
0.0000000000002956
  9
$PLIMMIN
 10
2.449750060863681
 20
0.0336000087701197
  9
$PLIMMAX
 10
11.04820375501023
 20
11.16101074327718
  9
$UNITMODE
 70
     0
  9
$VISRETAIN
 70
     0
  9
$PLINEGEN
 70
     0
  9
$PSLTSCALE
 70
     0
  9
$TREEDEPTH
 70
  3020
  9
$CMLSTYLE
  2
STANDARD
  9
$CMLJUST
 70
     0
  9
$CMLSCALE
 40
1.0
  9
$PROXYGRAPHICS
 70
     1
  9
$MEASUREMENT
 70
     0
  9
$CELWEIGHT
370
    -1
  9
$ENDCAPS
280
     0
  9
$JOINSTYLE
280
     0
  9
$LWDISPLAY
290
     0
  9
$INSUNITS
 70
     0
  9
$HYPERLINKBASE
  1

  9
$STYLESHEET
  1

  9
$XEDIT
290
     1
  9
$CEPSNTYPE
380
     0
  9
$PSTYLEMODE
290
     1
  9
$FINGERPRINTGUID
  2
{2DD8C38E-0F21-47AA-BB64-B8BDCB5DD752}
  9
$VERSIONGUID
  2
{B79E5C60-E770-4EF9-BA0B-A6D2A3223329}
  9
$EXTNAMES
290
     1
  9
$PSVPSCALE
 40
0.0
  9
$OLESTARTUP
290
     0
  9
$SORTENTS
280
    96
  9
$INDEXCTL
280
     0
  9
$HIDETEXT
280
     0
  9
$XCLIPFRAME
280
     2
  9
$HALOGAP
280
     0
  9
$OBSCOLOR
 70
   257
  9
$OBSLTYPE
280
     0
  9
$INTERSECTIONDISPLAY
280
     0
  9
$INTERSECTIONCOLOR
 70
   257
  9
$DIMASSOC
280
     1
  9
$PROJECTNAME
  1

  9
$CAMERADISPLAY
290
     0
  9
$LENSLENGTH
 40
50.0
  9
$CAMERAHEIGHT
 40
0.0
  9
$STEPSPERSEC
 40
2.0
  9
$STEPSIZE
 40
6.0
  9
$3DDWFPREC
 40
2.0
  9
$PSOLWIDTH
 40
0.25
  9
$PSOLHEIGHT
 40
4.0
  9
$LOFTANG1
 40
1.570796326794896
  9
$LOFTANG2
 40
1.570796326794896
  9
$LOFTMAG1
 40
0.0
  9
$LOFTMAG2
 40
0.0
  9
$LOFTPARAM
 70
     7
  9
$LOFTNORMALS
280
     1
  9
$LATITUDE
 40
37.795
  9
$LONGITUDE
 40
-122.394
  9
$NORTHDIRECTION
 40
0.0
  9
$TIMEZONE
 70
 -8000
  9
$LIGHTGLYPHDISPLAY
280
     1
  9
$TILEMODELIGHTSYNCH
280
     1
  9
$CMATERIAL
347
118FF
  9
$SOLIDHIST
280
     0
  9
$SHOWHIST
280
     1
  9
$DWFFRAME
280
     2
  9
$DGNFRAME
280
     0
  9
$REALWORLDSCALE
290
     1
  9
$INTERFERECOLOR
 62
     1
  9
$INTERFEREOBJVS
345
11921
  9
$INTERFEREVPVS
346
1191E
  9
$CSHADOW
280
     0
  9
$SHADOWPLANELOCATION
 40
0.0
  0
ENDSEC
  0
SECTION
  2
CLASSES
  0
CLASS
  1
DICTIONARYVAR
  2
AcDbDictionaryVar
  3
ObjectDBX Classes
 90
        0
 91
       10
280
     0
281
     0
  0
CLASS
  1
ACDBDICTIONARYWDFLT
  2
AcDbDictionaryWithDefault
  3
ObjectDBX Classes
 90
        0
 91
        1
280
     0
281
     0
  0
CLASS
  1
MATERIAL
  2
AcDbMaterial
  3
ObjectDBX Classes
 90
     1153
 91
        3
280
     0
281
     0
  0
CLASS
  1
VISUALSTYLE
  2
AcDbVisualStyle
  3
ObjectDBX Classes
 90
     4095
 91
       24
280
     0
281
     0
  0
CLASS
  1
TABLESTYLE
  2
AcDbTableStyle
  3
ObjectDBX Classes
 90
     4095
 91
        1
280
     0
281
     0
  0
CLASS
  1
SCALE
  2
AcDbScale
  3
ObjectDBX Classes
 90
     1153
 91
       17
280
     0
281
     0
  0
CLASS
  1
MLEADERSTYLE
  2
AcDbMLeaderStyle
  3
ACDB_MLEADERSTYLE_CLASS
 90
     4095
 91
        1
280
     0
281
     0
  0
CLASS
  1
ACDBSECTIONVIEWSTYLE
  2
AcDbSectionViewStyle
  3
ObjectDBX Classes
 90
     1025
 91
        1
280
     0
281
     0
  0
CLASS
  1
ACDBDETAILVIEWSTYLE
  2
AcDbDetailViewStyle
  3
ObjectDBX Classes
 90
     1025
 91
        1
280
     0
281
     0
  0
CLASS
  1
SORTENTSTABLE
  2
AcDbSortentsTable
  3
ObjectDBX Classes
 90
        0
 91
        3
280
     0
281
     0
  0
CLASS
  1
CELLSTYLEMAP
  2
AcDbCellStyleMap
  3
ObjectDBX Classes
 90
     1152
 91
        1
280
     0
281
     0
  0
ENDSEC
  0
SECTION
  2
TABLES
  0
TABLE
  2
VPORT
  5
8
330
0
100
AcDbSymbolTable
 70
     1
  0
VPORT
  5
118F3
330
8
100
AcDbSymbolTableRecord
100
AcDbViewportTableRecord
  2
*ACTIVE
 70
     0
 10
0.0
 20
0.0
 11
1.0
 21
1.0
 12
214.1809316043941
 22
145.4014078884035
 13
0.0
 23
0.0
 14
1.0
 24
1.0
 15
0.0
 25
0.0
 16
0.0
 26
0.0
 36
1.0
 17
0.0
 27
0.0
 37
0.0
 40
63.87450901353571
 41
1.981171548117154
 42
50.0
 43
0.0
 44
0.0
 50
0.0
 51
0.0
 71
     0
 72
 10000
 73
     1
 74
     0
 75
     0
 76
     0
 77
     0
 78
     0
281
     0
 65
     1
110
0.0
120
0.0
130
0.0
111
1.0
121
0.0
131
0.0
112
0.0
122
1.0
132
0.0
 79
     0
146
0.0
348
1191D
 60
     3
 61
     5
292
     1
282
     1
141
0.0
142
0.0
 63
   250
421
  3355443
1001
ACAD_NAV_VCDISPLAY
1070
     3
  0
ENDTAB
  0
TABLE
  2
LTYPE
  5
5
330
0
100
AcDbSymbolTable
 70
     4
  0
LTYPE
  5
12
330
5
100
AcDbSymbolTableRecord
100
AcDbLinetypeTableRecord
  2
BYBLOCK
 70
     0
  3

 72
    65
 73
     0
 40
0.0
  0
LTYPE
  5
13
330
5
100
AcDbSymbolTableRecord
100
AcDbLinetypeTableRecord
  2
BYLAYER
 70
     0
  3

 72
    65
 73
     0
 40
0.0
  0
LTYPE
  5
14
330
5
100
AcDbSymbolTableRecord
100
AcDbLinetypeTableRecord
  2
CONTINUOUS
 70
     0
  3
Solid line
 72
    65
 73
     0
 40
0.0
  0
LTYPE
  5
30
330
5
100
AcDbSymbolTableRecord
100
AcDbLinetypeTableRecord
  2
CENTER
 70
     0
  3
__ __ __ __ __ __ __ __ __ __ __ __ __ __ __ __
 72
    65
 73
     4
 40
2.0
 49
1.25
 74
     0
 49
-0.25
 74
     0
 49
0.25
 74
     0
 49
-0.25
 74
     0
  0
LTYPE
  5
11948
330
5
100
AcDbSymbolTableRecord
100
AcDbLinetypeTableRecord
  2
PHANTOM2
 70
     0
  3
___ _ _ ___ _ _ ___ _ _ ___ _ _
 72
    65
 73
     6
 40
1.25
 49
0.625
 74
     0
 49
-0.125
 74
     0
 49
0.125
 74
     0
 49
-0.125
 74
     0
 49
0.125
 74
     0
 49
-0.125
 74
     0
  0
LTYPE
  5
12C65
330
5
100
AcDbSymbolTableRecord
100
AcDbLinetypeTableRecord
  2
HIDDEN
 70
     0
  3
__ __ __ __ __ __ __ __ __ __ __ __ __ __ __ __
 72
    65
 73
     2
 40
0.375
 49
0.25
 74
     0
 49
-0.125
 74
     0
  0
ENDTAB
  0
TABLE
  2
LAYER
  5
2
102
{ACAD_XDICTIONARY
360
1195D
102
}
330
0
100
AcDbSymbolTable
 70
    13
  0
LAYER
  5
F
102
{ACAD_XDICTIONARY
360
11D3A
102
}
330
2
100
AcDbSymbolTableRecord
100
AcDbLayerTableRecord
  2
0
 70
     0
 62
     7
  6
CONTINUOUS
370
    -3
390
118FD
347
1190F
  0
LAYER
  5
44
102
{ACAD_XDICTIONARY
360
11D3C
102
}
330
2
100
AcDbSymbolTableRecord
100
AcDbLayerTableRecord
  2
CK_LEVEL_1
 70
     0
 62
     1
  6
CONTINUOUS
370
    -3
390
118FD
347
1190F
  0
LAYER
  5
10C
330
2
100
AcDbSymbolTableRecord
100
AcDbLayerTableRecord
  2
DEFPOINTS
 70
     0
 62
     1
  6
CONTINUOUS
290
     0
370
    -3
390
118FD
347
1190F
  0
LAYER
  5
3005
102
{ACAD_XDICTIONARY
360
11D3E
102
}
330
2
100
AcDbSymbolTableRecord
100
AcDbLayerTableRecord
  2
BORDER
 70
     0
 62
     5
  6
CONTINUOUS
370
    -3
390
118FD
347
1190F
  0
LAYER
  5
84E3
102
{ACAD_XDICTIONARY
360
11D40
102
}
330
2
100
AcDbSymbolTableRecord
100
AcDbLayerTableRecord
  2
CAR
 70
     0
 62
   141
  6
CONTINUOUS
370
    -3
390
118FD
347
1190F
  0
LAYER
  5
84E4
102
{ACAD_XDICTIONARY
360
11D42
102
}
330
2
100
AcDbSymbolTableRecord
100
AcDbLayerTableRecord
  2
DIM
 70
     0
 62
     1
  6
CONTINUOUS
370
    -3
390
118FD
347
1190F
  0
LAYER
  5
84E5
102
{ACAD_XDICTIONARY
360
11D44
102
}
330
2
100
AcDbSymbolTableRecord
100
AcDbLayerTableRecord
  2
CEN
 70
     0
 62
     2
  6
CENTER
370
    -3
390
118FD
347
1190F
  0
LAYER
  5
84E6
102
{ACAD_XDICTIONARY
360
11D46
102
}
330
2
100
AcDbSymbolTableRecord
100
AcDbLayerTableRecord
  2
WALL
 70
     0
 62
     3
  6
CONTINUOUS
370
    -3
390
118FD
347
1190F
  0
LAYER
  5
84E7
102
{ACAD_XDICTIONARY
360
11D48
102
}
330
2
100
AcDbSymbolTableRecord
100
AcDbLayerTableRecord
  2
RAIL
 70
     4
 62
     7
  6
CONTINUOUS
370
    -3
390
118FD
347
1190F
  0
LAYER
  5
11D73
330
2
100
AcDbSymbolTableRecord
100
AcDbLayerTableRecord
  2
VPORT
 70
     0
 62
    -7
  6
CONTINUOUS
370
    -3
390
118FD
347
1190F
1001
AcAecLayerStandard
1000

1000

1001
AcCmTransparency
1071
        0
  0
LAYER
  5
12317
330
2
100
AcDbSymbolTableRecord
100
AcDbLayerTableRecord
  2
Drywall
 70
     0
 62
    -7
  6
CONTINUOUS
370
    -3
390
118FD
347
1190F
1001
AcAecLayerStandard
1000

1000

1001
AcCmTransparency
1071
        0
  0
LAYER
  5
12C66
102
{ACAD_XDICTIONARY
360
12C67
102
}
330
2
100
AcDbSymbolTableRecord
100
AcDbLayerTableRecord
  2
CENT
 70
     0
 62
     2
  6
CENTER
370
    -3
390
118FD
347
1190F
  0
LAYER
  5
12E14
330
2
100
AcDbSymbolTableRecord
100
AcDbLayerTableRecord
  2
EMI
 70
     0
 62
     6
  6
CONTINUOUS
370
    -3
390
118FD
347
1190F
  0
ENDTAB
  0
TABLE
  2
STYLE
  5
3
330
0
100
AcDbSymbolTable
 70
     6
  0
STYLE
  5
10
330
3
100
AcDbSymbolTableRecord
100
AcDbTextStyleTableRecord
  2
STANDARD
 70
     0
 40
1.0
 41
1.0
 50
0.0
 71
     0
 42
0.0
  3
txt
  4

  0
STYLE
  5
2E
330
3
100
AcDbSymbolTableRecord
100
AcDbTextStyleTableRecord
  2
CKSTANDARD
 70
     0
 40
0.0
 41
1.0
 50
0.0
 71
     0
 42
0.8
  3
txt
  4

  0
STYLE
  5
B02
330
3
100
AcDbSymbolTableRecord
100
AcDbTextStyleTableRecord
  2
ROMANT
 70
     0
 40
0.0
 41
1.0
 50
0.0
 71
     0
 42
1.75
  3
ROMANT.shx
  4

  0
STYLE
  5
B03
330
3
100
AcDbSymbolTableRecord
100
AcDbTextStyleTableRecord
  2
ROMANS
 70
     0
 40
0.0
 41
1.0
 50
0.0
 71
     0
 42
0.1
  3
romans
  4

  0
STYLE
  5
D34F
330
3
100
AcDbSymbolTableRecord
100
AcDbTextStyleTableRecord
  2
STYLE1
 70
     0
 40
0.0
 41
1.0
 50
0.0
 71
     0
 42
0.4355386795769612
  3
arialbd.ttf
  4

1001
ACAD
1000
Arial CE
1071
 33615394
  0
ENDTAB
  0
TABLE
  2
VIEW
  5
6
330
0
100
AcDbSymbolTable
 70
     0
  0
ENDTAB
  0
TABLE
  2
UCS
  5
7
330
0
100
AcDbSymbolTable
 70
     1
  0
UCS
  5
32
330
7
100
AcDbSymbolTableRecord
100
AcDbUCSTableRecord
  2
CK_VIEW_1
 70
     0
 10
0.0
 20
0.0
 30
0.0
 11
1.0
 21
0.0
 31
0.0
 12
0.0
 22
1.0
 32
0.0
 79
     0
146
0.0
  0
ENDTAB
  0
TABLE
  2
APPID
  5
9
330
0
100
AcDbSymbolTable
 70
     9
  0
APPID
  5
11
330
9
100
AcDbSymbolTableRecord
100
AcDbRegAppTableRecord
  2
ACAD
 70
     0
  0
APPID
  5
11958
330
9
100
AcDbSymbolTableRecord
100
AcDbRegAppTableRecord
  2
ACAD_PSEXT
 70
     0
  0
APPID
  5
11959
330
9
100
AcDbSymbolTableRecord
100
AcDbRegAppTableRecord
  2
ACAD_NAV_VCDISPLAY
 70
     0
  0
APPID
  5
1196B
330
9
100
AcDbSymbolTableRecord
100
AcDbRegAppTableRecord
  2
AcadAnnoMonitorAlertIconDisabled
 70
     0
  0
APPID
  5
1196C
330
9
100
AcDbSymbolTableRecord
100
AcDbRegAppTableRecord
  2
ACAD_EXEMPT_FROM_CAD_STANDARDS
 70
     0
  0
APPID
  5
11D74
330
9
100
AcDbSymbolTableRecord
100
AcDbRegAppTableRecord
  2
AcAecLayerStandard
 70
     0
  0
APPID
  5
11D75
330
9
100
AcDbSymbolTableRecord
100
AcDbRegAppTableRecord
  2
AcCmTransparency
 70
     0
  0
APPID
  5
12494
330
9
100
AcDbSymbolTableRecord
100
AcDbRegAppTableRecord
  2
GradientColor1ACI
 70
     0
  0
APPID
  5
12495
330
9
100
AcDbSymbolTableRecord
100
AcDbRegAppTableRecord
  2
GradientColor2ACI
 70
     0
  0
ENDTAB
  0
TABLE
  2
DIMSTYLE
  5
A
330
0
100
AcDbSymbolTable
 70
     3
100
AcDbDimStyleTable
 71
     2
340
B04
340
84EB
  0
DIMSTYLE
105
B04
330
A
100
AcDbSymbolTableRecord
100
AcDbDimStyleTableRecord
  2
GEO
 70
     0
  3
"
 41
1.125
 42
0.75
 44
0.625
 47
0.0099999998
 48
-0.0099999998
140
1.5
147
0.5
178
     6
276
     2
277
     5
340
10
  0
DIMSTYLE
105
84EB
102
{ACAD_REACTORS
330
86B1
330
86B0
330
86AF
330
86AD
330
C322
330
86B2
330
86AE
330
122AD
330
122F8
330
1335E
330
13749
330
13834
330
13860
330
138B8
330
86B3
102
}
330
A
100
AcDbSymbolTableRecord
100
AcDbDimStyleTableRecord
  2
STANDARD
 70
     0
340
10
  0
ENDTAB
  0
TABLE
  2
BLOCK_RECORD
  5
1
330
0
100
AcDbSymbolTable
 70
    97
  0
BLOCK_RECORD
  5
18
102
{ACAD_XDICTIONARY
360
121B0
102
}
330
1
100
AcDbSymbolTableRecord
100
AcDbBlockTableRecord
  2
*MODEL_SPACE
340
1194E
 70
     0
280
     1
281
     0
  0
BLOCK_RECORD
  5
15
102
{ACAD_XDICTIONARY
360
12E0D
102
}
330
1
100
AcDbSymbolTableRecord
100
AcDbBlockTableRecord
  2
*PAPER_SPACE
340
1194F
 70
     0
280
     1
281
     0
  0
BLOCK_RECORD
  5
27
330
1
100
AcDbSymbolTableRecord
100
AcDbBlockTableRecord
  2
GENDIM11
340
0
102
{BLKREFS
331
259
331
A60E
331
A66C
331
A6AB
331
A6D7
331
752D
102
}
 70
     0
280
     1
281
     0
  0
BLOCK_RECORD
  5
2B
330
1
100
AcDbSymbolTableRecord
100
AcDbBlockTableRecord
  2
*X1
340
0
102
{BLKREFS
331
2AF
102
}
 70
     0
280
     1
281
     0
  0
BLOCK_RECORD
  5
562
330
1
100
AcDbSymbolTableRecord
100
AcDbBlockTableRecord
  2
GENARR10
340
0
102
{BLKREFS
331
A610
331
A672
331
A6AD
331
A6D9
331
B9C3
331
7551
331
F18
331
BE4B
331
BE52
331
BE58
331
BE5A
331
BE61
331
D282
331
D289
331
D28F
331
D2A5
331
D2AC
102
}
 70
     0
280
     1
281
     0
  0
BLOCK_RECORD
  5
565
330
1
100
AcDbSymbolTableRecord
100
AcDbBlockTableRecord
  2
*X3
340
0
102
{BLKREFS
331
F1B
102
}
 70
     0
280
     1
281
     0
  0
BLOCK_RECORD
  5
58F
330
1
100
AcDbSymbolTableRecord
100
AcDbBlockTableRecord
  2
GENARR12
340
0
102
{BLKREFS
331
A612
331
A677
331
A6AF
331
A6DB
331
B9C5
331
7556
331
F21
331
BE4D
331
BE54
331
BE5C
331
BE63
331
D284
331
D28B
331
D2A7
331
D2AE
102
}
 70
     0
280
     1
281
     0
  0
BLOCK_RECORD
  5
592
330
1
100
AcDbSymbolTableRecord
100
AcDbBlockTableRecord
  2
*X5
340
0
102
{BLKREFS
331
F22
102
}
 70
     0
280
     1
281
     0
  0
BLOCK_RECORD
  5
595
330
1
100
AcDbSymbolTableRecord
100
AcDbBlockTableRecord
  2
*X6
340
0
102
{BLKREFS
331
F23
102
}
 70
     0
280
     1
281
     0
  0
BLOCK_RECORD
  5
3B5F
330
1
100
AcDbSymbolTableRecord
100
AcDbBlockTableRecord
  2
GENARR11
340
0
102
{BLKREFS
331
A65D
331
A660
331
A663
331
A669
331
A6B3
331
A6B6
331
A6B9
331
A6BC
331
43A2
331
528F
331
5FB3
331
675A
102
}
 70
     0
280
     1
281
     0
  0
BLOCK_RECORD
  5
3B6E
330
1
100
AcDbSymbolTableRecord
100
AcDbBlockTableRecord
  2
*X8
340
0
102
{BLKREFS
331
43B0
102
}
 70
     0
280
     1
281
     0
  0
BLOCK_RECORD
  5
3B71
330
1
100
AcDbSymbolTableRecord
100
AcDbBlockTableRecord
  2
GENDIM17
340
0
102
{BLKREFS
331
A65F
331
A662
331
A665
331
A66B
331
A6B5
331
A6B8
331
A6BB
331
A6BE
331
43B1
331
529E
331
5FC2
331
6769
102
}
 70
     0
280
     1
281
     0
  0
BLOCK_RECORD
  5
48B0
330
1
100
AcDbSymbolTableRecord
100
AcDbBlockTableRecord
  2
*X10
340
0
102
{BLKREFS
331
529D
102
}
 70
     0
280
     1
281
     0
  0
BLOCK_RECORD
  5
5786
330
1
100
AcDbSymbolTableRecord
100
AcDbBlockTableRecord
  2
*X11
340
0
102
{BLKREFS
331
5FC1
331
6768
102
}
 70
     0
280
     1
281
     0
  0
BLOCK_RECORD
  5
6EA7
330
1
100
AcDbSymbolTableRecord
100
AcDbBlockTableRecord
  2
*X12
340
0
102
{BLKREFS
331
7537
102
}
 70
     0
280
     1
281
     0
  0
BLOCK_RECORD
  5
6EB0
330
1
100
AcDbSymbolTableRecord
100
AcDbBlockTableRecord
  2
*X13
340
0
102
{BLKREFS
331
7552
102
}
 70
     0
280
     1
281
     0
  0
BLOCK_RECORD
  5
6EB3
330
1
100
AcDbSymbolTableRecord
100
AcDbBlockTableRecord
  2
*X14
340
0
102
{BLKREFS
331
7557
102
}
 70
     0
280
     1
281
     0
  0
BLOCK_RECORD
  5
6EB6
330
1
100
AcDbSymbolTableRecord
100
AcDbBlockTableRecord
  2
*X15
340
0
102
{BLKREFS
331
7558
102
}
 70
     0
280
     1
281
     0
  0
BLOCK_RECORD
  5
80E7
330
1
100
AcDbSymbolTableRecord
100
AcDbBlockTableRecord
  2
PWRAIL
340
0
102
{BLKREFS
331
13494
102
}
 70
     0
280
     1
281
     0
  0
BLOCK_RECORD
  5
8715
330
1
100
AcDbSymbolTableRecord
100
AcDbBlockTableRecord
  2
*D17
340
0
 70
     0
280
     1
281
     0
  0
BLOCK_RECORD
  5
8722
330
1
100
AcDbSymbolTableRecord
100
AcDbBlockTableRecord
  2
*D18
340
0
 70
     0
280
     1
281
     0
  0
BLOCK_RECORD
  5
872F
330
1
100
AcDbSymbolTableRecord
100
AcDbBlockTableRecord
  2
*D19
340
0
 70
     0
280
     1
281
     0
  0
BLOCK_RECORD
  5
873C
330
1
100
AcDbSymbolTableRecord
100
AcDbBlockTableRecord
  2
*D20
340
0
 70
     0
280
     1
281
     0
  0
BLOCK_RECORD
  5
8749
330
1
100
AcDbSymbolTableRecord
100
AcDbBlockTableRecord
  2
*D21
340
0
 70
     0
280
     1
281
     0
  0
BLOCK_RECORD
  5
8756
330
1
100
AcDbSymbolTableRecord
100
AcDbBlockTableRecord
  2
*D22
340
0
 70
     0
280
     1
281
     0
  0
BLOCK_RECORD
  5
8763
330
1
100
AcDbSymbolTableRecord
100
AcDbBlockTableRecord
  2
*D23
340
0
 70
     0
280
     1
281
     0
  0
BLOCK_RECORD
  5
A2B7
330
1
100
AcDbSymbolTableRecord
100
AcDbBlockTableRecord
  2
*X24
340
0
102
{BLKREFS
331
A60F
102
}
 70
     0
280
     1
281
     0
  0
BLOCK_RECORD
  5
A2BA
330
1
100
AcDbSymbolTableRecord
100
AcDbBlockTableRecord
  2
*X25
340
0
102
{BLKREFS
331
A611
102
}
 70
     0
280
     1
281
     0
  0
BLOCK_RECORD
  5
A2BD
330
1
100
AcDbSymbolTableRecord
100
AcDbBlockTableRecord
  2
*X26
340
0
102
{BLKREFS
331
A613
102
}
 70
     0
280
     1
281
     0
  0
BLOCK_RECORD
  5
A2C0
330
1
100
AcDbSymbolTableRecord
100
AcDbBlockTableRecord
  2
*X27
340
0
102
{BLKREFS
331
A614
102
}
 70
     0
280
     1
281
     0
  0
BLOCK_RECORD
  5
A3B7
330
1
100
AcDbSymbolTableRecord
100
AcDbBlockTableRecord
  2
*X28
340
0
102
{BLKREFS
331
A65E
102
}
 70
     0
280
     1
281
     0
  0
BLOCK_RECORD
  5
A3BA
330
1
100
AcDbSymbolTableRecord
100
AcDbBlockTableRecord
  2
*X29
340
0
102
{BLKREFS
331
A661
102
}
 70
     0
280
     1
281
     0
  0
BLOCK_RECORD
  5
A3BD
330
1
100
AcDbSymbolTableRecord
100
AcDbBlockTableRecord
  2
*X30
340
0
102
{BLKREFS
331
A664
331
A66A
102
}
 70
     0
280
     1
281
     0
  0
BLOCK_RECORD
  5
A3C0
330
1
100
AcDbSymbolTableRecord
100
AcDbBlockTableRecord
  2
*X31
340
0
102
{BLKREFS
331
A66D
102
}
 70
     0
280
     1
281
     0
  0
BLOCK_RECORD
  5
A3C3
330
1
100
AcDbSymbolTableRecord
100
AcDbBlockTableRecord
  2
*X32
340
0
102
{BLKREFS
331
A673
102
}
 70
     0
280
     1
281
     0
  0
BLOCK_RECORD
  5
A3C6
330
1
100
AcDbSymbolTableRecord
100
AcDbBlockTableRecord
  2
*X33
340
0
102
{BLKREFS
331
A678
102
}
 70
     0
280
     1
281
     0
  0
BLOCK_RECORD
  5
A3C9
330
1
100
AcDbSymbolTableRecord
100
AcDbBlockTableRecord
  2
*X34
340
0
102
{BLKREFS
331
A679
102
}
 70
     0
280
     1
281
     0
  0
BLOCK_RECORD
  5
A483
330
1
100
AcDbSymbolTableRecord
100
AcDbBlockTableRecord
  2
*X35
340
0
102
{BLKREFS
331
A6AC
102
}
 70
     0
280
     1
281
     0
  0
BLOCK_RECORD
  5
A486
330
1
100
AcDbSymbolTableRecord
100
AcDbBlockTableRecord
  2
*X36
340
0
102
{BLKREFS
331
A6AE
102
}
 70
     0
280
     1
281
     0
  0
BLOCK_RECORD
  5
A489
330
1
100
AcDbSymbolTableRecord
100
AcDbBlockTableRecord
  2
*X37
340
0
102
{BLKREFS
331
A6B0
102
}
 70
     0
280
     1
281
     0
  0
BLOCK_RECORD
  5
A48C
330
1
100
AcDbSymbolTableRecord
100
AcDbBlockTableRecord
  2
*X38
340
0
102
{BLKREFS
331
A6B1
102
}
 70
     0
280
     1
281
     0
  0
BLOCK_RECORD
  5
A48F
330
1
100
AcDbSymbolTableRecord
100
AcDbBlockTableRecord
  2
*X39
340
0
102
{BLKREFS
331
A6B4
102
}
 70
     0
280
     1
281
     0
  0
BLOCK_RECORD
  5
A492
330
1
100
AcDbSymbolTableRecord
100
AcDbBlockTableRecord
  2
*X40
340
0
102
{BLKREFS
331
A6B7
102
}
 70
     0
280
     1
281
     0
  0
BLOCK_RECORD
  5
A495
330
1
100
AcDbSymbolTableRecord
100
AcDbBlockTableRecord
  2
*X41
340
0
102
{BLKREFS
331
A6BA
331
A6BD
102
}
 70
     0
280
     1
281
     0
  0
BLOCK_RECORD
  5
A498
330
1
100
AcDbSymbolTableRecord
100
AcDbBlockTableRecord
  2
*X42
340
0
102
{BLKREFS
331
A6D8
102
}
 70
     0
280
     1
281
     0
  0
BLOCK_RECORD
  5
A49B
330
1
100
AcDbSymbolTableRecord
100
AcDbBlockTableRecord
  2
*X43
340
0
102
{BLKREFS
331
A6DA
102
}
 70
     0
280
     1
281
     0
  0
BLOCK_RECORD
  5
A49E
330
1
100
AcDbSymbolTableRecord
100
AcDbBlockTableRecord
  2
*X44
340
0
102
{BLKREFS
331
A6DC
102
}
 70
     0
280
     1
281
     0
  0
BLOCK_RECORD
  5
A4A1
330
1
100
AcDbSymbolTableRecord
100
AcDbBlockTableRecord
  2
*X45
340
0
102
{BLKREFS
331
A6DD
102
}
 70
     0
280
     1
281
     0
  0
BLOCK_RECORD
  5
B84A
330
1
100
AcDbSymbolTableRecord
100
AcDbBlockTableRecord
  2
*X46
340
0
102
{BLKREFS
331
B9C0
102
}
 70
     0
280
     1
281
     0
  0
BLOCK_RECORD
  5
B853
330
1
100
AcDbSymbolTableRecord
100
AcDbBlockTableRecord
  2
*X47
340
0
102
{BLKREFS
331
B9C4
102
}
 70
     0
280
     1
281
     0
  0
BLOCK_RECORD
  5
B856
330
1
100
AcDbSymbolTableRecord
100
AcDbBlockTableRecord
  2
*X48
340
0
102
{BLKREFS
331
B9C6
102
}
 70
     0
280
     1
281
     0
  0
BLOCK_RECORD
  5
B859
330
1
100
AcDbSymbolTableRecord
100
AcDbBlockTableRecord
  2
*X49
340
0
102
{BLKREFS
331
B9C7
102
}
 70
     0
280
     1
281
     0
  0
BLOCK_RECORD
  5
BC01
330
1
100
AcDbSymbolTableRecord
100
AcDbBlockTableRecord
  2
*X50
340
0
102
{BLKREFS
331
BE4A
102
}
 70
     0
280
     1
281
     0
  0
BLOCK_RECORD
  5
BC04
330
1
100
AcDbSymbolTableRecord
100
AcDbBlockTableRecord
  2
*X51
340
0
102
{BLKREFS
331
BE4C
102
}
 70
     0
280
     1
281
     0
  0
BLOCK_RECORD
  5
BC07
330
1
100
AcDbSymbolTableRecord
100
AcDbBlockTableRecord
  2
*X52
340
0
102
{BLKREFS
331
BE4E
102
}
 70
     0
280
     1
281
     0
  0
BLOCK_RECORD
  5
BC0A
330
1
100
AcDbSymbolTableRecord
100
AcDbBlockTableRecord
  2
*X53
340
0
102
{BLKREFS
331
BE4F
102
}
 70
     0
280
     1
281
     0
  0
BLOCK_RECORD
  5
BD6D
330
1
100
AcDbSymbolTableRecord
100
AcDbBlockTableRecord
  2
*X54
340
0
102
{BLKREFS
331
BE51
102
}
 70
     0
280
     1
281
     0
  0
BLOCK_RECORD
  5
BD70
330
1
100
AcDbSymbolTableRecord
100
AcDbBlockTableRecord
  2
*X55
340
0
102
{BLKREFS
331
BE53
102
}
 70
     0
280
     1
281
     0
  0
BLOCK_RECORD
  5
BD73
330
1
100
AcDbSymbolTableRecord
100
AcDbBlockTableRecord
  2
*X56
340
0
102
{BLKREFS
331
BE55
102
}
 70
     0
280
     1
281
     0
  0
BLOCK_RECORD
  5
BD76
330
1
100
AcDbSymbolTableRecord
100
AcDbBlockTableRecord
  2
*X57
340
0
102
{BLKREFS
331
BE56
102
}
 70
     0
280
     1
281
     0
  0
BLOCK_RECORD
  5
BD79
330
1
100
AcDbSymbolTableRecord
100
AcDbBlockTableRecord
  2
*X58
340
0
102
{BLKREFS
331
BE59
102
}
 70
     0
280
     1
281
     0
  0
BLOCK_RECORD
  5
BD7C
330
1
100
AcDbSymbolTableRecord
100
AcDbBlockTableRecord
  2
*X59
340
0
102
{BLKREFS
331
BE5B
102
}
 70
     0
280
     1
281
     0
  0
BLOCK_RECORD
  5
BD7F
330
1
100
AcDbSymbolTableRecord
100
AcDbBlockTableRecord
  2
*X60
340
0
102
{BLKREFS
331
BE5D
102
}
 70
     0
280
     1
281
     0
  0
BLOCK_RECORD
  5
BD82
330
1
100
AcDbSymbolTableRecord
100
AcDbBlockTableRecord
  2
*X61
340
0
102
{BLKREFS
331
BE5E
102
}
 70
     0
280
     1
281
     0
  0
BLOCK_RECORD
  5
BD85
330
1
100
AcDbSymbolTableRecord
100
AcDbBlockTableRecord
  2
*X62
340
0
102
{BLKREFS
331
BE60
102
}
 70
     0
280
     1
281
     0
  0
BLOCK_RECORD
  5
BD88
330
1
100
AcDbSymbolTableRecord
100
AcDbBlockTableRecord
  2
*X63
340
0
102
{BLKREFS
331
BE62
102
}
 70
     0
280
     1
281
     0
  0
BLOCK_RECORD
  5
BD8B
330
1
100
AcDbSymbolTableRecord
100
AcDbBlockTableRecord
  2
*X64
340
0
102
{BLKREFS
331
BE64
102
}
 70
     0
280
     1
281
     0
  0
BLOCK_RECORD
  5
BD8E
330
1
100
AcDbSymbolTableRecord
100
AcDbBlockTableRecord
  2
*X65
340
0
102
{BLKREFS
331
BE65
102
}
 70
     0
280
     1
281
     0
  0
BLOCK_RECORD
  5
BD91
330
1
100
AcDbSymbolTableRecord
100
AcDbBlockTableRecord
  2
*X66
340
0
102
{BLKREFS
331
D281
102
}
 70
     0
280
     1
281
     0
  0
BLOCK_RECORD
  5
BD94
330
1
100
AcDbSymbolTableRecord
100
AcDbBlockTableRecord
  2
*X67
340
0
102
{BLKREFS
331
D283
102
}
 70
     0
280
     1
281
     0
  0
BLOCK_RECORD
  5
BD97
330
1
100
AcDbSymbolTableRecord
100
AcDbBlockTableRecord
  2
*X68
340
0
102
{BLKREFS
331
D285
102
}
 70
     0
280
     1
281
     0
  0
BLOCK_RECORD
  5
BD9A
330
1
100
AcDbSymbolTableRecord
100
AcDbBlockTableRecord
  2
*X69
340
0
102
{BLKREFS
331
D286
102
}
 70
     0
280
     1
281
     0
  0
BLOCK_RECORD
  5
BD9D
330
1
100
AcDbSymbolTableRecord
100
AcDbBlockTableRecord
  2
*X70
340
0
102
{BLKREFS
331
D288
102
}
 70
     0
280
     1
281
     0
  0
BLOCK_RECORD
  5
BDA0
330
1
100
AcDbSymbolTableRecord
100
AcDbBlockTableRecord
  2
*X71
340
0
102
{BLKREFS
331
D28A
102
}
 70
     0
280
     1
281
     0
  0
BLOCK_RECORD
  5
BDA3
330
1
100
AcDbSymbolTableRecord
100
AcDbBlockTableRecord
  2
*X72
340
0
102
{BLKREFS
331
D28C
102
}
 70
     0
280
     1
281
     0
  0
BLOCK_RECORD
  5
BDA6
330
1
100
AcDbSymbolTableRecord
100
AcDbBlockTableRecord
  2
*X73
340
0
102
{BLKREFS
331
D28D
102
}
 70
     0
280
     1
281
     0
  0
BLOCK_RECORD
  5
BDA9
330
1
100
AcDbSymbolTableRecord
100
AcDbBlockTableRecord
  2
*X74
340
0
102
{BLKREFS
331
D2A4
102
}
 70
     0
280
     1
281
     0
  0
BLOCK_RECORD
  5
BDAC
330
1
100
AcDbSymbolTableRecord
100
AcDbBlockTableRecord
  2
*X75
340
0
102
{BLKREFS
331
D2A6
102
}
 70
     0
280
     1
281
     0
  0
BLOCK_RECORD
  5
BDAF
330
1
100
AcDbSymbolTableRecord
100
AcDbBlockTableRecord
  2
*X76
340
0
102
{BLKREFS
331
D2A8
102
}
 70
     0
280
     1
281
     0
  0
BLOCK_RECORD
  5
BDB2
330
1
100
AcDbSymbolTableRecord
100
AcDbBlockTableRecord
  2
*X77
340
0
102
{BLKREFS
331
D2A9
102
}
 70
     0
280
     1
281
     0
  0
BLOCK_RECORD
  5
BDB5
330
1
100
AcDbSymbolTableRecord
100
AcDbBlockTableRecord
  2
*X78
340
0
102
{BLKREFS
331
D2AB
102
}
 70
     0
280
     1
281
     0
  0
BLOCK_RECORD
  5
BDB8
330
1
100
AcDbSymbolTableRecord
100
AcDbBlockTableRecord
  2
*X79
340
0
102
{BLKREFS
331
D2AD
102
}
 70
     0
280
     1
281
     0
  0
BLOCK_RECORD
  5
BDBB
330
1
100
AcDbSymbolTableRecord
100
AcDbBlockTableRecord
  2
*X80
340
0
102
{BLKREFS
331
D2AF
102
}
 70
     0
280
     1
281
     0
  0
BLOCK_RECORD
  5
BDBE
330
1
100
AcDbSymbolTableRecord
100
AcDbBlockTableRecord
  2
*X81
340
0
102
{BLKREFS
331
D2B0
102
}
 70
     0
280
     1
281
     0
  0
BLOCK_RECORD
  5
C315
330
1
100
AcDbSymbolTableRecord
100
AcDbBlockTableRecord
  2
*D82
340
0
 70
     0
280
     1
281
     0
  0
BLOCK_RECORD
  5
D2BC
330
1
100
AcDbSymbolTableRecord
100
AcDbBlockTableRecord
  2
A$C5E6C7229
340
0
102
{BLKREFS
331
D326
102
}
 70
     0
280
     1
281
     0
  0
BLOCK_RECORD
  5
D31B
330
1
100
AcDbSymbolTableRecord
100
AcDbBlockTableRecord
  2
A$C45FA2CBB
340
0
102
{BLKREFS
331
D362
102
}
 70
     0
280
     1
281
     0
  0
BLOCK_RECORD
  5
122AE
330
1
100
AcDbSymbolTableRecord
100
AcDbBlockTableRecord
  2
*D85
340
0
 70
     0
280
     1
281
     0
  0
BLOCK_RECORD
  5
122F9
330
1
100
AcDbSymbolTableRecord
100
AcDbBlockTableRecord
  2
*D86
340
0
 70
     0
280
     1
281
     0
  0
BLOCK_RECORD
  5
12C2F
330
1
100
AcDbSymbolTableRecord
100
AcDbBlockTableRecord
  2
A$C033B77E7
340
0
102
{BLKREFS
331
12C3C
102
}
 70
     0
280
     1
281
     0
  0
BLOCK_RECORD
  5
12C3A
330
1
100
AcDbSymbolTableRecord
100
AcDbBlockTableRecord
  2
A$C302758B8
340
0
102
{BLKREFS
331
134AB
102
}
 70
     0
280
     1
281
     0
  0
BLOCK_RECORD
  5
12C3E
330
1
100
AcDbSymbolTableRecord
100
AcDbBlockTableRecord
  2
A$C50E91184
340
0
102
{BLKREFS
331
12C4B
102
}
 70
     0
280
     1
281
     0
  0
BLOCK_RECORD
  5
12C49
330
1
100
AcDbSymbolTableRecord
100
AcDbBlockTableRecord
  2
A$C32E66CAB
340
0
102
{BLKREFS
331
134AC
102
}
 70
     0
280
     1
281
     0
  0
BLOCK_RECORD
  5
1335F
330
1
100
AcDbSymbolTableRecord
100
AcDbBlockTableRecord
  2
*D91
340
0
 70
     0
280
     1
281
     0
  0
BLOCK_RECORD
  5
1374A
330
1
100
AcDbSymbolTableRecord
100
AcDbBlockTableRecord
  2
*D92
340
0
 70
     0
280
     1
281
     0
  0
BLOCK_RECORD
  5
13835
330
1
100
AcDbSymbolTableRecord
100
AcDbBlockTableRecord
  2
*D93
340
0
 70
     0
280
     1
281
     0
  0
BLOCK_RECORD
  5
13861
330
1
100
AcDbSymbolTableRecord
100
AcDbBlockTableRecord
  2
*D94
340
0
 70
     0
280
     1
281
     0
  0
BLOCK_RECORD
  5
138B9
330
1
100
AcDbSymbolTableRecord
100
AcDbBlockTableRecord
  2
*D95
340
0
 70
     0
280
     1
281
     0
  0
ENDTAB
  0
ENDSEC
  0
SECTION
  2
BLOCKS
  0
BLOCK
  5
10F
330
18
100
AcDbEntity
  8
0
 62
     6
100
AcDbBlockBegin
  2
*MODEL_SPACE
 70
     0
 10
0.0
 20
0.0
 30
0.0
  3
*MODEL_SPACE
  1

  0
ENDBLK
  5
110
330
18
100
AcDbEntity
  8
0
 62
     6
100
AcDbBlockEnd
  0
BLOCK
  5
10D
330
15
100
AcDbEntity
 67
     1
  8
0
 62
     6
100
AcDbBlockBegin
  2
*PAPER_SPACE
 70
     0
 10
0.0
 20
0.0
 30
0.0
  3
*PAPER_SPACE
  1

  0
ENDBLK
  5
10E
330
15
100
AcDbEntity
 67
     1
  8
0
 62
     6
100
AcDbBlockEnd
  0
BLOCK
  5
127
330
27
100
AcDbEntity
  8
0
100
AcDbBlockBegin
  2
GENDIM11
 70
     0
 10
0.0
 20
0.0
 30
0.0
  3
GENDIM11
  1

  0
ENDBLK
  5
128
330
27
100
AcDbEntity
  8
0
100
AcDbBlockEnd
  0
BLOCK
  5
12F
330
2B
100
AcDbEntity
  8
0
100
AcDbBlockBegin
  2
*X1
 70
     1
 10
0.0
 20
0.0
 30
0.0
  3
*X1
  1

  0
ENDBLK
  5
130
330
2B
100
AcDbEntity
  8
0
100
AcDbBlockEnd
  0
BLOCK
  5
563
330
562
100
AcDbEntity
  8
0
100
AcDbBlockBegin
  2
GENARR10
 70
     0
 10
0.0
 20
0.0
 30
0.0
  3
GENARR10
  1

  0
ENDBLK
  5
564
330
562
100
AcDbEntity
  8
0
100
AcDbBlockEnd
  0
BLOCK
  5
566
330
565
100
AcDbEntity
  8
0
100
AcDbBlockBegin
  2
*X3
 70
     1
 10
0.0
 20
0.0
 30
0.0
  3
*X3
  1

  0
ENDBLK
  5
567
330
565
100
AcDbEntity
  8
0
100
AcDbBlockEnd
  0
BLOCK
  5
590
330
58F
100
AcDbEntity
  8
0
100
AcDbBlockBegin
  2
GENARR12
 70
     0
 10
0.0
 20
0.0
 30
0.0
  3
GENARR12
  1

  0
ENDBLK
  5
591
330
58F
100
AcDbEntity
  8
0
100
AcDbBlockEnd
  0
BLOCK
  5
593
330
592
100
AcDbEntity
  8
0
100
AcDbBlockBegin
  2
*X5
 70
     1
 10
0.0
 20
0.0
 30
0.0
  3
*X5
  1

  0
ENDBLK
  5
594
330
592
100
AcDbEntity
  8
0
100
AcDbBlockEnd
  0
BLOCK
  5
596
330
595
100
AcDbEntity
  8
0
100
AcDbBlockBegin
  2
*X6
 70
     1
 10
0.0
 20
0.0
 30
0.0
  3
*X6
  1

  0
ENDBLK
  5
597
330
595
100
AcDbEntity
  8
0
100
AcDbBlockEnd
  0
BLOCK
  5
3B60
330
3B5F
100
AcDbEntity
  8
0
100
AcDbBlockBegin
  2
GENARR11
 70
     0
 10
0.0
 20
0.0
 30
0.0
  3
GENARR11
  1

  0
ENDBLK
  5
3B61
330
3B5F
100
AcDbEntity
  8
0
100
AcDbBlockEnd
  0
BLOCK
  5
3B6F
330
3B6E
100
AcDbEntity
  8
0
100
AcDbBlockBegin
  2
*X8
 70
     1
 10
0.0
 20
0.0
 30
0.0
  3
*X8
  1

  0
ENDBLK
  5
3B70
330
3B6E
100
AcDbEntity
  8
0
100
AcDbBlockEnd
  0
BLOCK
  5
3B72
330
3B71
100
AcDbEntity
  8
0
100
AcDbBlockBegin
  2
GENDIM17
 70
     0
 10
0.0
 20
0.0
 30
0.0
  3
GENDIM17
  1

  0
ENDBLK
  5
3B73
330
3B71
100
AcDbEntity
  8
0
100
AcDbBlockEnd
  0
BLOCK
  5
48B1
330
48B0
100
AcDbEntity
  8
0
100
AcDbBlockBegin
  2
*X10
 70
     1
 10
0.0
 20
0.0
 30
0.0
  3
*X10
  1

  0
ENDBLK
  5
48B2
330
48B0
100
AcDbEntity
  8
0
100
AcDbBlockEnd
  0
BLOCK
  5
5787
330
5786
100
AcDbEntity
  8
0
100
AcDbBlockBegin
  2
*X11
 70
     1
 10
0.0
 20
0.0
 30
0.0
  3
*X11
  1

  0
ENDBLK
  5
5788
330
5786
100
AcDbEntity
  8
0
100
AcDbBlockEnd
  0
BLOCK
  5
6EA8
330
6EA7
100
AcDbEntity
  8
0
100
AcDbBlockBegin
  2
*X12
 70
     1
 10
0.0
 20
0.0
 30
0.0
  3
*X12
  1

  0
ENDBLK
  5
6EA9
330
6EA7
100
AcDbEntity
  8
0
100
AcDbBlockEnd
  0
BLOCK
  5
6EB1
330
6EB0
100
AcDbEntity
  8
0
100
AcDbBlockBegin
  2
*X13
 70
     1
 10
0.0
 20
0.0
 30
0.0
  3
*X13
  1

  0
ENDBLK
  5
6EB2
330
6EB0
100
AcDbEntity
  8
0
100
AcDbBlockEnd
  0
BLOCK
  5
6EB4
330
6EB3
100
AcDbEntity
  8
0
100
AcDbBlockBegin
  2
*X14
 70
     1
 10
0.0
 20
0.0
 30
0.0
  3
*X14
  1

  0
ENDBLK
  5
6EB5
330
6EB3
100
AcDbEntity
  8
0
100
AcDbBlockEnd
  0
BLOCK
  5
6EB7
330
6EB6
100
AcDbEntity
  8
0
100
AcDbBlockBegin
  2
*X15
 70
     1
 10
0.0
 20
0.0
 30
0.0
  3
*X15
  1

  0
ENDBLK
  5
6EB8
330
6EB6
100
AcDbEntity
  8
0
100
AcDbBlockEnd
  0
BLOCK
  5
80F1
330
80E7
100
AcDbEntity
  8
0
100
AcDbBlockBegin
  2
PWRAIL
 70
     0
 10
0.0
 20
0.0
 30
0.0
  3
PWRAIL
  1

  0
REGION
  5
80E8
330
80E7
100
AcDbEntity
  8
0
100
AcDbModelerGeometry
 70
     1
  1
mnjoo jm m mk          
  1
ni ^ *+0;:,4 ^ *+0\^ [ nf ^ LR mngqoqoqjnni QK o  
  1
mjqlffffffffffffff fqfffffffffffffffj:rooh n:rono 
  1
>,27:>;:- {rn rn _nm mngqoqoqjnni |
  1
=0;& {rn rn {rn {m {rn {rn |
  1
3*2/ {rn rn {rn {rn {l {n |
  1
,7:33 {rn rn {rn {rn {rn {k {rn {m |
  1
9><: {rn rn {rn {rn {j {l {rn {i 90-(>-; ;0*=3: 0*+ |
  1
300/ {rn rn {rn {rn {h {k |
  1
/3>1:r,*-9><: {rn rn {rn jiqnnnjlhlohfjjglj rflqllhkljglmlooogg mni rkqkkfokkhfglfmih:ronh rlqljfjkolmgjoohkji:roni n rn riqkfggiikgjinnmkgf:ronh rkqkkfokkhfglfmhofk:ronh 90-(>-;@) V V V V |
  1
<0:;8: {rn rn {rn {g {f {rn {no -:):-,:; {j {rn |
  1
<0:;8: {rn rn {rn {nn {h {rn {nm -:):-,:; {j {rn |
  1
<0:;8: {rn rn {rn {h {nl {rn {nk -:):-,:; {j {rn |
  1
:;8: {rn rn {rn {nj o {ni l {h {nh 90-(>-; _h *1410(1 |
  1
<0:;8: {rn rn {rn {ng {g {rn {nf -:):-,:; {j {rn |
  1
:;8: {rn rn {rn {mo ro {nj m {g {mn 90-(>-; _h *1410(1 |
  1
<0:;8: {rn rn {rn {f {mm {rn {ml -:):-,:; {j {rn |
  1
:;8: {rn rn {rn {ni o {mk oqnmj {f {mj 90-(>-; _h *1410(1 |
  1
):-+:' {rn rn {rn {no m {mi |
  1
):-+:' {rn rn {rn {no m {mh |
  1
,+->687+r<*-): {rn rn {rn jjqlnfghoiknmgfnhn rfkqkimkljglmlooogg mni riqkfggiikgjinnmofj:ronh n lqljfjkolmgjoohkhn:roni V V |
  1
<0:;8: {rn rn {rn {mg {nn {rn {mf -:):-,:; {j {rn |
  1
:;8: {rn rn {rn {lo o {mo oqnmj {nn {ln 90-(>-; _h *1410(1 |
  1
):-+:' {rn rn {rn {nm m {lm |
  1
,+->687+r<*-): {rn rn {rn jhqlnfghoiknmgfnhn rfkqkimkljglmlooogg mni rn riqkfggiikgjinnmkgf:ronh rkqkkfokkhfglfmhofk:ronh V V |
  1
<0:;8: {rn rn {rn {nl {ll {rn {lk -:):-,:; {j {rn |
  1
:;8: {rn rn {rn {mk roqhgjlfgnillfhkhijf {lj oqhgjlfgnillfhkhifm {nl {li 90-(>-; _h *1410(1 |
  1
):-+:' {rn rn {rn {ml m {lh |
  1
,+->687+r<*-): {rn rn {rn jjqlnfghoiknmgfnhn rfnqkimkljglmlooogg mni n iqkfggiikgjinnmkgf:ronh kqkkfokkhfglfmhofk:ronh V V |
  1
/061+ {rn rn {rn jjqlnfghoiknmgfnhn rfkqkimkljglmlooogg mni |
  1
/061+ {rn rn {rn jjqlnfghoiknmgfnhn rfnqkimkljglmlooogg mni |
  1
<0:;8: {rn rn {rn {ll {ng {rn {lg -:):-,:; {j {rn |
  1
:;8: {rn rn {rn {lf roqhgjlfgnillfhkojjk {lo oqhgjlfgnillfhlhhkj {ng {ko 90-(>-; _h *1410(1 |
  1
):-+:' {rn rn {rn {nf m {kn |
  1
,+->687+r<*-): {rn rn {rn jhqlnfghoiknmgfnhn rfkqllhkljglmlooogg mni iqkfggiikgjinnmofj:ronh rn rlqljfjkolmgjoohkhn:roni V V |
  1
/061+ {rn rn {rn jhqlnfghoiknmgfnhn rfkqkimkljglmlooogg mni |
  1
<0:;8: {rn rn {rn {mm {mg {rn {km -:):-,:; {j {rn |
  1
:;8: {rn rn {rn {lj ro {kl mqlhjoooooooooonkm {mm {kk 90-(>-; _h *1410(1 |
  1
):-+:' {rn rn {rn {lk m {kj |
  1
:336/,:r<*-): {rn rn {rn jjqkkkghoiknmgfnhg rfnqjghkljglmlooogg mni kqkkfokkhfglfmih:ronh lqljfjkolmgjoohkji:roni rn oqogglgglkhikglmofkj oqogglgglkhikglmjffi lqlimigjfolmgkmlh:ronh n V V |
  1
/061+ {rn rn {rn jjqkkkghoiknmgfnhn rfnqkimkljglmlooogg mni |
  1
:;8: {rn rn {rn {ki o {lf nqlhkffffffffffgjg {mg {kh 90-(>-; _h *1410(1 |
  1
):-+:' {rn rn {rn {mf m {kg |
  1
:336/,:r<*-): {rn rn {rn jhqnfkghoiknmgfnhn rfkqllhkljglmloonom mni kqkkfokkhfglfmih:ronh lqljfjkolmgjoohkji:roni rn oqogglgglkhikglngogi oqogglgglkhikglmjikf lqlimigjfolmgkmnml:ronh n V V |
  1
/061+ {rn rn {rn jhqlnfghoiknmgfnhn rfkqllhkljglmlooogg mni |
  1
:;8: {rn rn {rn {kl roqhgjlfgnillfhjojlk {ki oqhgjlfgnillfhjojon {ll {kf 90-(>-; _h *1410(1 |
  1
):-+:' {rn rn {rn {km m {jo |
  1
,+->687+r<*-): {rn rn {rn jjqjifghoiknmgfngj rfnqjghkljglmlooogg mni rmqfmihhommmjjkgngl:ronj rn rlqljfjkolmgjoohjnj:roni V V |
  1
/061+ {rn rn {rn jjqjifghoiknmgfngj rfnqjghkljglmlooogg mni |
  1
):-+:' {rn rn {rn {lg m {jn |
  1
,+->687+r<*-): {rn rn {rn jjqgnfghoiknmgfngj rfkqmnmkljglmlooogg mni n rnqomhonhgkoohkjkhg:ronk kqkkfokkhfglfmlflf:ronh V V |
  1
/061+ {rn rn {rn jhqnfkghoiknmgfnhn rfkqmnmkljglmlooogg mni |
  1
:336/,:r<*-): {rn rn {rn jjqgnfghoiknmgfnjh rflqfimkljglmloonom mni rkqkkfokkhfglfmih:ronh rlqljfjkolmgjoohkji:roni n roqnhihhiifjmfiininf roqnhihhiifjmfiililk riqhmjlhngoijihgimi:ronh n V V |
  1
/061+ {rn rn {rn jjqjifghoiknmgfnhn rflqfimkljglmloonom mni |
  1
/061+ {rn rn {rn jjqgnfghoiknmgfngj rfkqmnmkljglmlooogg mni |
  0
REGION
  5
80E9
330
80E7
100
AcDbEntity
  8
0
100
AcDbModelerGeometry
 70
     1
  1
mnjoo jm m mk          
  1
ni ^ *+0;:,4 ^ *+0\^ [ nf ^ LR mngqoqoqjnni QK o  
  1
mjqlffffffffffffff fqfffffffffffffffj:rooh n:rono 
  1
>,27:>;:- {rn rn _nm mngqoqoqjnni |
  1
=0;& {rn rn {rn {m {rn {rn |
  1
3*2/ {rn rn {rn {rn {l {n |
  1
,7:33 {rn rn {rn {rn {rn {k {rn {m |
  1
9><: {rn rn {rn {rn {j {l {rn {i -:):-,:; ;0*=3: 0*+ |
  1
300/ {rn rn {rn {rn {h {k |
  1
/3>1:r,*-9><: {rn rn {rn lgqomgmolfhkimmjnk rflqllhkljglmlooohl mni rmqjilkknhgokljkoll:roni rmqhokfolhnffgflhmi:roni rn n rnqhfflmiojfoglimfg:roni rmqjilkknhgokljkoll:roni 90-(>-;@) V V V V |
  1
<0:;8: {rn rn {rn {g {f {rn {no 90-(>-; {j {rn |
  1
<0:;8: {rn rn {rn {nn {h {rn {nm 90-(>-; {j {rn |
  1
<0:;8: {rn rn {rn {h {nl {rn {nk 90-(>-; {j {rn |
  1
:;8: {rn rn {rn {nj o {ni oqnmkffffffffffgjhf {h {nh 90-(>-; _h *1410(1 |
  1
<0:;8: {rn rn {rn {ng {g {rn {nf 90-(>-; {j {rn |
  1
:;8: {rn rn {rn {ni o {mo mqooooooooooooonkm {g {mn 90-(>-; _h *1410(1 |
  1
<0:;8: {rn rn {rn {f {mm {rn {ml 90-(>-; {j {rn |
  1
:;8: {rn rn {rn {mk roqhgjlfgnillfhklkng {nj oqhgjlfgnillfhkimkf {f {mj 90-(>-; _h *1410(1 |
  1
):-+:' {rn rn {rn {no m {mi |
  1
):-+:' {rn rn {rn {no m {mh |
  1
,+->687+r<*-): {rn rn {rn liqgnfghoiknmgfnhn rfkqllhkljglmlooogg mni rjqhomlljnkiihmmgkm:ronk rn mqhokfolhnffgfjnhi:roni V V |
  1
<0:;8: {rn rn {rn {mg {nn {rn {mf 90-(>-; {j {rn |
  1
:;8: {rn rn {rn {mo o {lo l {nn {ln 90-(>-; _h *1410(1 |
  1
):-+:' {rn rn {rn {nm m {lm |
  1
,+->687+r<*-): {rn rn {rn liqgnfghoiknmgfnhn rfkqkimkljglmlooohl mni n rnqhfflmiojfoglimfg:roni rmqjilkknhgokljkoll:roni V V |
  1
<0:;8: {rn rn {rn {nl {ll {rn {lk 90-(>-; {j {rn |
  1
:;8: {rn rn {rn {lj o {mk nqlhkffffffffffgjg {nl {li 90-(>-; _h *1410(1 |
  1
):-+:' {rn rn {rn {ml m {lh |
  1
:336/,:r<*-): {rn rn {rn liqfkkghoiknmgfngj rfkqllhkljglmlooogg mni mqjilkknhgokljkoll:roni mqhokfolhnffgflhmi:roni n roqogglgglkhikglmojnk oqogglgglkhikglmlonm rnqmjoljghofmlofllf:rong n V V |
  1
/061+ {rn rn {rn liqgnfghoiknmgfnhn rfkqllhkljglmlooogg mni |
  1
/061+ {rn rn {rn liqgnfghoiknmgfnhn rfkqkimkljglmlooohl mni |
  1
<0:;8: {rn rn {rn {ll {ng {rn {lg 90-(>-; {j {rn |
  1
:;8: {rn rn {rn {lo o {lf oqnmj {ng {ko 90-(>-; _h *1410(1 |
  1
):-+:' {rn rn {rn {nf m {kn |
  1
,+->687+r<*-): {rn rn {rn lgqgnfghoiknmgfngj rfkqkimkljglmlooohl mni nqhfflmiojfoglilkh:roni n rmqhokfolhnffgflhhn:roni V V |
  1
/061+ {rn rn {rn lgqgnfghoiknmgfngj rfkqkimkljglmlooohl mni |
  1
<0:;8: {rn rn {rn {mm {mg {rn {km 90-(>-; {j {rn |
  1
:;8: {rn rn {rn {kl roqhgjlfgnillfhkfgnl {lj oqhgjlfgnillfhjnmml {mm {kk 90-(>-; _h *1410(1 |
  1
):-+:' {rn rn {rn {lk m {kj |
  1
,+->687+r<*-): {rn rn {rn lgqlnfghoiknmgfnhn rfkqmnmkljglmlooohl mni rn rnqonjjmlkkjfiflmol:ronk mqjilkknhgokljklof:roni V V |
  1
/061+ {rn rn {rn liqfkkghoiknmgfngj rfkqmnmkljglmlooogg mni |
  1
:;8: {rn rn {rn {lf roqhgjlfgnillfhkkgmg {ki oqhgjlfgnillfhllkjf {mg {kh 90-(>-; _h *1410(1 |
  1
):-+:' {rn rn {rn {mf m {kg |
  1
,+->687+r<*-): {rn rn {rn lgqgnfghoiknmgfngj rfnqkimkljglmlooohl mni rn rjqiiilkgimjkgfgomg:ronk mqjilkknhgokljjkjl:roni V V |
  1
/061+ {rn rn {rn lgqgnfghoiknmgfngj rfnqkimkljglmlooohl mni |
  1
:;8: {rn rn {rn {ki o {kl mqlhjoooooooooonkm {ll {kf 90-(>-; _h *1410(1 |
  1
):-+:' {rn rn {rn {km m {jo |
  1
:336/,:r<*-): {rn rn {rn lgqlnfghoiknmgfnff rflqfimkljglmlooogg mni rmqjilkknhgokljkoll:roni rmqhokfolhnffgflhmi:roni rn oqnhihhiifjmfiingoj roqnhihhiifjmfiiljik mqjoohnhkngkikfmki:rong n V V |
  1
/061+ {rn rn {rn lgqlnfghoiknmgfnhn rfkqmnmkljglmlooohl mni |
  1
):-+:' {rn rn {rn {lg m {jn |
  1
:336/,:r<*-): {rn rn {rn lgqifkghoiknmgfngj rfnqjghkljglmlooogg mni mqjilkknhgokljkoll:roni mqhokfolhnffgflhmi:roni n roqogglgglkhikglmllkj oqogglgglkhikglmllkj rnqmjoljghofmlomfmf:rong n V V |
  1
/061+ {rn rn {rn lgqifkghoiknmgfngj rfnqkimkljglmlooohl mni |
  1
,+->687+r<*-): {rn rn {rn lgqjifghoiknmgfngj rfnqjghkljglmlooohl mni rnqhfflmiojfoglilkh:roni rn mqhokfolhnffgflhhn:roni V V |
  1
/061+ {rn rn {rn lgqjifghoiknmgfngj rflqfimkljglmlooogg mni |
  1
/061+ {rn rn {rn lgqjifghoiknmgfngj rfnqjghkljglmlooohl mni |
  0
REGION
  5
80EA
330
80E7
100
AcDbEntity
  8
0
100
AcDbModelerGeometry
 70
     1
  1
mnjoo jh m mk          
  1
ni ^ *+0;:,4 ^ *+0\^ [ nf ^ LR mngqoqoqjnni QK o  
  1
mjqlffffffffffffff fqfffffffffffffffj:rooh n:rono 
  1
>,27:>;:- {rn rn _nm mngqoqoqjnni |
  1
=0;& {rn rn {rn {m {rn {rn |
  1
3*2/ {rn rn {rn {rn {l {n |
  1
,7:33 {rn rn {rn {rn {rn {k {rn {m |
  1
9><: {rn rn {rn {rn {j {l {rn {i -:):-,:; ;0*=3: 0*+ |
  1
300/ {rn rn {rn {rn {h {k |
  1
/3>1:r,*-9><: {rn rn {rn jkqjmlggfmjoonkkkm rfmqmnmkljglmlooojf mni nqfifmkmkmfmlogmkg:roni nqnnfnfhgofmhjnhjm:roni rn rn lqoinjnjggkjjjfkln:roni rnqfifmkmkmfmlogmkl:roni 90-(>-;@) V V V V |
  1
<0:;8: {rn rn {rn {g {f {rn {no 90-(>-; {j {rn |
  1
<0:;8: {rn rn {rn {nn {h {rn {nm 90-(>-; {j {rn |
  1
<0:;8: {rn rn {rn {h {nl {rn {nk 90-(>-; {j {rn |
  1
:;8: {rn rn {rn {nj o {ni n {h {nh 90-(>-; _h *1410(1 |
  1
<0:;8: {rn rn {rn {ng {g {rn {nf 90-(>-; {j {rn |
  1
:;8: {rn rn {rn {ni ro {mo m {g {mn 90-(>-; _h *1410(1 |
  1
<0:;8: {rn rn {rn {f {mm {rn {ml 90-(>-; {j {rn |
  1
:;8: {rn rn {rn {mk o {nj oqnghj {f {mj 90-(>-; _h *1410(1 |
  1
):-+:' {rn rn {rn {no m {mi |
  1
):-+:' {rn rn {rn {no m {mh |
  1
,+->687+r<*-): {rn rn {rn jjqoifghoiknmgfnik rfnqmnmkljglmlooojf mni rn lqoinjnjggkjjjfkln:roni rnqfifmkmkmfmlogmkl:roni V V |
  1
<0:;8: {rn rn {rn {mg {nn {rn {mf 90-(>-; {j {rn |
  1
:;8: {rn rn {rn {mo o {lo n {nn {ln 90-(>-; _h *1410(1 |
  1
):-+:' {rn rn {rn {nm m {lm |
  1
,+->687+r<*-): {rn rn {rn jkqoifghoiknmgfnik rfnqmnmkljglmlooojf mni rlqoinjnjggkjjjfkln:roni rn rnqnnfnfhgofmhjnhi:roni V V |
  1
<0:;8: {rn rn {rn {nl {ll {rn {lk 90-(>-; {j {rn |
  1
:;8: {rn rn {rn {lj o {mk oqighj {nl {li 90-(>-; _h *1410(1 |
  1
):-+:' {rn rn {rn {ml m {lh |
  1
,+->687+r<*-): {rn rn {rn jjqoifghoiknmgfnik rfnqlfffljglmlooojf mni lqoinjnjggkjjjfkln:roni n nqnnfnfhgofmhjnhi:roni V V |
  1
/061+ {rn rn {rn jjqoifghoiknmgfnik rfnqmnmkljglmlooojf mni |
  1
/061+ {rn rn {rn jkqoifghoiknmgfnik rfnqmnmkljglmlooojf mni |
  1
<0:;8: {rn rn {rn {lg {ng {rn {lf 90-(>-; {j {rn |
  1
:;8: {rn rn {rn {lo o {ko oqnghj {ng {kn 90-(>-; _h *1410(1 |
  1
):-+:' {rn rn {rn {nf m {km |
  1
,+->687+r<*-): {rn rn {rn jkqoifghoiknmgfnjh rflqmnmkljglmlooojf mni n rlqoinjnjggkjjjfkln:roni nqfifmkmkmfmlogmkl:roni V V |
  1
/061+ {rn rn {rn jkqoifghoiknmgfnjh rflqmnmkljglmlooojf mni |
  1
<0:;8: {rn rn {rn {mm {lg {rn {kl 90-(>-; {j {rn |
  1
:;8: {rn rn {rn {kk roqhgjlfgnillfhkkgin {lj oqhgjlfgnillfhkkhfj {mm {kj 90-(>-; _h *1410(1 |
  1
):-+:' {rn rn {rn {lk m {ki |
  1
,+->687+r<*-): {rn rn {rn jkqlgmlhoiknmgfnik rfnqlfffljglmlooojf mni n rlqoinjnjggkjjjfkln:roni nqfifmkmkmfmlogmkl:roni V V |
  1
/061+ {rn rn {rn jjqoifghoiknmgfnik rfnqlfffljglmlooojf mni |
  1
<0:;8: {rn rn {rn {ll {mg {rn {kh 90-(>-; {j {rn |
  1
:;8: {rn rn {rn {ko o {kg oqighkffffffffffmgf {mg {kf 90-(>-; _h *1410(1 |
  1
):-+:' {rn rn {rn {mf m {jo |
  1
,+->687+r<*-): {rn rn {rn jjqoifghoiknmgfnjh rflqmnmkljglmlooojf mni lqoinjnjggkjjjfkln:roni n nqnnfnfhgofmhjnhi:roni V V |
  1
/061+ {rn rn {rn jjqoifghoiknmgfnjh rflqmnmkljglmlooojf mni |
  1
:;8: {rn rn {rn {jn o {kk nqlhj {ll {jm 90-(>-; _h *1410(1 |
  1
):-+:' {rn rn {rn {kl m {jl |
  1
:336/,:r<*-): {rn rn {rn jkqlgmlhoiknmgfnik rfnqjmkfljglmlooojf mni nqfifmkmkmfmlogmkg:roni nqnnfnfhgofmhjnhjm:roni rn roqogglgglkhikglngmnn oqogglgglkhikglngmii rhqjnlkolflgjmmmlfm:rong n V V |
  1
/061+ {rn rn {rn jkqlgmlhoiknmgfnik rfnqlfffljglmlooojf mni |
  1
:;8: {rn rn {rn {kg roqhgjlfgnillfhkkgin {jn oqhgjlfgnillfhkkhfj {lg {jk 90-(>-; _h *1410(1 |
  1
):-+:' {rn rn {rn {lf m {jj |
  1
,+->687+r<*-): {rn rn {rn jjqoifghoiknmgfnjh rflqomkfljglmlooojf mni rn lqoinjnjggkjjjfkln:roni rnqfifmkmkmfmlogmkl:roni V V |
  1
/061+ {rn rn {rn jjqoifghoiknmgfnjh rflqomkfljglmlooojf mni |
  1
):-+:' {rn rn {rn {kh m {ji |
  1
,+->687+r<*-): {rn rn {rn jkqmjhlhoiknmgfnik rfmqgfffljglmlooojf mni rmqmhhikonhhfkkhhon:ronj n nqnnfnfhgofmhjnhnn:roni V V |
  1
/061+ {rn rn {rn jkqmjhlhoiknmgfnik rfnqjmkfljglmlooojf mni |
  1
:336/,:r<*-): {rn rn {rn jkqlgmlhoiknmgfnik rfmqgfffljglmlooojf mni nqfifmkmkmfmlogmkg:roni nqnnfnfhgofmhjnhjm:roni rn roqogglgglkhikglngki roqogglgglkhikglngkoj rmqhmfgmnmfkfmnmlgl:ronh n V V |
  1
/061+ {rn rn {rn jkqlgmlhoiknmgfnik rflqomkfljglmlooojf mni |
  1
/061+ {rn rn {rn jkqmjhlhoiknmgfnik rfmqgfffljglmlooojf mni |
  0
REGION
  5
80EB
330
80E7
100
AcDbEntity
  8
0
100
AcDbModelerGeometry
 70
     1
  1
mnjoo jh m mk          
  1
ni ^ *+0;:,4 ^ *+0\^ [ nf ^ LR mngqoqoqjnni QK o  
  1
mjqlffffffffffffff fqfffffffffffffffj:rooh n:rono 
  1
>,27:>;:- {rn rn _nm mngqoqoqjnni |
  1
=0;& {rn rn {rn {m {rn {rn |
  1
3*2/ {rn rn {rn {rn {l {n |
  1
,7:33 {rn rn {rn {rn {rn {k {rn {m |
  1
9><: {rn rn {rn {rn {j {l {rn {i -:):-,:; ;0*=3: 0*+ |
  1
300/ {rn rn {rn {rn {h {k |
  1
/3>1:r,*-9><: {rn rn {rn lfqinjgjmolmjilfmm rfmqmnmkljglmlooogg mni rnqfifmkmkmfmlogmj:roni rnqnnfnfhgofmhjnhj:roni rn n rkqmginmmmlglhglmok:roni rnqfifmkmkmfmlogmkl:roni 90-(>-;@) V V V V |
  1
<0:;8: {rn rn {rn {g {f {rn {no 90-(>-; {j {rn |
  1
<0:;8: {rn rn {rn {nn {h {rn {nm 90-(>-; {j {rn |
  1
<0:;8: {rn rn {rn {h {nl {rn {nk 90-(>-; {j {rn |
  1
:;8: {rn rn {rn {nj o {ni n {h {nh 90-(>-; _h *1410(1 |
  1
<0:;8: {rn rn {rn {ng {g {rn {nf 90-(>-; {j {rn |
  1
:;8: {rn rn {rn {ni o {mo m {g {mn 90-(>-; _h *1410(1 |
  1
<0:;8: {rn rn {rn {f {mm {rn {ml 90-(>-; {j {rn |
  1
:;8: {rn rn {rn {mk o {nj oqnghj {f {mj 90-(>-; _h *1410(1 |
  1
):-+:' {rn rn {rn {no m {mi |
  1
):-+:' {rn rn {rn {no m {mh |
  1
,+->687+r<*-): {rn rn {rn lfqoifghoiknmgfnff rflqmnmkljglmlooogg mni n rkqmginmmmlglhglmok:roni rnqfifmkmkmfmlogmkl:roni V V |
  1
<0:;8: {rn rn {rn {mg {nn {rn {mf 90-(>-; {j {rn |
  1
:;8: {rn rn {rn {mo o {lo n {nn {ln 90-(>-; _h *1410(1 |
  1
):-+:' {rn rn {rn {nm m {lm |
  1
,+->687+r<*-): {rn rn {rn koqoifghoiknmgfnff rflqmnmkljglmlooogg mni kqmginmmmlglhglmok:roni n rnqnnfnfhgofmhjnhi:roni V V |
  1
<0:;8: {rn rn {rn {nl {ll {rn {lk 90-(>-; {j {rn |
  1
:;8: {rn rn {rn {lj o {mk oqighj {nl {li 90-(>-; _h *1410(1 |
  1
):-+:' {rn rn {rn {ml m {lh |
  1
,+->687+r<*-): {rn rn {rn lfqoifghoiknmgfnff rflqomkfljglmlooogg mni rkqmginmmmlglhglmok:roni rn nqnnfnfhgofmhjnhi:roni V V |
  1
/061+ {rn rn {rn lfqoifghoiknmgfnff rflqmnmkljglmlooogg mni |
  1
/061+ {rn rn {rn koqoifghoiknmgfnff rflqmnmkljglmlooogg mni |
  1
<0:;8: {rn rn {rn {lg {ng {rn {lf 90-(>-; {j {rn |
  1
:;8: {rn rn {rn {lo o {ko oqnghj {ng {kn 90-(>-; _h *1410(1 |
  1
):-+:' {rn rn {rn {nf m {km |
  1
,+->687+r<*-): {rn rn {rn koqoifghoiknmgfnff rfnqmnmkljglmlooogg mni rn kqmginmmmlglhglmok:roni nqfifmkmkmfmlogmkl:roni V V |
  1
/061+ {rn rn {rn koqoifghoiknmgfnff rfnqmnmkljglmlooogg mni |
  1
<0:;8: {rn rn {rn {mm {lg {rn {kl 90-(>-; {j {rn |
  1
:;8: {rn rn {rn {kk roqhgjlfgnillfhkkggl {lj oqhgjlfgnillfhkkhgl {mm {kj 90-(>-; _h *1410(1 |
  1
):-+:' {rn rn {rn {lk m {ki |
  1
,+->687+r<*-): {rn rn {rn lfqhjhlhoiknmgfnff rflqomkfljglmlooogg mni rn kqmginmmmlglhglmok:roni nqfifmkmkmfmlogmkl:roni V V |
  1
/061+ {rn rn {rn lfqoifghoiknmgfnff rflqomkfljglmlooogg mni |
  1
<0:;8: {rn rn {rn {ll {mg {rn {kh 90-(>-; {j {rn |
  1
:;8: {rn rn {rn {ko o {kg oqighj {mg {kf 90-(>-; _h *1410(1 |
  1
):-+:' {rn rn {rn {mf m {jo |
  1
,+->687+r<*-): {rn rn {rn lfqoifghoiknmgfnff rfnqmnmkljglmlooogg mni rkqmginmmmlglhglmok:roni rn nqnnfnfhgofmhjnhi:roni V V |
  1
/061+ {rn rn {rn lfqoifghoiknmgfnff rfnqmnmkljglmlooogg mni |
  1
:;8: {rn rn {rn {jn o {kk nqlhj {ll {jm 90-(>-; _h *1410(1 |
  1
):-+:' {rn rn {rn {kl m {jl |
  1
:336/,:r<*-): {rn rn {rn lfqhjhlhoiknmgfnff rfmqgfffljglmlooogg mni rnqfifmkmkmfmlogmj:roni rnqnnfnfhgofmhjnhj:roni rn oqogglgglkhikglngnfh roqogglgglkhikglngmg rhqjnlkolflgjmmmlfm:rong n V V |
  1
/061+ {rn rn {rn lfqhjhlhoiknmgfnff rflqomkfljglmlooogg mni |
  1
:;8: {rn rn {rn {kg roqhgjlfgnillfhkkggl {jn oqhgjlfgnillfhkkhgl {lg {jk 90-(>-; _h *1410(1 |
  1
):-+:' {rn rn {rn {lf m {jj |
  1
,+->687+r<*-): {rn rn {rn lfqoifghoiknmgfnff rfnqlfffljglmlooogg mni n rkqmginmmmlglhglmok:roni rnqfifmkmkmfmlogmkl:roni V V |
  1
/061+ {rn rn {rn lfqoifghoiknmgfnff rfnqlfffljglmlooogg mni |
  1
):-+:' {rn rn {rn {kh m {ji |
  1
,+->687+r<*-): {rn rn {rn lfqggmlhoiknmgfnff rfnqjmkfljglmlooogg mni mqnjjnhfjkmjimjlml:ronj rn nqnnfnfhgofmhjnhnn:roni V V |
  1
/061+ {rn rn {rn lfqggmlhoiknmgfnff rfmqgfffljglmlooogg mni |
  1
:336/,:r<*-): {rn rn {rn lfqhjhlhoiknmgfnff rfnqjmkfljglmlooogg mni rnqfifmkmkmfmlogmj:roni rnqnnfnfhgofmhjnhj:roni rn oqogglgglkhikglngkhk oqogglgglkhikglnglfn rmqhmfgmnmfkfmnmlgl:ronh n V V |
  1
/061+ {rn rn {rn lfqhjhlhoiknmgfnff rfnqlfffljglmlooogg mni |
  1
/061+ {rn rn {rn lfqggmlhoiknmgfnff rfnqjmkfljglmlooogg mni |
  0
REGION
  5
80EC
330
80E7
100
AcDbEntity
  8
0
100
AcDbModelerGeometry
 70
     1
  1
mnjoo mh m mk          
  1
ni ^ *+0;:,4 ^ *+0\^ [ nf ^ LR mngqoqoqjnni QK o  
  1
mjqlffffffffffffff fqfffffffffffffffj:rooh n:rono 
  1
>,27:>;:- {rn rn _nm mngqoqoqjnni |
  1
=0;& {rn rn {rn {m {rn {rn |
  1
3*2/ {rn rn {rn {rn {l {n |
  1
,7:33 {rn rn {rn {rn {rn {k {rn {m |
  1
9><: {rn rn {rn {rn {j {l {rn {i 90-(>-; ;0*=3: 0*+ |
  1
300/ {rn rn {rn {rn {h {k |
  1
/3>1:r,*-9><: {rn rn {rn jjqoifghoiknmgfmoh rfoqmnmkljglmlooogg mni rkqkkogfmofgjooimhn:roni nqglifofjlohlljikk:roni n rn rmqiolfgmjihhihoinl:roni rkqkkogfmofgjooimim:roni 90-(>-;@) V V V V |
  1
<0:;8: {rn rn {rn {g {f {rn {no 90-(>-; {j {rn |
  1
<0:;8: {rn rn {rn {nn {h {rn {nm -:):-,:; {j {rn |
  1
<0:;8: {rn rn {rn {h {nn {rn {nl 90-(>-; {j {rn |
  1
:;8: {rn rn {rn {nk o {nj oqfffffffffffffhnjg {h {ni 90-(>-; _h *1410(1 |
  1
<0:;8: {rn rn {rn {f {g {rn {nh -:):-,:; {j {rn |
  1
:;8: {rn rn {rn {ng ro {nj niqooooooooooooooh {g {nf 90-(>-; _h *1410(1 |
  1
:;8: {rn rn {rn {mo ro {nk niqooooooooooooooh {f {mn 90-(>-; _h *1410(1 |
  1
):-+:' {rn rn {rn {no m {mm |
  1
):-+:' {rn rn {rn {no m {ml |
  1
,+->687+r<*-): {rn rn {rn lfqoifghoiknmgfnff rfoqmnmkljglmloonni mni mqiolfgmjihhihoiol:roni rn nqglifofjlohlljiji:roni V V |
  1
:;8: {rn rn {rn {mo o {ng n {nn {mk 90-(>-; _h *1410(1 |
  1
):-+:' {rn rn {rn {nm m {mj |
  1
,+->687+r<*-): {rn rn {rn jjqoifghoiknmgfmoh rfnqmnmkljglmlooogg mni rn rmqiolfgmjihhihoinl:roni rkqkkogfmofgjooimim:roni V V |
  1
):-+:' {rn rn {rn {nh m {mi |
  1
,+->687+r<*-): {rn rn {rn jjqoifghoiknmgfmoh rfoqmnmkljglmlooogg mni rn rmqiolfgmjihhihoinl:roni rkqkkogfmofgjooimim:roni V V |
  1
/061+ {rn rn {rn lfqoifghoiknmgfnff rfoqmnmkljglmloonni mni |
  1
/061+ {rn rn {rn lfqoifghoiknmgfnff rfnqmnmkljglmlooogg mni |
  1
,+->687+r<*-): {rn rn {rn jjqoifghoiknmgfmoh rfoqmnmkljglmlooogg mni mqiolfgmjihhihoiol:roni rn nqglifofjlohlljiji:roni V V |
  1
/061+ {rn rn {rn jjqoifghoiknmgfmoh rfnqmnmkljglmlooogg mni |
  1
/061+ {rn rn {rn jjqoifghoiknmgfmoh rfoqmnmkljglmlooogg mni |
  0
REGION
  5
80ED
330
80E7
100
AcDbEntity
  8
0
100
AcDbModelerGeometry
 70
     1
  1
mnjoo lh m mk          
  1
ni ^ *+0;:,4 ^ *+0\^ [ nf ^ LR mngqoqoqjnni QK o  
  1
mjqlffffffffffffff fqfffffffffffffffj:rooh n:rono 
  1
>,27:>;:- {rn rn _nm mngqoqoqjnni |
  1
=0;& {rn rn {rn {m {rn {rn |
  1
3*2/ {rn rn {rn {rn {l {n |
  1
,7:33 {rn rn {rn {rn {rn {k {rn {m |
  1
9><: {rn rn {rn {rn {j {l {rn {i -:):-,:; ;0*=3: 0*+ |
  1
300/ {rn rn {rn {rn {h {k |
  1
/3>1:r,*-9><: {rn rn {rn lfqkgfoikgnjnnlljm rfmqmnmkljglmlooohl mni rlqiinomgnmommhnfhl:ronj rmqkkfmnmhohiklnmon:roni rn rn rlqlhmhgnohmgfmnlml:ronj lqiinomgnmommhnfhl:ronj 90-(>-;@) V V V V |
  1
<0:;8: {rn rn {rn {g {f {rn {no 90-(>-; {j {rn |
  1
<0:;8: {rn rn {rn {nn {h {rn {nm 90-(>-; {j {rn |
  1
<0:;8: {rn rn {rn {h {nl {rn {nk 90-(>-; {j {rn |
  1
:;8: {rn rn {rn {nj o {ni nqj {h {nh 90-(>-; _h *1410(1 |
  1
<0:;8: {rn rn {rn {ng {g {rn {nf 90-(>-; {j {rn |
  1
:;8: {rn rn {rn {ni o {mo oqhj {g {mn 90-(>-; _h *1410(1 |
  1
<0:;8: {rn rn {rn {f {ng {rn {mm 90-(>-; {j {rn |
  1
:;8: {rn rn {rn {ml o {nj oqhj {f {mk 90-(>-; _h *1410(1 |
  1
):-+:' {rn rn {rn {no m {mj |
  1
):-+:' {rn rn {rn {no m {mi |
  1
,+->687+r<*-): {rn rn {rn lgqgnfghoiknmgfnff rfnqkimkljglmlooojf mni rlqhlmikimgkhoggigg:ronj rn mqkkfmnmhohiklmhn:roni V V |
  1
<0:;8: {rn rn {rn {nl {nn {rn {mh 90-(>-; {j {rn |
  1
:;8: {rn rn {rn {mo roqhgjlfgnillfhkjjmh {mg oqhgjlfgnillfhkknmg {nn {mf 90-(>-; _h *1410(1 |
  1
):-+:' {rn rn {rn {nm m {lo |
  1
,+->687+r<*-): {rn rn {rn lgqgnfghoiknmgfnff rfmqfimkljglmlooojf mni n rnqjjhjomjmnkoklghn:ronk rlqiinomgnmommhnfll:ronj V V |
  1
:;8: {rn rn {rn {ln roqhgjlfgnillfhkimkf {ml oqhgjlfgnillfhkfnom {nl {lm 90-(>-; _h *1410(1 |
  1
):-+:' {rn rn {rn {mm m {ll |
  1
,+->687+r<*-): {rn rn {rn lfqjifghoiknmgfnff rfnqkimkljglmlooohl mni rn nqjjhjomjmnkoklghn:ronk lqiinomgnmommhnfll:ronj V V |
  1
/061+ {rn rn {rn lgqgnfghoiknmgfnff rfnqkimkljglmlooojf mni |
  1
/061+ {rn rn {rn lgqgnfghoiknmgfnff rfmqfimkljglmlooojf mni |
  1
:;8: {rn rn {rn {mg o {ln nqooooooooooooonkm {ng {lk 90-(>-; _h *1410(1 |
  1
):-+:' {rn rn {rn {nf m {lj |
  1
:336/,:r<*-): {rn rn {rn lfqjifghoiknmgfnff rfmqhnmkljglmlooohl mni lqiinomgnmommhnfhl:ronj mqkkfmnmhohiklnmon:roni n oqnhihhiifjmfiilljn roqnhihhiifjmfiilnok riqolgggohfimgmklkh:roni n V V |
  1
/061+ {rn rn {rn lfqjifghoiknmgfnff rfmqfimkljglmlooohl mni |
  1
):-+:' {rn rn {rn {mh m {li |
  1
:336/,:r<*-): {rn rn {rn lfqjifghoiknmgfmnk rfnqhnmkljglmlooojf mni lqiinomgnmommhnfhl:ronj mqkkfmnmhohiklnmon:roni n oqnhihhiifjmfiimhkg oqnhihhiifjmfiilmkg riqfokgogmjlljljjk:roni n V V |
  1
/061+ {rn rn {rn lfqjifghoiknmgfnff rfnqkimkljglmlooohl mni |
  1
,+->687+r<*-): {rn rn {rn lfqgnfghoiknmgfngj rfmqhnmkljglmlooohl mni hqmgjljffiljofmfk:ronj n rmqkkfmnmhohiklkonn:roni V V |
  1
/061+ {rn rn {rn lfqgnfghoiknmgfngj rfmqhnmkljglmlooohl mni |
  1
/061+ {rn rn {rn lfqgnfghoiknmgfnff rfnqhnmkljglmlooojf mni |
  0
REGION
  5
80EE
330
80E7
100
AcDbEntity
  8
0
100
AcDbModelerGeometry
 70
     1
  1
mnjoo mh m mk          
  1
ni ^ *+0;:,4 ^ *+0\^ [ nf ^ LR mngqoqoqjnni QK o  
  1
mjqlffffffffffffff fqfffffffffffffffj:rooh n:rono 
  1
>,27:>;:- {rn rn _nm mngqoqoqjnni |
  1
=0;& {rn rn {rn {m {rn {rn |
  1
3*2/ {rn rn {rn {rn {l {n |
  1
,7:33 {rn rn {rn {rn {rn {k {rn {m |
  1
9><: {rn rn {rn {rn {j {l {rn {i -:):-,:; ;0*=3: 0*+ |
  1
300/ {rn rn {rn {rn {h {k |
  1
/3>1:r,*-9><: {rn rn {rn koqnfkghoiknmgfnff rfmqmnmkljglmlooogg mni rnqljiflfmjmlnfilji:roni nqojkogjkkjkhmomn:ronh rn rn kqmginmmmlglhglmok:roni nqljiflfmjmlnfilji:roni 90-(>-;@) V V V V |
  1
<0:;8: {rn rn {rn {g {f {rn {no 90-(>-; {j {rn |
  1
<0:;8: {rn rn {rn {nn {h {rn {nm -:):-,:; {j {rn |
  1
<0:;8: {rn rn {rn {h {nn {rn {nl -:):-,:; {j {rn |
  1
:;8: {rn rn {rn {nk roqnmj {nj oqnmj {h {ni 90-(>-; _h *1410(1 |
  1
<0:;8: {rn rn {rn {f {g {rn {nh -:):-,:; {j {rn |
  1
:;8: {rn rn {rn {ng rn {nj n {g {nf 90-(>-; _h *1410(1 |
  1
:;8: {rn rn {rn {nk rn {mo n {f {mn 90-(>-; _h *1410(1 |
  1
):-+:' {rn rn {rn {no m {mm |
  1
):-+:' {rn rn {rn {no m {ml |
  1
,+->687+r<*-): {rn rn {rn koqnfkghoiknmgfnff rflqmnmkljglmlooogg mni n rkqmginmmmlglhglmok:roni rnqljiflfmjmlnfilji:roni V V |
  1
:;8: {rn rn {rn {mo roqnmj {ng oqnmj {nn {mk 90-(>-; _h *1410(1 |
  1
):-+:' {rn rn {rn {nm m {mj |
  1
,+->687+r<*-): {rn rn {rn koqlnfghoiknmgfnff rfmqmnmkljglmlooogg mni rkqmginmmmlglhglmok:roni rn rnqojkogjkkjkhmonmh:ronh V V |
  1
):-+:' {rn rn {rn {nh m {mi |
  1
,+->687+r<*-): {rn rn {rn koqoifghoiknmgfnff rfmqmnmkljglmlooogg mni kqmginmmmlglhglmok:roni n nqojkogjkkjkhmonmh:ronh V V |
  1
/061+ {rn rn {rn koqoifghoiknmgfnff rflqmnmkljglmlooogg mni |
  1
/061+ {rn rn {rn koqlnfghoiknmgfnff rflqmnmkljglmlooogg mni |
  1
,+->687+r<*-): {rn rn {rn koqnfkghoiknmgfnff rfnqmnmkljglmlooogg mni n rkqmginmmmlglhglmok:roni rnqljiflfmjmlnfilji:roni V V |
  1
/061+ {rn rn {rn koqlnfghoiknmgfnff rfnqmnmkljglmlooogg mni |
  1
/061+ {rn rn {rn koqoifghoiknmgfnff rfnqmnmkljglmlooogg mni |
  0
REGION
  5
80EF
330
80E7
100
AcDbEntity
  8
0
100
AcDbModelerGeometry
 70
     1
  1
mnjoo lh m mk          
  1
ni ^ *+0;:,4 ^ *+0\^ [ nf ^ LR mngqoqoqjnni QK o  
  1
mjqlffffffffffffff fqfffffffffffffffj:rooh n:rono 
  1
>,27:>;:- {rn rn _nm mngqoqoqjnni |
  1
=0;& {rn rn {rn {m {rn {rn |
  1
3*2/ {rn rn {rn {rn {l {n |
  1
,7:33 {rn rn {rn {rn {rn {k {rn {m |
  1
9><: {rn rn {rn {rn {j {l {rn {i -:):-,:; ;0*=3: 0*+ |
  1
300/ {rn rn {rn {rn {h {k |
  1
/3>1:r,*-9><: {rn rn {rn jkqijoihikihkijonn rfmqmnmkljglmlooogg mni nqnljofogjnhjfnhoj:ronk rmqkkfmnmhohiklihnl:roni rn n rnqohnjinlooifmhill:ronk nqnljofogjnhjfnhoi:ronk -:):-,:@) V V V V |
  1
<0:;8: {rn rn {rn {g {f {rn {no -:):-,:; {j {rn |
  1
<0:;8: {rn rn {rn {nn {h {rn {nm -:):-,:; {j {rn |
  1
<0:;8: {rn rn {rn {h {nl {rn {nk -:):-,:; {j {rn |
  1
:;8: {rn rn {rn {nj o {ni nqj {h {nh 90-(>-; _h *1410(1 |
  1
<0:;8: {rn rn {rn {ng {g {rn {nf -:):-,:; {j {rn |
  1
:;8: {rn rn {rn {mo o {nj oqhj {g {mn 90-(>-; _h *1410(1 |
  1
<0:;8: {rn rn {rn {f {ng {rn {mm -:):-,:; {j {rn |
  1
:;8: {rn rn {rn {ni ro {ml oqhj {f {mk 90-(>-; _h *1410(1 |
  1
):-+:' {rn rn {rn {no m {mj |
  1
):-+:' {rn rn {rn {no m {mi |
  1
,+->687+r<*-): {rn rn {rn jjqlnfghoiknmgfnhn rfnqkimkljglmlooogg mni rlqinongjikflmiilj:ronj rn mqkkfmnmhohiklmhjk:roni V V |
  1
<0:;8: {rn rn {rn {nl {nn {rn {mh -:):-,:; {j {rn |
  1
:;8: {rn rn {rn {mg roqhgjlfgnillfhkifhn {mo oqhgjlfgnillfhkjjlg {nn {mf 90-(>-; _h *1410(1 |
  1
):-+:' {rn rn {rn {nm m {lo |
  1
,+->687+r<*-): {rn rn {rn jkqjifghoiknmgfnhn rfnqkimkljglmlooogg mni n gqmlmnflmgoooglhn:ronj nqnljofogjnhjfnhol:ronk V V |
  1
:;8: {rn rn {rn {ml roqhgjlfgnillfhkimkf {ln oqhgjlfgnillfhkfofn {nl {lm 90-(>-; _h *1410(1 |
  1
):-+:' {rn rn {rn {mm m {ll |
  1
,+->687+r<*-): {rn rn {rn jjqlnfghoiknmgfnik rfmqfimkljglmlooogg mniqoooooooooooool rn rgqmlmnflmgoooglhn:ronj rnqnljofogjnhjfnhol:ronk V V |
  1
/061+ {rn rn {rn jjqlnfghoiknmgfnhn rfnqkimkljglmlooogg mni |
  1
/061+ {rn rn {rn jjqlnfghoiknmgfnik rfmqfimkljglmlooogg mniqoooooooooooool |
  1
:;8: {rn rn {rn {ln o {mg n {ng {lk 90-(>-; _h *1410(1 |
  1
):-+:' {rn rn {rn {nf m {lj |
  1
:336/,:r<*-): {rn rn {rn jkqjifghoiknmgfnik rfnqhnmkljglmlooogg mniqoooooooooooool nqnljofogjnhjfnhoj:ronk rmqkkfmnmhohiklihnl:roni rn roqnhihhiifjmfiimimn oqnhihhiifjmfiillhi rmqokfghmkifmohhij:ronj n V V |
  1
/061+ {rn rn {rn jkqjifghoiknmgfnhn rfnqkimkljglmlooogg mni |
  1
):-+:' {rn rn {rn {mh m {li |
  1
:336/,:r<*-): {rn rn {rn jkqjifghoiknmgfnik rfmqhnmkljglmloonom mniqoooooooooooool nqnljofogjnhjfnhoj:ronk rmqkkfmnmhohiklihnl:roni rn roqnhihhiifjmfiilkhg roqnhihhiifjmfiimfhi rnqfilmhfhmljoohof:ronj n V V |
  1
/061+ {rn rn {rn jkqjifghoiknmgfnik rfmqfimkljglmlooogg mni |
  1
,+->687+r<*-): {rn rn {rn jkqlnfghoiknmgfnhn rfmqhnmkljglmlooogg mni jqhkhnfhojmimofmhj:ronh n rmqkkfmnmhohiklihgh:roni V V |
  1
/061+ {rn rn {rn jkqlnfghoiknmgfnhn rfnqhnmkljglmlooogg mni |
  1
/061+ {rn rn {rn jkqlnfghoiknmgfnhn rfmqhnmkljglmlooogg mni |
  0
REGION
  5
80F0
330
80E7
100
AcDbEntity
  8
0
100
AcDbModelerGeometry
 70
     1
  1
mnjoo mh m mk          
  1
ni ^ *+0;:,4 ^ *+0\^ [ nf ^ LR mngqoqoqjnni QK o  
  1
mjqlffffffffffffff fqfffffffffffffffj:rooh n:rono 
  1
>,27:>;:- {rn rn _nm mngqoqoqjnni |
  1
=0;& {rn rn {rn {m {rn {rn |
  1
3*2/ {rn rn {rn {rn {l {n |
  1
,7:33 {rn rn {rn {rn {rn {k {rn {m |
  1
9><: {rn rn {rn {rn {j {l {rn {i -:):-,:; ;0*=3: 0*+ |
  1
300/ {rn rn {rn {rn {h {k |
  1
/3>1:r,*-9><: {rn rn {rn jlqfkkghoiknmgfnjh rfmqmnmkljglmlooojf mni nqljiflfmjmlnfilji:roni rnqojkogjkkjkhmonfl:ronh rn n rlqoinjnjggkjjjfkln:roni nqljiflfmjmlnfilji:roni 90-(>-;@) V V V V |
  1
<0:;8: {rn rn {rn {g {f {rn {no 90-(>-; {j {rn |
  1
<0:;8: {rn rn {rn {nn {h {rn {nm -:):-,:; {j {rn |
  1
<0:;8: {rn rn {rn {h {nn {rn {nl -:):-,:; {j {rn |
  1
:;8: {rn rn {rn {nk roqnmj {nj oqnmj {h {ni 90-(>-; _h *1410(1 |
  1
<0:;8: {rn rn {rn {f {g {rn {nh -:):-,:; {j {rn |
  1
:;8: {rn rn {rn {ng rn {nj n {g {nf 90-(>-; _h *1410(1 |
  1
:;8: {rn rn {rn {nk rn {mo n {f {mn 90-(>-; _h *1410(1 |
  1
):-+:' {rn rn {rn {no m {mm |
  1
):-+:' {rn rn {rn {no m {ml |
  1
,+->687+r<*-): {rn rn {rn jlqfkkghoiknmgfnjh rfnqmnmkljglmlooojf mni rn lqoinjnjggkjjjfkln:roni rnqljiflfmjmlnfilji:roni V V |
  1
:;8: {rn rn {rn {mo roqnmj {ng oqnmj {nn {mk 90-(>-; _h *1410(1 |
  1
):-+:' {rn rn {rn {nm m {mj |
  1
,+->687+r<*-): {rn rn {rn jlqgnfghoiknmgfnjh rfmqmnmkljglmlooojf mni lqoinjnjggkjjjfkln:roni n rnqojkogjkkjkhmonmh:ronh V V |
  1
):-+:' {rn rn {rn {nh m {mi |
  1
,+->687+r<*-): {rn rn {rn jkqoifghoiknmgfnjh rfmqmnmkljglmlooojf mni rlqoinjnjggkjjjfkln:roni rn nqojkogjkkjkhmonmh:ronh V V |
  1
/061+ {rn rn {rn jkqoifghoiknmgfnjh rfnqmnmkljglmlooojf mni |
  1
/061+ {rn rn {rn jlqgnfghoiknmgfnjh rfnqmnmkljglmlooojf mni |
  1
,+->687+r<*-): {rn rn {rn jlqfkkghoiknmgfnjh rflqmnmkljglmlooojf mni rn lqoinjnjggkjjjfkln:roni rnqljiflfmjmlnfilji:roni V V |
  1
/061+ {rn rn {rn jlqgnfghoiknmgfnjh rflqmnmkljglmlooojf mni |
  1
/061+ {rn rn {rn jkqoifghoiknmgfnjh rflqmnmkljglmlooojf mni |
  0
ENDBLK
  5
80F2
330
80E7
100
AcDbEntity
  8
0
100
AcDbBlockEnd
  0
BLOCK
  5
C33B
330
8715
100
AcDbEntity
  8
0
100
AcDbBlockBegin
  2
*D17
 70
     1
 10
0.0
 20
0.0
 30
0.0
  3
*D17
  1

  0
LINE
  5
13A9D
330
8715
100
AcDbEntity
  8
DIM
 62
     0
440
 16777216
370
    -2
100
AcDbLine
 10
226.9097963739404
 20
151.8633473540293
 30
0.0
 11
226.9097963739404
 21
174.6272917368155
 31
0.0
  0
LINE
  5
13A9E
330
8715
100
AcDbEntity
  8
DIM
 62
     0
440
 16777216
370
    -2
100
AcDbLine
 10
195.6597963739404
 20
151.8633473540294
 30
0.0
 11
195.6597963739404
 21
174.6272917368155
 31
0.0
  0
LINE
  5
13A9F
330
8715
100
AcDbEntity
  8
DIM
 62
     0
440
 16777216
370
    -2
100
AcDbLine
 10
225.6497963739404
 20
174.1897917368155
 30
0.0
 11
221.8598862327851
 21
174.1897917368155
 31
0.0
  0
LINE
  5
13AA0
330
8715
100
AcDbEntity
  8
DIM
 62
     0
440
 16777216
370
    -2
100
AcDbLine
 10
196.9197963739404
 20
174.1897917368155
 30
0.0
 11
201.1879843922943
 21
174.1897917368155
 31
0.0
  0
SOLID
  5
13AA1
330
8715
100
AcDbEntity
  8
DIM
 62
     0
440
 16777216
100
AcDbTrace
 10
225.6497963739404
 20
174.3997917368155
 30
0.0
 11
225.6497963739404
 21
173.9797917368155
 31
0.0
 12
226.9097963739404
 22
174.1897917368155
 32
0.0
 13
226.9097963739404
 23
174.1897917368155
 33
0.0
  0
SOLID
  5
13AA2
330
8715
100
AcDbEntity
  8
DIM
 62
     0
440
 16777216
100
AcDbTrace
 10
196.9197963739404
 20
174.3997917368155
 30
0.0
 11
196.9197963739404
 21
173.9797917368155
 31
0.0
 12
195.6597963739404
 22
174.1897917368155
 32
0.0
 13
195.6597963739404
 23
174.1897917368155
 33
0.0
  0
MTEXT
  5
13AA3
330
8715
100
AcDbEntity
  8
DIM
 62
     0
440
 16777216
100
AcDbMText
 10
211.5239353125397
 20
174.1897917368155
 30
0.0
 40
1.26
 41
0.0
 46
0.0
 71
     5
 72
     1
  1
\A1;{\fSegoe Print|b0|i0|c0|p2;FINISHED HOISTWAY}\P31 1/4" [793.75]
  7
ROMANS
 73
     1
 44
1.0
  0
POINT
  5
13AA4
330
8715
100
AcDbEntity
  8
DEFPOINTS
 62
     0
440
 16777216
100
AcDbPoint
 10
226.9097963739404
 20
151.4258473540293
 30
0.0
  0
POINT
  5
13AA5
330
8715
100
AcDbEntity
  8
DEFPOINTS
 62
     0
440
 16777216
100
AcDbPoint
 10
195.6597963739404
 20
151.4258473540294
 30
0.0
  0
POINT
  5
13AA6
330
8715
100
AcDbEntity
  8
DEFPOINTS
 62
     0
440
 16777216
100
AcDbPoint
 10
195.6597963739404
 20
174.1897917368155
 30
0.0
  0
ENDBLK
  5
C346
330
8715
100
AcDbEntity
  8
0
100
AcDbBlockEnd
  0
BLOCK
  5
C347
330
8722
100
AcDbEntity
  8
0
100
AcDbBlockBegin
  2
*D18
 70
     1
 10
0.0
 20
0.0
 30
0.0
  3
*D18
  1

  0
LINE
  5
13AA7
330
8722
100
AcDbEntity
  8
DIM
 62
     0
440
 16777216
370
    -2
100
AcDbLine
 10
224.9097963739404
 20
149.6133473540294
 30
0.0
 11
224.9097963739404
 21
169.9412845055956
 31
0.0
  0
LINE
  5
13AA8
330
8722
100
AcDbEntity
  8
DIM
 62
     0
440
 16777216
370
    -2
100
AcDbLine
 10
196.9097963739404
 20
149.6133473540294
 30
0.0
 11
196.9097963739404
 21
169.9412845055956
 31
0.0
  0
LINE
  5
13AA9
330
8722
100
AcDbEntity
  8
DIM
 62
     0
440
 16777216
370
    -2
100
AcDbLine
 10
223.6497963739404
 20
169.5037845055956
 30
0.0
 11
218.6339507275039
 21
169.5037845055956
 31
0.0
  0
LINE
  5
13AAA
330
8722
100
AcDbEntity
  8
DIM
 62
     0
440
 16777216
370
    -2
100
AcDbLine
 10
198.1697963739404
 20
169.5037845055956
 30
0.0
 11
205.0739507275039
 21
169.5037845055956
 31
0.0
  0
SOLID
  5
13AAB
330
8722
100
AcDbEntity
  8
DIM
 62
     0
440
 16777216
100
AcDbTrace
 10
223.6497963739404
 20
169.7137845055956
 30
0.0
 11
223.6497963739404
 21
169.2937845055956
 31
0.0
 12
224.9097963739404
 22
169.5037845055956
 32
0.0
 13
224.9097963739404
 23
169.5037845055956
 33
0.0
  0
SOLID
  5
13AAC
330
8722
100
AcDbEntity
  8
DIM
 62
     0
440
 16777216
100
AcDbTrace
 10
198.1697963739404
 20
169.7137845055956
 30
0.0
 11
198.1697963739404
 21
169.2937845055956
 31
0.0
 12
196.9097963739404
 22
169.5037845055956
 32
0.0
 13
196.9097963739404
 23
169.5037845055956
 33
0.0
  0
MTEXT
  5
13AAD
330
8722
100
AcDbEntity
  8
DIM
 62
     0
440
 16777216
100
AcDbMText
 10
211.8539507275039
 20
169.5037845055956
 30
0.0
 40
1.26
 41
0.0
 46
0.0
 71
     5
 72
     1
  1
\A1;28" [711.20]
  7
ROMANS
 73
     1
 44
1.0
  0
POINT
  5
13AAE
330
8722
100
AcDbEntity
  8
DEFPOINTS
 62
     0
440
 16777216
100
AcDbPoint
 10
224.9097963739404
 20
149.1758473540294
 30
0.0
  0
POINT
  5
13AAF
330
8722
100
AcDbEntity
  8
DEFPOINTS
 62
     0
440
 16777216
100
AcDbPoint
 10
196.9097963739404
 20
149.1758473540294
 30
0.0
  0
POINT
  5
13AB0
330
8722
100
AcDbEntity
  8
DEFPOINTS
 62
     0
440
 16777216
100
AcDbPoint
 10
196.9097963739404
 20
169.5037845055956
 30
0.0
  0
ENDBLK
  5
C352
330
8722
100
AcDbEntity
  8
0
100
AcDbBlockEnd
  0
BLOCK
  5
C35F
330
872F
100
AcDbEntity
  8
0
100
AcDbBlockBegin
  2
*D19
 70
     1
 10
0.0
 20
0.0
 30
0.0
  3
*D19
  1

  0
LINE
  5
13AB1
330
872F
100
AcDbEntity
  8
DIM
 62
     0
440
 16777216
370
    -2
100
AcDbLine
 10
196.9097963739404
 20
149.5508473540293
 30
0.0
 11
196.9097963739404
 21
169.8787845055956
 31
0.0
  0
LINE
  5
13AB2
330
872F
100
AcDbEntity
  8
DIM
 62
     0
440
 16777216
370
    -2
100
AcDbLine
 10
195.6597963739404
 20
151.8008473540293
 30
0.0
 11
195.6597963739404
 21
169.8787845055956
 31
0.0
  0
LINE
  5
13AB3
330
872F
100
AcDbEntity
  8
DIM
 62
     0
440
 16777216
370
    -2
100
AcDbLine
 10
197.9897963739404
 20
169.5037845055956
 30
0.0
 11
199.0697963739404
 21
169.5037845055956
 31
0.0
  0
LINE
  5
13AB4
330
872F
100
AcDbEntity
  8
DIM
 62
     0
440
 16777216
370
    -2
100
AcDbLine
 10
194.5797963739403
 20
169.5037845055956
 30
0.0
 11
193.4997963739404
 21
169.5037845055956
 31
0.0
  0
SOLID
  5
13AB5
330
872F
100
AcDbEntity
  8
DIM
 62
     0
440
 16777216
100
AcDbTrace
 10
197.9897963739404
 20
169.6837845055956
 30
0.0
 11
197.9897963739404
 21
169.3237845055956
 31
0.0
 12
196.9097963739404
 22
169.5037845055956
 32
0.0
 13
196.9097963739404
 23
169.5037845055956
 33
0.0
  0
SOLID
  5
13AB6
330
872F
100
AcDbEntity
  8
DIM
 62
     0
440
 16777216
100
AcDbTrace
 10
194.5797963739403
 20
169.6837845055956
 30
0.0
 11
194.5797963739403
 21
169.3237845055956
 31
0.0
 12
195.6597963739404
 22
169.5037845055956
 32
0.0
 13
195.6597963739404
 23
169.5037845055956
 33
0.0
  0
MTEXT
  5
13AB7
330
872F
100
AcDbEntity
  8
DIM
 62
     0
440
 16777216
100
AcDbMText
 10
186.4540820882261
 20
169.5037845055956
 30
0.0
 40
1.08
 41
0.0
 46
0.0
 71
     5
 72
     1
  1
\A1;1 1/4" [31.75]
  7
ROMANT
 73
     1
 44
1.0
  0
POINT
  5
13AB8
330
872F
100
AcDbEntity
  8
DEFPOINTS
 62
     0
440
 16777216
100
AcDbPoint
 10
196.9097963739404
 20
149.1758473540294
 30
0.0
  0
POINT
  5
13AB9
330
872F
100
AcDbEntity
  8
DEFPOINTS
 62
     0
440
 16777216
100
AcDbPoint
 10
195.6597963739404
 20
151.4258473540293
 30
0.0
  0
POINT
  5
13ABA
330
872F
100
AcDbEntity
  8
DEFPOINTS
 62
     0
440
 16777216
100
AcDbPoint
 10
195.6597963739404
 20
169.5037845055956
 30
0.0
  0
ENDBLK
  5
C36A
330
872F
100
AcDbEntity
  8
0
100
AcDbBlockEnd
  0
BLOCK
  5
C353
330
873C
100
AcDbEntity
  8
0
100
AcDbBlockBegin
  2
*D20
 70
     1
 10
0.0
 20
0.0
 30
0.0
  3
*D20
  1

  0
LINE
  5
13ABB
330
873C
100
AcDbEntity
  8
DIM
 62
     0
440
 16777216
370
    -2
100
AcDbLine
 10
224.9097963739404
 20
149.5508473540293
 30
0.0
 11
224.9097963739404
 21
169.8787845055956
 31
0.0
  0
LINE
  5
13ABC
330
873C
100
AcDbEntity
  8
DIM
 62
     0
440
 16777216
370
    -2
100
AcDbLine
 10
226.9097963739404
 20
151.8008473540293
 30
0.0
 11
226.9097963739404
 21
169.8787845055956
 31
0.0
  0
LINE
  5
13ABD
330
873C
100
AcDbEntity
  8
DIM
 62
     0
440
 16777216
370
    -2
100
AcDbLine
 10
223.8297963739404
 20
169.5037845055956
 30
0.0
 11
222.7497963739404
 21
169.5037845055956
 31
0.0
  0
LINE
  5
13ABE
330
873C
100
AcDbEntity
  8
DIM
 62
     0
440
 16777216
370
    -2
100
AcDbLine
 10
227.9897963739404
 20
169.5037845055956
 30
0.0
 11
229.0697963739404
 21
169.5037845055956
 31
0.0
  0
SOLID
  5
13ABF
330
873C
100
AcDbEntity
  8
DIM
 62
     0
440
 16777216
100
AcDbTrace
 10
223.8297963739404
 20
169.6837845055956
 30
0.0
 11
223.8297963739404
 21
169.3237845055956
 31
0.0
 12
224.9097963739404
 22
169.5037845055956
 32
0.0
 13
224.9097963739404
 23
169.5037845055956
 33
0.0
  0
SOLID
  5
13AC0
330
873C
100
AcDbEntity
  8
DIM
 62
     0
440
 16777216
100
AcDbTrace
 10
227.9897963739404
 20
169.6837845055956
 30
0.0
 11
227.9897963739404
 21
169.3237845055956
 31
0.0
 12
226.9097963739404
 22
169.5037845055956
 32
0.0
 13
226.9097963739404
 23
169.5037845055956
 33
0.0
  0
MTEXT
  5
13AC1
330
873C
100
AcDbEntity
  8
DIM
 62
     0
440
 16777216
100
AcDbMText
 10
234.0069392310833
 20
169.5037845055956
 30
0.0
 40
1.08
 41
0.0
 46
0.0
 71
     5
 72
     1
  1
\A1;2" [50.80]
  7
ROMANT
 73
     1
 44
1.0
  0
POINT
  5
13AC2
330
873C
100
AcDbEntity
  8
DEFPOINTS
 62
     0
440
 16777216
100
AcDbPoint
 10
224.9097963739404
 20
149.1758473540294
 30
0.0
  0
POINT
  5
13AC3
330
873C
100
AcDbEntity
  8
DEFPOINTS
 62
     0
440
 16777216
100
AcDbPoint
 10
226.9097963739404
 20
151.4258473540293
 30
0.0
  0
POINT
  5
13AC4
330
873C
100
AcDbEntity
  8
DEFPOINTS
 62
     0
440
 16777216
100
AcDbPoint
 10
226.9097963739404
 20
169.5037845055956
 30
0.0
  0
ENDBLK
  5
C35E
330
873C
100
AcDbEntity
  8
0
100
AcDbBlockEnd
  0
BLOCK
  5
D26E
330
8749
100
AcDbEntity
  8
0
100
AcDbBlockBegin
  2
*D21
 70
     1
 10
0.0
 20
0.0
 30
0.0
  3
*D21
  1

  0
LINE
  5
13AC5
330
8749
100
AcDbEntity
  8
DIM
 62
     0
440
 16777216
370
    -2
100
AcDbLine
 10
227.3472963739404
 20
151.4258473540293
 30
0.0
 11
252.338861721591
 21
151.4258473540293
 31
0.0
  0
LINE
  5
13AC6
330
8749
100
AcDbEntity
  8
DIM
 62
     0
440
 16777216
370
    -2
100
AcDbLine
 10
227.3472963739404
 20
118.1758473540293
 30
0.0
 11
252.338861721591
 21
118.1758473540293
 31
0.0
  0
LINE
  5
13AC7
330
8749
100
AcDbEntity
  8
DIM
 62
     0
440
 16777216
370
    -2
100
AcDbLine
 10
251.901361721591
 20
150.1658473540294
 30
0.0
 11
251.901361721591
 21
139.2480443290307
 31
0.0
  0
LINE
  5
13AC8
330
8749
100
AcDbEntity
  8
DIM
 62
     0
440
 16777216
370
    -2
100
AcDbLine
 10
251.901361721591
 20
119.4358473540294
 30
0.0
 11
251.901361721591
 21
129.421541261546
 31
0.0
  0
SOLID
  5
13AC9
330
8749
100
AcDbEntity
  8
DIM
 62
     0
440
 16777216
100
AcDbTrace
 10
251.6913617215909
 20
150.1658473540294
 30
0.0
 11
252.111361721591
 21
150.1658473540294
 31
0.0
 12
251.901361721591
 22
151.4258473540293
 32
0.0
 13
251.901361721591
 23
151.4258473540293
 33
0.0
  0
SOLID
  5
13ACA
330
8749
100
AcDbEntity
  8
DIM
 62
     0
440
 16777216
100
AcDbTrace
 10
251.6913617215909
 20
119.4358473540294
 30
0.0
 11
252.111361721591
 21
119.4358473540294
 31
0.0
 12
251.901361721591
 22
118.1758473540293
 32
0.0
 13
251.901361721591
 23
118.1758473540293
 33
0.0
  0
MTEXT
  5
13ACB
330
8749
100
AcDbEntity
  8
DIM
 62
     0
440
 16777216
100
AcDbMText
 10
251.9013617215909
 20
134.3347927952884
 30
0.0
 40
1.26
 41
0.0
 46
0.0
 71
     5
 72
     1
  1
\A1;{\fSegoe Print|b0|i0|c0|p2;FINISHED\PHOISTWAY}\P33 1/4"\P\f [;[844.55]\f]
  7
ROMANS
 73
     1
 44
1.0
  0
POINT
  5
13ACC
330
8749
100
AcDbEntity
  8
DEFPOINTS
 62
     0
440
 16777216
100
AcDbPoint
 10
226.9097963739404
 20
151.4258473540293
 30
0.0
  0
POINT
  5
13ACD
330
8749
100
AcDbEntity
  8
DEFPOINTS
 62
     0
440
 16777216
100
AcDbPoint
 10
226.9097963739404
 20
118.1758473540293
 30
0.0
  0
POINT
  5
13ACE
330
8749
100
AcDbEntity
  8
DEFPOINTS
 62
     0
440
 16777216
100
AcDbPoint
 10
251.901361721591
 20
118.1758473540293
 30
0.0
  0
ENDBLK
  5
D279
330
8749
100
AcDbEntity
  8
0
100
AcDbBlockEnd
  0
BLOCK
  5
D020
330
8756
100
AcDbEntity
  8
0
100
AcDbBlockBegin
  2
*D22
 70
     1
 10
0.0
 20
0.0
 30
0.0
  3
*D22
  1

  0
LINE
  5
13ACF
330
8756
100
AcDbEntity
  8
DIM
 62
     0
440
 16777216
370
    -2
100
AcDbLine
 10
227.2847963739404
 20
151.4258473540293
 30
0.0
 11
240.4198169609126
 21
151.4258473540293
 31
0.0
  0
LINE
  5
13AD0
330
8756
100
AcDbEntity
  8
DIM
 62
     0
440
 16777216
370
    -2
100
AcDbLine
 10
225.2847963739404
 20
147.1758473540293
 30
0.0
 11
240.4198169609126
 21
147.1758473540293
 31
0.0
  0
LINE
  5
13AD1
330
8756
100
AcDbEntity
  8
DIM
 62
     0
440
 16777216
370
    -2
100
AcDbLine
 10
240.0448169609126
 20
152.5058473540294
 30
0.0
 11
240.0448169609126
 21
153.5858473540294
 31
0.0
  0
LINE
  5
13AD2
330
8756
100
AcDbEntity
  8
DIM
 62
     0
440
 16777216
370
    -2
100
AcDbLine
 10
240.0448169609126
 20
146.0958473540293
 30
0.0
 11
240.0448169609126
 21
145.0158473540293
 31
0.0
  0
SOLID
  5
13AD3
330
8756
100
AcDbEntity
  8
DIM
 62
     0
440
 16777216
100
AcDbTrace
 10
239.8648169609126
 20
152.5058473540294
 30
0.0
 11
240.2248169609126
 21
152.5058473540294
 31
0.0
 12
240.0448169609126
 22
151.4258473540293
 32
0.0
 13
240.0448169609126
 23
151.4258473540293
 33
0.0
  0
SOLID
  5
13AD4
330
8756
100
AcDbEntity
  8
DIM
 62
     0
440
 16777216
100
AcDbTrace
 10
239.8648169609126
 20
146.0958473540293
 30
0.0
 11
240.2248169609126
 21
146.0958473540293
 31
0.0
 12
240.0448169609126
 22
147.1758473540293
 32
0.0
 13
240.0448169609126
 23
147.1758473540293
 33
0.0
  0
MTEXT
  5
13AD5
330
8756
100
AcDbEntity
  8
DIM
 62
     0
440
 16777216
100
AcDbMText
 10
240.0448169609126
 20
149.1143711551638
 30
0.0
 40
1.08
 41
0.0
 46
0.0
 71
     5
 72
     1
  1
\A1;4 1/4" [107.95]
  7
ROMANT
 73
     1
 44
1.0
  0
POINT
  5
13AD6
330
8756
100
AcDbEntity
  8
DEFPOINTS
 62
     0
440
 16777216
100
AcDbPoint
 10
226.9097963739404
 20
151.4258473540293
 30
0.0
  0
POINT
  5
13AD7
330
8756
100
AcDbEntity
  8
DEFPOINTS
 62
     0
440
 16777216
100
AcDbPoint
 10
224.9097963739404
 20
147.1758473540293
 30
0.0
  0
POINT
  5
13AD8
330
8756
100
AcDbEntity
  8
DEFPOINTS
 62
     0
440
 16777216
100
AcDbPoint
 10
240.0448169609126
 20
147.1758473540293
 30
0.0
  0
ENDBLK
  5
D02B
330
8756
100
AcDbEntity
  8
0
100
AcDbBlockEnd
  0
BLOCK
  5
A272
330
8763
100
AcDbEntity
  8
0
100
AcDbBlockBegin
  2
*D23
 70
     1
 10
0.0
 20
0.0
 30
0.0
  3
*D23
  1

  0
LINE
  5
13AD9
330
8763
100
AcDbEntity
  8
DIM
 62
     0
440
 16777216
370
    -2
100
AcDbLine
 10
225.2847963739404
 20
121.1758473540293
 30
0.0
 11
240.4455312466269
 21
121.1758473540293
 31
0.0
  0
LINE
  5
13ADA
330
8763
100
AcDbEntity
  8
DIM
 62
     0
440
 16777216
370
    -2
100
AcDbLine
 10
227.2847963739404
 20
118.1758473540293
 30
0.0
 11
240.4455312466269
 21
118.1758473540293
 31
0.0
  0
LINE
  5
13ADB
330
8763
100
AcDbEntity
  8
DIM
 62
     0
440
 16777216
370
    -2
100
AcDbLine
 10
240.0705312466269
 20
122.2558473540293
 30
0.0
 11
240.0705312466269
 21
123.3358473540294
 31
0.0
  0
LINE
  5
13ADC
330
8763
100
AcDbEntity
  8
DIM
 62
     0
440
 16777216
370
    -2
100
AcDbLine
 10
240.0705312466269
 20
117.0958473540294
 30
0.0
 11
240.0705312466269
 21
116.0158473540294
 31
0.0
  0
SOLID
  5
13ADD
330
8763
100
AcDbEntity
  8
DIM
 62
     0
440
 16777216
100
AcDbTrace
 10
239.8905312466268
 20
122.2558473540293
 30
0.0
 11
240.2505312466269
 21
122.2558473540293
 31
0.0
 12
240.0705312466269
 22
121.1758473540293
 32
0.0
 13
240.0705312466269
 23
121.1758473540293
 33
0.0
  0
SOLID
  5
13ADE
330
8763
100
AcDbEntity
  8
DIM
 62
     0
440
 16777216
100
AcDbTrace
 10
239.8905312466268
 20
117.0958473540294
 30
0.0
 11
240.2505312466269
 21
117.0958473540294
 31
0.0
 12
240.0705312466269
 22
118.1758473540293
 32
0.0
 13
240.0705312466269
 23
118.1758473540293
 33
0.0
  0
MTEXT
  5
13ADF
330
8763
100
AcDbEntity
  8
DIM
 62
     0
440
 16777216
100
AcDbMText
 10
240.0705312466268
 20
119.6758473540294
 30
0.0
 40
1.08
 41
0.0
 46
0.0
 71
     5
 72
     1
  1
\A1;3" [76.20]
  7
ROMANT
 73
     1
 44
1.0
  0
POINT
  5
13AE0
330
8763
100
AcDbEntity
  8
DEFPOINTS
 62
     0
440
 16777216
100
AcDbPoint
 10
224.9097963739404
 20
121.1758473540293
 30
0.0
  0
POINT
  5
13AE1
330
8763
100
AcDbEntity
  8
DEFPOINTS
 62
     0
440
 16777216
100
AcDbPoint
 10
226.9097963739404
 20
118.1758473540293
 30
0.0
  0
POINT
  5
13AE2
330
8763
100
AcDbEntity
  8
DEFPOINTS
 62
     0
440
 16777216
100
AcDbPoint
 10
240.0705312466269
 20
118.1758473540293
 30
0.0
  0
ENDBLK
  5
A27D
330
8763
100
AcDbEntity
  8
0
100
AcDbBlockEnd
  0
BLOCK
  5
A2B8
330
A2B7
100
AcDbEntity
  8
0
100
AcDbBlockBegin
  2
*X24
 70
     1
 10
0.0
 20
0.0
 30
0.0
  3
*X24
  1

  0
ENDBLK
  5
A2B9
330
A2B7
100
AcDbEntity
  8
0
100
AcDbBlockEnd
  0
BLOCK
  5
A2BB
330
A2BA
100
AcDbEntity
  8
0
100
AcDbBlockBegin
  2
*X25
 70
     1
 10
0.0
 20
0.0
 30
0.0
  3
*X25
  1

  0
ENDBLK
  5
A2BC
330
A2BA
100
AcDbEntity
  8
0
100
AcDbBlockEnd
  0
BLOCK
  5
A2BE
330
A2BD
100
AcDbEntity
  8
0
100
AcDbBlockBegin
  2
*X26
 70
     1
 10
0.0
 20
0.0
 30
0.0
  3
*X26
  1

  0
ENDBLK
  5
A2BF
330
A2BD
100
AcDbEntity
  8
0
100
AcDbBlockEnd
  0
BLOCK
  5
A2C1
330
A2C0
100
AcDbEntity
  8
0
100
AcDbBlockBegin
  2
*X27
 70
     1
 10
0.0
 20
0.0
 30
0.0
  3
*X27
  1

  0
ENDBLK
  5
A2C2
330
A2C0
100
AcDbEntity
  8
0
100
AcDbBlockEnd
  0
BLOCK
  5
A3B8
330
A3B7
100
AcDbEntity
  8
0
100
AcDbBlockBegin
  2
*X28
 70
     1
 10
0.0
 20
0.0
 30
0.0
  3
*X28
  1

  0
ENDBLK
  5
A3B9
330
A3B7
100
AcDbEntity
  8
0
100
AcDbBlockEnd
  0
BLOCK
  5
A3BB
330
A3BA
100
AcDbEntity
  8
0
100
AcDbBlockBegin
  2
*X29
 70
     1
 10
0.0
 20
0.0
 30
0.0
  3
*X29
  1

  0
ENDBLK
  5
A3BC
330
A3BA
100
AcDbEntity
  8
0
100
AcDbBlockEnd
  0
BLOCK
  5
A3BE
330
A3BD
100
AcDbEntity
  8
0
100
AcDbBlockBegin
  2
*X30
 70
     1
 10
0.0
 20
0.0
 30
0.0
  3
*X30
  1

  0
ENDBLK
  5
A3BF
330
A3BD
100
AcDbEntity
  8
0
100
AcDbBlockEnd
  0
BLOCK
  5
A3C1
330
A3C0
100
AcDbEntity
  8
0
100
AcDbBlockBegin
  2
*X31
 70
     1
 10
0.0
 20
0.0
 30
0.0
  3
*X31
  1

  0
ENDBLK
  5
A3C2
330
A3C0
100
AcDbEntity
  8
0
100
AcDbBlockEnd
  0
BLOCK
  5
A3C4
330
A3C3
100
AcDbEntity
  8
0
100
AcDbBlockBegin
  2
*X32
 70
     1
 10
0.0
 20
0.0
 30
0.0
  3
*X32
  1

  0
ENDBLK
  5
A3C5
330
A3C3
100
AcDbEntity
  8
0
100
AcDbBlockEnd
  0
BLOCK
  5
A3C7
330
A3C6
100
AcDbEntity
  8
0
100
AcDbBlockBegin
  2
*X33
 70
     1
 10
0.0
 20
0.0
 30
0.0
  3
*X33
  1

  0
ENDBLK
  5
A3C8
330
A3C6
100
AcDbEntity
  8
0
100
AcDbBlockEnd
  0
BLOCK
  5
A3CA
330
A3C9
100
AcDbEntity
  8
0
100
AcDbBlockBegin
  2
*X34
 70
     1
 10
0.0
 20
0.0
 30
0.0
  3
*X34
  1

  0
ENDBLK
  5
A3CB
330
A3C9
100
AcDbEntity
  8
0
100
AcDbBlockEnd
  0
BLOCK
  5
A484
330
A483
100
AcDbEntity
  8
0
100
AcDbBlockBegin
  2
*X35
 70
     1
 10
0.0
 20
0.0
 30
0.0
  3
*X35
  1

  0
ENDBLK
  5
A485
330
A483
100
AcDbEntity
  8
0
100
AcDbBlockEnd
  0
BLOCK
  5
A487
330
A486
100
AcDbEntity
  8
0
100
AcDbBlockBegin
  2
*X36
 70
     1
 10
0.0
 20
0.0
 30
0.0
  3
*X36
  1

  0
ENDBLK
  5
A488
330
A486
100
AcDbEntity
  8
0
100
AcDbBlockEnd
  0
BLOCK
  5
A48A
330
A489
100
AcDbEntity
  8
0
100
AcDbBlockBegin
  2
*X37
 70
     1
 10
0.0
 20
0.0
 30
0.0
  3
*X37
  1

  0
ENDBLK
  5
A48B
330
A489
100
AcDbEntity
  8
0
100
AcDbBlockEnd
  0
BLOCK
  5
A48D
330
A48C
100
AcDbEntity
  8
0
100
AcDbBlockBegin
  2
*X38
 70
     1
 10
0.0
 20
0.0
 30
0.0
  3
*X38
  1

  0
ENDBLK
  5
A48E
330
A48C
100
AcDbEntity
  8
0
100
AcDbBlockEnd
  0
BLOCK
  5
A490
330
A48F
100
AcDbEntity
  8
0
100
AcDbBlockBegin
  2
*X39
 70
     1
 10
0.0
 20
0.0
 30
0.0
  3
*X39
  1

  0
ENDBLK
  5
A491
330
A48F
100
AcDbEntity
  8
0
100
AcDbBlockEnd
  0
BLOCK
  5
A493
330
A492
100
AcDbEntity
  8
0
100
AcDbBlockBegin
  2
*X40
 70
     1
 10
0.0
 20
0.0
 30
0.0
  3
*X40
  1

  0
ENDBLK
  5
A494
330
A492
100
AcDbEntity
  8
0
100
AcDbBlockEnd
  0
BLOCK
  5
A496
330
A495
100
AcDbEntity
  8
0
100
AcDbBlockBegin
  2
*X41
 70
     1
 10
0.0
 20
0.0
 30
0.0
  3
*X41
  1

  0
ENDBLK
  5
A497
330
A495
100
AcDbEntity
  8
0
100
AcDbBlockEnd
  0
BLOCK
  5
A499
330
A498
100
AcDbEntity
  8
0
100
AcDbBlockBegin
  2
*X42
 70
     1
 10
0.0
 20
0.0
 30
0.0
  3
*X42
  1

  0
ENDBLK
  5
A49A
330
A498
100
AcDbEntity
  8
0
100
AcDbBlockEnd
  0
BLOCK
  5
A49C
330
A49B
100
AcDbEntity
  8
0
100
AcDbBlockBegin
  2
*X43
 70
     1
 10
0.0
 20
0.0
 30
0.0
  3
*X43
  1

  0
ENDBLK
  5
A49D
330
A49B
100
AcDbEntity
  8
0
100
AcDbBlockEnd
  0
BLOCK
  5
A49F
330
A49E
100
AcDbEntity
  8
0
100
AcDbBlockBegin
  2
*X44
 70
     1
 10
0.0
 20
0.0
 30
0.0
  3
*X44
  1

  0
ENDBLK
  5
A4A0
330
A49E
100
AcDbEntity
  8
0
100
AcDbBlockEnd
  0
BLOCK
  5
A4A2
330
A4A1
100
AcDbEntity
  8
0
100
AcDbBlockBegin
  2
*X45
 70
     1
 10
0.0
 20
0.0
 30
0.0
  3
*X45
  1

  0
ENDBLK
  5
A4A3
330
A4A1
100
AcDbEntity
  8
0
100
AcDbBlockEnd
  0
BLOCK
  5
B84B
330
B84A
100
AcDbEntity
  8
0
100
AcDbBlockBegin
  2
*X46
 70
     1
 10
0.0
 20
0.0
 30
0.0
  3
*X46
  1

  0
ENDBLK
  5
B84C
330
B84A
100
AcDbEntity
  8
0
100
AcDbBlockEnd
  0
BLOCK
  5
B854
330
B853
100
AcDbEntity
  8
0
100
AcDbBlockBegin
  2
*X47
 70
     1
 10
0.0
 20
0.0
 30
0.0
  3
*X47
  1

  0
ENDBLK
  5
B855
330
B853
100
AcDbEntity
  8
0
100
AcDbBlockEnd
  0
BLOCK
  5
B857
330
B856
100
AcDbEntity
  8
0
100
AcDbBlockBegin
  2
*X48
 70
     1
 10
0.0
 20
0.0
 30
0.0
  3
*X48
  1

  0
ENDBLK
  5
B858
330
B856
100
AcDbEntity
  8
0
100
AcDbBlockEnd
  0
BLOCK
  5
B85A
330
B859
100
AcDbEntity
  8
0
100
AcDbBlockBegin
  2
*X49
 70
     1
 10
0.0
 20
0.0
 30
0.0
  3
*X49
  1

  0
ENDBLK
  5
B85B
330
B859
100
AcDbEntity
  8
0
100
AcDbBlockEnd
  0
BLOCK
  5
BC02
330
BC01
100
AcDbEntity
  8
0
100
AcDbBlockBegin
  2
*X50
 70
     1
 10
0.0
 20
0.0
 30
0.0
  3
*X50
  1

  0
ENDBLK
  5
BC03
330
BC01
100
AcDbEntity
  8
0
100
AcDbBlockEnd
  0
BLOCK
  5
BC05
330
BC04
100
AcDbEntity
  8
0
100
AcDbBlockBegin
  2
*X51
 70
     1
 10
0.0
 20
0.0
 30
0.0
  3
*X51
  1

  0
ENDBLK
  5
BC06
330
BC04
100
AcDbEntity
  8
0
100
AcDbBlockEnd
  0
BLOCK
  5
BC08
330
BC07
100
AcDbEntity
  8
0
100
AcDbBlockBegin
  2
*X52
 70
     1
 10
0.0
 20
0.0
 30
0.0
  3
*X52
  1

  0
ENDBLK
  5
BC09
330
BC07
100
AcDbEntity
  8
0
100
AcDbBlockEnd
  0
BLOCK
  5
BC0B
330
BC0A
100
AcDbEntity
  8
0
100
AcDbBlockBegin
  2
*X53
 70
     1
 10
0.0
 20
0.0
 30
0.0
  3
*X53
  1

  0
ENDBLK
  5
BC0C
330
BC0A
100
AcDbEntity
  8
0
100
AcDbBlockEnd
  0
BLOCK
  5
BD6E
330
BD6D
100
AcDbEntity
  8
0
100
AcDbBlockBegin
  2
*X54
 70
     1
 10
0.0
 20
0.0
 30
0.0
  3
*X54
  1

  0
ENDBLK
  5
BD6F
330
BD6D
100
AcDbEntity
  8
0
100
AcDbBlockEnd
  0
BLOCK
  5
BD71
330
BD70
100
AcDbEntity
  8
0
100
AcDbBlockBegin
  2
*X55
 70
     1
 10
0.0
 20
0.0
 30
0.0
  3
*X55
  1

  0
ENDBLK
  5
BD72
330
BD70
100
AcDbEntity
  8
0
100
AcDbBlockEnd
  0
BLOCK
  5
BD74
330
BD73
100
AcDbEntity
  8
0
100
AcDbBlockBegin
  2
*X56
 70
     1
 10
0.0
 20
0.0
 30
0.0
  3
*X56
  1

  0
ENDBLK
  5
BD75
330
BD73
100
AcDbEntity
  8
0
100
AcDbBlockEnd
  0
BLOCK
  5
BD77
330
BD76
100
AcDbEntity
  8
0
100
AcDbBlockBegin
  2
*X57
 70
     1
 10
0.0
 20
0.0
 30
0.0
  3
*X57
  1

  0
ENDBLK
  5
BD78
330
BD76
100
AcDbEntity
  8
0
100
AcDbBlockEnd
  0
BLOCK
  5
BD7A
330
BD79
100
AcDbEntity
  8
0
100
AcDbBlockBegin
  2
*X58
 70
     1
 10
0.0
 20
0.0
 30
0.0
  3
*X58
  1

  0
ENDBLK
  5
BD7B
330
BD79
100
AcDbEntity
  8
0
100
AcDbBlockEnd
  0
BLOCK
  5
BD7D
330
BD7C
100
AcDbEntity
  8
0
100
AcDbBlockBegin
  2
*X59
 70
     1
 10
0.0
 20
0.0
 30
0.0
  3
*X59
  1

  0
ENDBLK
  5
BD7E
330
BD7C
100
AcDbEntity
  8
0
100
AcDbBlockEnd
  0
BLOCK
  5
BD80
330
BD7F
100
AcDbEntity
  8
0
100
AcDbBlockBegin
  2
*X60
 70
     1
 10
0.0
 20
0.0
 30
0.0
  3
*X60
  1

  0
ENDBLK
  5
BD81
330
BD7F
100
AcDbEntity
  8
0
100
AcDbBlockEnd
  0
BLOCK
  5
BD83
330
BD82
100
AcDbEntity
  8
0
100
AcDbBlockBegin
  2
*X61
 70
     1
 10
0.0
 20
0.0
 30
0.0
  3
*X61
  1

  0
ENDBLK
  5
BD84
330
BD82
100
AcDbEntity
  8
0
100
AcDbBlockEnd
  0
BLOCK
  5
BD86
330
BD85
100
AcDbEntity
  8
0
100
AcDbBlockBegin
  2
*X62
 70
     1
 10
0.0
 20
0.0
 30
0.0
  3
*X62
  1

  0
ENDBLK
  5
BD87
330
BD85
100
AcDbEntity
  8
0
100
AcDbBlockEnd
  0
BLOCK
  5
BD89
330
BD88
100
AcDbEntity
  8
0
100
AcDbBlockBegin
  2
*X63
 70
     1
 10
0.0
 20
0.0
 30
0.0
  3
*X63
  1

  0
ENDBLK
  5
BD8A
330
BD88
100
AcDbEntity
  8
0
100
AcDbBlockEnd
  0
BLOCK
  5
BD8C
330
BD8B
100
AcDbEntity
  8
0
100
AcDbBlockBegin
  2
*X64
 70
     1
 10
0.0
 20
0.0
 30
0.0
  3
*X64
  1

  0
ENDBLK
  5
BD8D
330
BD8B
100
AcDbEntity
  8
0
100
AcDbBlockEnd
  0
BLOCK
  5
BD8F
330
BD8E
100
AcDbEntity
  8
0
100
AcDbBlockBegin
  2
*X65
 70
     1
 10
0.0
 20
0.0
 30
0.0
  3
*X65
  1

  0
ENDBLK
  5
BD90
330
BD8E
100
AcDbEntity
  8
0
100
AcDbBlockEnd
  0
BLOCK
  5
BD92
330
BD91
100
AcDbEntity
  8
0
100
AcDbBlockBegin
  2
*X66
 70
     1
 10
0.0
 20
0.0
 30
0.0
  3
*X66
  1

  0
ENDBLK
  5
BD93
330
BD91
100
AcDbEntity
  8
0
100
AcDbBlockEnd
  0
BLOCK
  5
BD95
330
BD94
100
AcDbEntity
  8
0
100
AcDbBlockBegin
  2
*X67
 70
     1
 10
0.0
 20
0.0
 30
0.0
  3
*X67
  1

  0
ENDBLK
  5
BD96
330
BD94
100
AcDbEntity
  8
0
100
AcDbBlockEnd
  0
BLOCK
  5
BD98
330
BD97
100
AcDbEntity
  8
0
100
AcDbBlockBegin
  2
*X68
 70
     1
 10
0.0
 20
0.0
 30
0.0
  3
*X68
  1

  0
ENDBLK
  5
BD99
330
BD97
100
AcDbEntity
  8
0
100
AcDbBlockEnd
  0
BLOCK
  5
BD9B
330
BD9A
100
AcDbEntity
  8
0
100
AcDbBlockBegin
  2
*X69
 70
     1
 10
0.0
 20
0.0
 30
0.0
  3
*X69
  1

  0
ENDBLK
  5
BD9C
330
BD9A
100
AcDbEntity
  8
0
100
AcDbBlockEnd
  0
BLOCK
  5
BD9E
330
BD9D
100
AcDbEntity
  8
0
100
AcDbBlockBegin
  2
*X70
 70
     1
 10
0.0
 20
0.0
 30
0.0
  3
*X70
  1

  0
ENDBLK
  5
BD9F
330
BD9D
100
AcDbEntity
  8
0
100
AcDbBlockEnd
  0
BLOCK
  5
BDA1
330
BDA0
100
AcDbEntity
  8
0
100
AcDbBlockBegin
  2
*X71
 70
     1
 10
0.0
 20
0.0
 30
0.0
  3
*X71
  1

  0
ENDBLK
  5
BDA2
330
BDA0
100
AcDbEntity
  8
0
100
AcDbBlockEnd
  0
BLOCK
  5
BDA4
330
BDA3
100
AcDbEntity
  8
0
100
AcDbBlockBegin
  2
*X72
 70
     1
 10
0.0
 20
0.0
 30
0.0
  3
*X72
  1

  0
ENDBLK
  5
BDA5
330
BDA3
100
AcDbEntity
  8
0
100
AcDbBlockEnd
  0
BLOCK
  5
BDA7
330
BDA6
100
AcDbEntity
  8
0
100
AcDbBlockBegin
  2
*X73
 70
     1
 10
0.0
 20
0.0
 30
0.0
  3
*X73
  1

  0
ENDBLK
  5
BDA8
330
BDA6
100
AcDbEntity
  8
0
100
AcDbBlockEnd
  0
BLOCK
  5
BDAA
330
BDA9
100
AcDbEntity
  8
0
100
AcDbBlockBegin
  2
*X74
 70
     1
 10
0.0
 20
0.0
 30
0.0
  3
*X74
  1

  0
ENDBLK
  5
BDAB
330
BDA9
100
AcDbEntity
  8
0
100
AcDbBlockEnd
  0
BLOCK
  5
BDAD
330
BDAC
100
AcDbEntity
  8
0
100
AcDbBlockBegin
  2
*X75
 70
     1
 10
0.0
 20
0.0
 30
0.0
  3
*X75
  1

  0
ENDBLK
  5
BDAE
330
BDAC
100
AcDbEntity
  8
0
100
AcDbBlockEnd
  0
BLOCK
  5
BDB0
330
BDAF
100
AcDbEntity
  8
0
100
AcDbBlockBegin
  2
*X76
 70
     1
 10
0.0
 20
0.0
 30
0.0
  3
*X76
  1

  0
ENDBLK
  5
BDB1
330
BDAF
100
AcDbEntity
  8
0
100
AcDbBlockEnd
  0
BLOCK
  5
BDB3
330
BDB2
100
AcDbEntity
  8
0
100
AcDbBlockBegin
  2
*X77
 70
     1
 10
0.0
 20
0.0
 30
0.0
  3
*X77
  1

  0
ENDBLK
  5
BDB4
330
BDB2
100
AcDbEntity
  8
0
100
AcDbBlockEnd
  0
BLOCK
  5
BDB6
330
BDB5
100
AcDbEntity
  8
0
100
AcDbBlockBegin
  2
*X78
 70
     1
 10
0.0
 20
0.0
 30
0.0
  3
*X78
  1

  0
ENDBLK
  5
BDB7
330
BDB5
100
AcDbEntity
  8
0
100
AcDbBlockEnd
  0
BLOCK
  5
BDB9
330
BDB8
100
AcDbEntity
  8
0
100
AcDbBlockBegin
  2
*X79
 70
     1
 10
0.0
 20
0.0
 30
0.0
  3
*X79
  1

  0
ENDBLK
  5
BDBA
330
BDB8
100
AcDbEntity
  8
0
100
AcDbBlockEnd
  0
BLOCK
  5
BDBC
330
BDBB
100
AcDbEntity
  8
0
100
AcDbBlockBegin
  2
*X80
 70
     1
 10
0.0
 20
0.0
 30
0.0
  3
*X80
  1

  0
ENDBLK
  5
BDBD
330
BDBB
100
AcDbEntity
  8
0
100
AcDbBlockEnd
  0
BLOCK
  5
BDBF
330
BDBE
100
AcDbEntity
  8
0
100
AcDbBlockBegin
  2
*X81
 70
     1
 10
0.0
 20
0.0
 30
0.0
  3
*X81
  1

  0
ENDBLK
  5
BDC0
330
BDBE
100
AcDbEntity
  8
0
100
AcDbBlockEnd
  0
BLOCK
  5
C32F
330
C315
100
AcDbEntity
  8
0
100
AcDbBlockBegin
  2
*D82
 70
     1
 10
0.0
 20
0.0
 30
0.0
  3
*D82
  1

  0
LINE
  5
13AE3
330
C315
100
AcDbEntity
  8
DIM
 62
     0
440
 16777216
370
    -2
100
AcDbLine
 10
210.9097963739404
 20
157.3633473540293
 30
0.0
 11
210.9097963739404
 21
159.4715251498535
 31
0.0
  0
LINE
  5
13AE4
330
C315
100
AcDbEntity
  8
DIM
 62
     0
440
 16777216
370
    -2
100
AcDbLine
 10
195.6597963739404
 20
151.8633473540293
 30
0.0
 11
195.6597963739404
 21
159.4715251498535
 31
0.0
  0
LINE
  5
13AE5
330
C315
100
AcDbEntity
  8
DIM
 62
     0
440
 16777216
370
    -2
100
AcDbLine
 10
209.6497963739404
 20
159.0340251498535
 30
0.0
 11
208.6699881800214
 21
159.0340251498535
 31
0.0
  0
LINE
  5
13AE6
330
C315
100
AcDbEntity
  8
DIM
 62
     0
440
 16777216
370
    -2
100
AcDbLine
 10
196.9197963739404
 20
159.0340251498535
 30
0.0
 11
199.4899881800214
 21
159.0340251498535
 31
0.0
  0
SOLID
  5
13AE7
330
C315
100
AcDbEntity
  8
DIM
 62
     0
440
 16777216
100
AcDbTrace
 10
209.6497963739404
 20
159.2440251498535
 30
0.0
 11
209.6497963739404
 21
158.8240251498535
 31
0.0
 12
210.9097963739404
 22
159.0340251498535
 32
0.0
 13
210.9097963739404
 23
159.0340251498535
 33
0.0
  0
SOLID
  5
13AE8
330
C315
100
AcDbEntity
  8
DIM
 62
     0
440
 16777216
100
AcDbTrace
 10
196.9197963739404
 20
159.2440251498535
 30
0.0
 11
196.9197963739404
 21
158.8240251498535
 31
0.0
 12
195.6597963739404
 22
159.0340251498535
 32
0.0
 13
195.6597963739404
 23
159.0340251498535
 33
0.0
  0
MTEXT
  5
13AE9
330
C315
100
AcDbEntity
  8
DIM
 62
     0
440
 16777216
100
AcDbMText
 10
204.0799881800214
 20
159.0340251498535
 30
0.0
 40
1.26
 41
0.0
 46
0.0
 71
     5
 72
     1
  1
\A1;15 1/4"\P\f [;[387.35]\f]
  7
ROMANS
 73
     1
 44
1.0
  0
POINT
  5
13AEA
330
C315
100
AcDbEntity
  8
DEFPOINTS
 62
     0
440
 16777216
100
AcDbPoint
 10
210.9097963739404
 20
156.9258473540293
 30
0.0
  0
POINT
  5
13AEB
330
C315
100
AcDbEntity
  8
DEFPOINTS
 62
     0
440
 16777216
100
AcDbPoint
 10
195.6597963739404
 20
151.4258473540293
 30
0.0
  0
POINT
  5
13AEC
330
C315
100
AcDbEntity
  8
DEFPOINTS
 62
     0
440
 16777216
100
AcDbPoint
 10
195.6597963739404
 20
159.0340251498535
 30
0.0
  0
ENDBLK
  5
C33A
330
C315
100
AcDbEntity
  8
0
100
AcDbBlockEnd
  0
BLOCK
  5
D319
330
D2BC
100
AcDbEntity
  8
0
100
AcDbBlockBegin
  2
A$C5E6C7229
 70
     0
 10
0.0
 20
0.0
 30
0.0
  3
A$C5E6C7229
  1

  0
HATCH
  5
D2BD
330
D2BC
100
AcDbEntity
  8
BORDER
100
AcDbHatch
 10
0.0
 20
0.0
 30
0.0
210
0.0
220
0.0
230
1.0
  2
ANSI31
 70
     0
 71
     1
 91
        1
 92
        7
 72
     0
 73
     1
 93
       13
 10
1.138345235758164
 20
1.514036562990535
 10
0.9335203705914416
 20
1.514036562990535
 10
0.7341514419333821
 20
0.8970869212779541
 10
0.5675902292958482
 20
1.514036562990534
 10
0.3057471942140006
 20
1.514036562990535
 10
0.6098990314516613
 20
0.553034989183006
 10
0.847233728860095
 20
0.5530349891830051
 10
1.031250529105251
 20
1.109661654880213
 10
1.215267329350404
 20
0.5530349891830051
 10
1.464828691310537
 20
0.553034989183006
 10
1.768980528548196
 20
1.514036562990533
 10
1.506269940005862
 20
1.514036562990534
 10
1.328349616277119
 20
0.8970869212779515
 97
       13
330
D2E7
330
D2CF
330
D2BE
330
D2C4
330
D2C3
330
D2BF
330
D2D5
330
D2D6
330
D2DA
330
D2D0
330
D2E6
330
D2D1
330
D2D2
 75
     0
 76
     1
 52
0.0
 41
0.01
 77
     0
 78
     1
 53
45.0
 43
-5.292718358303066
 44
-4.627344112226039
 45
-0.0008838834764832
 46
0.0008838834764832
 79
     0
 47
0.0065990708823471
 98
        1
 10
1.081117627216016
 20
1.305015614115505
  0
LINE
  5
D2BE
102
{ACAD_REACTORS
330
D2BD
102
}
330
D2BC
100
AcDbEntity
  8
BORDER
100
AcDbLine
 10
0.5675902292958491
 20
1.514036562990534
 30
0.0
 11
0.7341514419333813
 21
0.8970869212779541
 31
0.0
  0
LINE
  5
D2BF
102
{ACAD_REACTORS
330
D2BD
102
}
330
D2BC
100
AcDbEntity
  8
BORDER
100
AcDbLine
 10
0.6098990314516631
 20
0.5530349891830051
 30
0.0
 11
0.8472337288600959
 21
0.5530349891830051
 31
0.0
  0
HATCH
  5
D2C0
330
D2BC
100
AcDbEntity
  8
BORDER
100
AcDbHatch
 10
0.0
 20
0.0
 30
0.0
210
0.0
220
0.0
230
1.0
  2
ANSI31
 70
     0
 71
     1
 91
        1
 92
        7
 72
     1
 73
     1
 93
        4
 10
1.911491491027344
 20
1.33286586024981
 42
0.0
 10
2.028460521510151
 20
1.33286586024981
 42
1.94684309849424
 10
0.9140940972618372
 20
0.091051786378781
 42
0.0
 10
0.9140940972618372
 20
0.2080208168615902
 42
-1.89903968396117
 97
        4
330
D2D8
330
D2C1
330
D2E8
330
D2C2
 75
     0
 76
     1
 52
0.0
 41
0.01
 77
     0
 78
     1
 53
45.0
 43
-5.292718358303066
 44
-4.627344112226039
 45
-0.0008838834764832
 46
0.0008838834764832
 79
     0
 47
0.0045503027474481
 98
        1
 10
1.192595423495671
 20
2.054864768340002
  0
ARC
  5
D2C1
102
{ACAD_REACTORS
330
D2C0
102
}
330
D2BC
100
AcDbEntity
  8
BORDER
100
AcDbCircle
 10
1.026842221370137
 20
1.112664782896177
 30
0.0
 40
0.9116429371046159
100
AcDbArc
 50
13.97763433055847
 51
262.8957115435579
  0
ARC
  5
D2C2
102
{ACAD_REACTORS
330
D2C0
102
}
330
D2BC
100
AcDbEntity
  8
BORDER
100
AcDbCircle
 10
1.026338113945765
 20
1.111233811948499
 30
0.0
 40
1.026338192106712
100
AcDbArc
 50
12.47094267911863
 51
263.7213700729962
  0
LINE
  5
D2C3
102
{ACAD_REACTORS
330
D2BD
102
}
330
D2BC
100
AcDbEntity
  8
BORDER
100
AcDbLine
 10
0.6098990314516613
 20
0.5530349891830051
 30
0.0
 11
0.3057471942139998
 21
1.514036562990534
 31
0.0
  0
LINE
  5
D2C4
102
{ACAD_REACTORS
330
D2BD
102
}
330
D2BC
100
AcDbEntity
  8
BORDER
100
AcDbLine
 10
0.3057471942139998
 20
1.514036562990534
 30
0.0
 11
0.5675902292958491
 21
1.514036562990534
 31
0.0
  0
TEXT
  5
D2C5
330
D2BC
100
AcDbEntity
  8
BORDER
100
AcDbText
 10
4.3252720866744
 20
0.0894040491941448
 30
0.0
 40
0.285
  1
M
 41
1.3
  7
STYLE1
100
AcDbText
  0
HATCH
  5
D2C6
330
D2BC
100
AcDbEntity
  8
BORDER
100
AcDbHatch
 10
0.0
 20
0.0
 30
0.0
210
0.0
220
0.0
230
1.0
  2
ANSI31
 70
     0
 71
     1
 91
        2
 92
        7
 72
     1
 73
     1
 93
        7
 10
4.613061472142543
 20
1.150812264554938
 42
0.6909438751418885
 10
4.080216125046655
 20
0.8818297943702857
 42
0.6909438751418913
 10
4.613061472142545
 20
0.6128473241856352
 42
0.0
 10
4.613061472142547
 20
0.5528361987393922
 42
0.0
 10
4.850541574047026
 20
0.5528361987393949
 42
0.0
 10
4.850541574047026
 20
1.210823390001176
 42
0.0
 10
4.613061472142545
 20
1.210823390001175
 42
0.0
 97
        7
330
D30C
330
D30D
330
D2C9
330
D2C8
330
D308
330
D30B
330
D307
 92
       22
 72
     1
 73
     1
 93
        2
 10
4.614184606306464
 20
0.8818297943702857
 42
-1.0
 10
4.314004716591531
 20
0.8818297943702857
 42
-1.0
 97
        1
330
D2C7
 75
     0
 76
     1
 52
0.0
 41
0.01
 77
     0
 78
     1
 53
45.0
 43
-6.652936566196117
 44
-4.627344112226039
 45
-0.0008838834764832
 46
0.0008838834764832
 79
     0
 47
0.0025121746057047
 98
        2
 10
4.688530096888634
 20
1.078946274350886
 10
4.688530096888634
 20
1.078946274350886
  0
CIRCLE
  5
D2C7
102
{ACAD_REACTORS
330
D2C6
102
}
330
D2BC
100
AcDbEntity
  8
BORDER
100
AcDbCircle
 10
4.464094661448998
 20
0.8818297943702857
 30
0.0
 40
0.1500899448574664
  0
LWPOLYLINE
  5
D2C8
102
{ACAD_REACTORS
330
D2C6
102
}
330
D2BC
100
AcDbEntity
  8
BORDER
100
AcDbPolyline
 90
        2
 70
     0
 43
0.0
 10
4.613061472142545
 20
0.6128473241856352
 42
-0.6909438751418913
 10
4.080216125046655
 20
0.8818297943702857
 42
0.5048040142428894
  0
LWPOLYLINE
  5
D2C9
102
{ACAD_REACTORS
330
D2C6
102
}
330
D2BC
100
AcDbEntity
  8
BORDER
100
AcDbPolyline
 90
        2
 70
     0
 43
0.0
 10
4.613061472142545
 20
1.150812264554936
 42
0.6909438751418913
 10
4.080216125046655
 20
0.8818297943702857
 42
-0.5048040142428894
  0
HATCH
  5
D2CA
330
D2BC
100
AcDbEntity
  8
BORDER
100
AcDbHatch
 10
0.0
 20
0.0
 30
0.0
210
0.0
220
0.0
230
1.0
  2
ANSI31
 70
     0
 71
     1
 91
        1
 92
        7
 72
     1
 73
     1
 93
       12
 10
2.97068992403447
 20
0.8103116902278593
 42
-0.4200313539007589
 10
2.856642861657119
 20
0.7143926244696806
 42
-0.4200313539007589
 10
2.742595799279769
 20
0.8103116902278593
 42
0.0
 10
2.742595799279767
 20
1.210823390001177
 42
0.0
 10
2.505716249674239
 20
1.210823390001177
 42
0.0
 10
2.50571624967424
 20
0.7729010026872381
 42
0.3701462908613022
 10
2.781022933641443
 20
0.5282791289380518
 42
0.0
 10
2.856642861657119
 20
0.5282791289380518
 42
0.0
 10
2.932262789672844
 20
0.5282791289380518
 42
0.3701462908612548
 10
3.207569473639999
 20
0.7729010026872381
 42
0.0
 10
3.207569473639999
 20
1.210823390001176
 42
0.0
 10
2.970689924034468
 20
1.210823390001176
 42
0.0
 97
       12
330
D2F3
330
D2F4
330
D2F7
330
D2F6
330
D2F5
330
D2CD
330
D2E3
330
D2CB
330
D2F1
330
D2F2
330
D2EE
330
D2F8
 75
     0
 76
     1
 52
0.0
 41
0.01
 77
     0
 78
     1
 53
45.0
 43
-5.292718358303066
 44
-4.627344112226039
 45
-0.0008838834764832
 46
0.0008838834764832
 79
     0
 47
0.0018223849227092
 98
        1
 10
3.079720674334129
 20
1.01768437473231
  0
LWPOLYLINE
  5
D2CB
102
{ACAD_REACTORS
330
D2CA
102
}
330
D2BC
100
AcDbEntity
  8
BORDER
100
AcDbPolyline
 90
        2
 70
     0
 43
0.0
 10
2.50571624967424
 20
0.772901002687239
 42
0.3701462908612907
 10
2.78102293364143
 20
0.5282791289380518
 42
5.602276019182287
  0
TEXT
  5
D2CC
330
D2BC
100
AcDbEntity
  8
BORDER
100
AcDbText
 10
2.50374286057664
 20
0.0894040491941448
 30
0.0
 40
0.285
  1
O
 41
1.399999999999999
  7
STYLE1
100
AcDbText
  0
LINE
  5
D2CD
102
{ACAD_REACTORS
330
D2CA
102
}
330
D2BC
100
AcDbEntity
  8
BORDER
100
AcDbLine
 10
2.50571624967424
 20
1.210823390001177
 30
0.0
 11
2.742595799279769
 21
1.210823390001177
 31
0.0
  0
LWPOLYLINE
  5
D2CE
102
{ACAD_REACTORS
330
D2DB
102
}
330
D2BC
100
AcDbEntity
  8
BORDER
100
AcDbPolyline
 90
        2
 70
     0
 43
0.0
 10
2.191593377458525
 20
1.150812264554936
 42
0.6909438751418913
 10
1.658748030362636
 20
0.8818297943702857
 42
-0.5048040142428894
  0
LINE
  5
D2CF
102
{ACAD_REACTORS
330
D2BD
102
}
330
D2BC
100
AcDbEntity
  8
BORDER
100
AcDbLine
 10
0.9335203705914416
 20
1.514036562990534
 30
0.0
 11
0.7341514419333813
 21
0.8970869212779541
 31
0.0
  0
LINE
  5
D2D0
102
{ACAD_REACTORS
330
D2BD
102
}
330
D2BC
100
AcDbEntity
  8
BORDER
100
AcDbLine
 10
1.464828691310536
 20
0.5530349891830051
 30
0.0
 11
1.768980528548198
 21
1.514036562990534
 31
0.0
  0
LINE
  5
D2D1
102
{ACAD_REACTORS
330
D2BD
102
}
330
D2BC
100
AcDbEntity
  8
BORDER
100
AcDbLine
 10
1.506269940005861
 20
1.514036562990534
 30
0.0
 11
1.328349616277119
 21
0.8970869212779541
 31
0.0
  0
LINE
  5
D2D2
102
{ACAD_REACTORS
330
D2BD
102
}
330
D2BC
100
AcDbEntity
  8
BORDER
100
AcDbLine
 10
1.138345235758166
 20
1.514036562990534
 30
0.0
 11
1.328349616277119
 21
0.8970869212779541
 31
0.0
  0
LWPOLYLINE
  5
D2D3
102
{ACAD_REACTORS
330
D2DB
102
}
330
D2BC
100
AcDbEntity
  8
BORDER
100
AcDbPolyline
 90
        2
 70
     0
 43
0.0
 10
2.191593377458525
 20
0.6128473241856352
 42
-0.6909438751418913
 10
1.658748030362636
 20
0.8818297943702857
 42
0.5048040142428894
  0
TEXT
  5
D2D4
330
D2BC
100
AcDbEntity
  8
BORDER
100
AcDbText
 10
1.447760460210798
 20
0.0894040491941448
 30
0.0
 40
0.285
  1
E
 41
0.9699999999999999
  7
STYLE1
100
AcDbText
  0
LINE
  5
D2D5
102
{ACAD_REACTORS
330
D2BD
102
}
330
D2BC
100
AcDbEntity
  8
BORDER
100
AcDbLine
 10
0.8472337288600968
 20
0.5530349891830051
 30
0.0
 11
1.03125052910525
 21
1.109661654880212
 31
0.0
  0
LINE
  5
D2D6
102
{ACAD_REACTORS
330
D2BD
102
}
330
D2BC
100
AcDbEntity
  8
BORDER
100
AcDbLine
 10
1.215267329350403
 20
0.5530349891830051
 30
0.0
 11
1.03125052910525
 21
1.109661654880212
 31
0.0
  0
TEXT
  5
D2D7
330
D2BC
100
AcDbEntity
  8
BORDER
100
AcDbText
 10
0.9953918360299631
 20
0.0894040491941448
 30
0.0
 40
0.285
  1
E
 41
0.9699999999999999
  7
STYLE1
100
AcDbText
  0
LINE
  5
D2D8
102
{ACAD_REACTORS
330
D2C0
102
}
330
D2BC
100
AcDbEntity
  8
BORDER
100
AcDbLine
 10
0.9140940972618372
 20
0.2080208168615893
 30
0.0
 11
0.9140940972618372
 21
0.0910517863787828
 31
0.0
  0
TEXT
  5
D2D9
330
D2BC
100
AcDbEntity
  8
BORDER
100
AcDbText
 10
1.253230443386721
 20
0.0894040491941448
 30
0.0
 40
0.285
  1
L
 41
0.85
  7
STYLE1
100
AcDbText
  0
LINE
  5
D2DA
102
{ACAD_REACTORS
330
D2BD
102
}
330
D2BC
100
AcDbEntity
  8
BORDER
100
AcDbLine
 10
1.215267329350403
 20
0.5530349891830051
 30
0.0
 11
1.464828691310536
 21
0.5530349891830051
 31
0.0
  0
HATCH
  5
D2DB
330
D2BC
100
AcDbEntity
  8
BORDER
100
AcDbHatch
 10
0.0
 20
0.0
 30
0.0
210
0.0
220
0.0
230
1.0
  2
ANSI31
 70
     0
 71
     1
 91
        2
 92
        7
 72
     1
 73
     1
 93
        7
 10
2.191593377458524
 20
1.150812264554938
 42
0.6909438751418885
 10
1.658748030362636
 20
0.8818297943702857
 42
0.6909438751418913
 10
2.191593377458525
 20
0.6128473241856352
 42
0.0
 10
2.191593377458525
 20
0.5528361987393931
 42
0.0
 10
2.429073479363005
 20
0.552836198739394
 42
0.0
 10
2.429073479363007
 20
1.210823390001176
 42
0.0
 10
2.191593377458525
 20
1.210823390001176
 42
0.0
 97
        7
330
D2E4
330
D2E5
330
D2CE
330
D2D3
330
D2DD
330
D2E1
330
D2DC
 92
       22
 72
     1
 73
     1
 93
        2
 10
2.192716511622444
 20
0.8818297943702857
 42
-1.0
 10
1.892536621907511
 20
0.8818297943702857
 42
-1.0
 97
        1
330
D2E2
 75
     0
 76
     1
 52
0.0
 41
0.01
 77
     0
 78
     1
 53
45.0
 43
-9.074404660880137
 44
-4.627344112226039
 45
-0.0008838834764832
 46
0.0008838834764832
 79
     0
 47
0.0025121746057047
 98
        2
 10
2.267062002204614
 20
1.078946274350886
 10
2.267062002204614
 20
1.078946274350886
  0
LINE
  5
D2DC
102
{ACAD_REACTORS
330
D2DB
102
}
330
D2BC
100
AcDbEntity
  8
BORDER
100
AcDbLine
 10
2.429073479363006
 20
1.210823390001176
 30
0.0
 11
2.429073479363006
 21
0.552836198739394
 31
0.0
  0
LINE
  5
D2DD
102
{ACAD_REACTORS
330
D2DB
102
}
330
D2BC
100
AcDbEntity
  8
BORDER
100
AcDbLine
 10
2.191593377458525
 20
0.552836198739394
 30
0.0
 11
2.191593377458525
 21
0.6128473241856796
 31
0.0
  0
TEXT
  5
D2DE
330
D2BC
100
AcDbEntity
  8
BORDER
100
AcDbText
 10
1.976153170121573
 20
0.0894040491941448
 30
0.0
 40
0.285
  1
A
 41
1.199999999999999
  7
STYLE1
100
AcDbText
  0
TEXT
  5
D2DF
330
D2BC
100
AcDbEntity
  8
BORDER
100
AcDbText
 10
1.703258235700069
 20
0.0894040491941448
 30
0.0
 40
0.285
  1
V
 41
1.199999999999999
  7
STYLE1
100
AcDbText
  0
TEXT
  5
D2E0
330
D2BC
100
AcDbEntity
  8
BORDER
100
AcDbText
 10
2.281467630746153
 20
0.0894040491941448
 30
0.0
 40
0.285
  1
T
 41
0.9699999999999999
  7
STYLE1
100
AcDbText
  0
LINE
  5
D2E1
102
{ACAD_REACTORS
330
D2DB
102
}
330
D2BC
100
AcDbEntity
  8
BORDER
100
AcDbLine
 10
2.429073479363006
 20
0.552836198739394
 30
0.0
 11
2.191593377458524
 21
0.5528361987393931
 31
0.0
  0
CIRCLE
  5
D2E2
102
{ACAD_REACTORS
330
D2DB
102
}
330
D2BC
100
AcDbEntity
  8
BORDER
100
AcDbCircle
 10
2.042626566764978
 20
0.8818297943702857
 30
0.0
 40
0.1500899448574664
  0
LINE
  5
D2E3
102
{ACAD_REACTORS
330
D2CA
102
}
330
D2BC
100
AcDbEntity
  8
BORDER
100
AcDbLine
 10
2.50571624967424
 20
1.210823390001178
 30
0.0
 11
2.50571624967424
 21
0.772901002687239
 31
0.0
  0
LINE
  5
D2E4
102
{ACAD_REACTORS
330
D2DB
102
}
330
D2BC
100
AcDbEntity
  8
BORDER
100
AcDbLine
 10
2.429073479363006
 20
1.210823390001176
 30
0.0
 11
2.191593377458525
 21
1.210823390001176
 31
0.0
  0
LINE
  5
D2E5
102
{ACAD_REACTORS
330
D2DB
102
}
330
D2BC
100
AcDbEntity
  8
BORDER
100
AcDbLine
 10
2.191593377458525
 20
1.15081226455498
 30
0.0
 11
2.191593377458525
 21
1.210823390001176
 31
0.0
  0
LINE
  5
D2E6
102
{ACAD_REACTORS
330
D2BD
102
}
330
D2BC
100
AcDbEntity
  8
BORDER
100
AcDbLine
 10
1.50626994000586
 20
1.514036562990535
 30
0.0
 11
1.768980528548198
 21
1.514036562990534
 31
0.0
  0
LINE
  5
D2E7
102
{ACAD_REACTORS
330
D2BD
102
}
330
D2BC
100
AcDbEntity
  8
BORDER
100
AcDbLine
 10
0.9335203705914416
 20
1.514036562990535
 30
0.0
 11
1.138345235758165
 21
1.514036562990535
 31
0.0
  0
LINE
  5
D2E8
102
{ACAD_REACTORS
330
D2C0
102
}
330
D2BC
100
AcDbEntity
  8
BORDER
100
AcDbLine
 10
1.911491491027344
 20
1.33286586024981
 30
0.0
 11
2.028460521510151
 21
1.33286586024981
 31
0.0
  0
HATCH
  5
D2E9
330
D2BC
100
AcDbEntity
  8
BORDER
100
AcDbHatch
 10
0.0
 20
0.0
 30
0.0
210
0.0
220
0.0
230
1.0
  2
ANSI31
 70
     0
 71
     1
 91
        1
 92
        7
 72
     1
 73
     1
 93
       11
 10
3.511746224409179
 20
1.176745457618272
 42
0.0
 10
3.511746224409179
 20
1.210823390001175
 42
0.0
 10
3.283593305412015
 20
1.210823390001175
 42
0.0
 10
3.283593305412015
 20
0.2247896168944052
 42
0.0
 10
3.543552027320888
 20
0.2247896168944043
 42
0.0
 10
3.543552027320888
 20
0.7804715789202224
 42
0.0
 10
3.444471229704014
 20
0.7804715789202215
 42
0.0
 10
3.659452863703549
 20
1.067198966848452
 42
0.0
 10
3.86747457619468
 20
0.7804715789202224
 42
0.0
 10
3.772608220453182
 20
0.7804715789202224
 42
0.0
 10
3.772608220453182
 20
0.5359676872847592
 42
1.176376039828213
 97
       11
330
D2FA
330
D2F9
330
D2EF
330
D2EA
330
D2FB
330
D2EB
330
D2EC
330
D2FF
330
D300
330
D2FC
330
D2ED
 75
     0
 76
     1
 52
0.0
 41
0.01
 77
     0
 78
     1
 53
45.0
 43
-5.292718358303066
 44
-4.627344112226039
 45
-0.0008838834764832
 46
0.0008838834764832
 79
     0
 47
0.0065990708823471
 98
        1
 10
3.504721581375125
 20
1.07404813902949
  0
LINE
  5
D2EA
102
{ACAD_REACTORS
330
D2E9
102
}
330
D2BC
100
AcDbEntity
  8
BORDER
100
AcDbLine
 10
3.283593305412015
 20
0.2247896168944043
 30
0.0
 11
3.543552027320888
 21
0.2247896168944043
 31
0.0
  0
LINE
  5
D2EB
102
{ACAD_REACTORS
330
D2E9
102
}
330
D2BC
100
AcDbEntity
  8
BORDER
100
AcDbLine
 10
3.543552027320888
 20
0.7804715789202224
 30
0.0
 11
3.444471229704014
 21
0.7804715789202215
 31
0.0
  0
LINE
  5
D2EC
102
{ACAD_REACTORS
330
D2E9
102
}
330
D2BC
100
AcDbEntity
  8
BORDER
100
AcDbLine
 10
3.444471229704014
 20
0.7804715789202215
 30
0.0
 11
3.659452863703549
 21
1.067198966848452
 31
0.0
  0
LWPOLYLINE
  5
D2ED
102
{ACAD_REACTORS
330
D2E9
102
}
330
D2BC
100
AcDbEntity
  8
BORDER
100
AcDbPolyline
 90
        2
 70
     0
 43
0.0
 10
3.511746224409179
 20
1.17674545761826
 42
-1.176376039828327
 10
3.772608220453182
 20
0.5359676872847592
 42
0.421360934218637
  0
LWPOLYLINE
  5
D2EE
102
{ACAD_REACTORS
330
D2CA
102
}
330
D2BC
100
AcDbEntity
  8
BORDER
100
AcDbPolyline
 90
        2
 70
     0
 43
0.0
 10
3.207569473639999
 20
0.772901002687239
 42
-0.3701462908612907
 10
2.932262789672808
 20
0.5282791289380518
 42
-5.602276019182287
  0
LINE
  5
D2EF
102
{ACAD_REACTORS
330
D2E9
102
}
330
D2BC
100
AcDbEntity
  8
BORDER
100
AcDbLine
 10
3.283593305412015
 20
1.210823390001175
 30
0.0
 11
3.283593305412015
 21
0.2247896168944043
 31
0.0
  0
TEXT
  5
D2F0
330
D2BC
100
AcDbEntity
  8
BORDER
100
AcDbText
 10
2.932174126816903
 20
0.0894040491941448
 30
0.0
 40
0.285
  1
R
 41
0.9699999999999999
  7
STYLE1
100
AcDbText
  0
LINE
  5
D2F1
102
{ACAD_REACTORS
330
D2CA
102
}
330
D2BC
100
AcDbEntity
  8
BORDER
100
AcDbLine
 10
2.78102293364143
 20
0.5282791289380518
 30
0.0
 11
2.856642861657119
 21
0.5282791289380518
 31
0.0
  0
LINE
  5
D2F2
102
{ACAD_REACTORS
330
D2CA
102
}
330
D2BC
100
AcDbEntity
  8
BORDER
100
AcDbLine
 10
2.932262789672808
 20
0.5282791289380518
 30
0.0
 11
2.856642861657119
 21
0.5282791289380518
 31
0.0
  0
LINE
  5
D2F3
102
{ACAD_REACTORS
330
D2CA
102
}
330
D2BC
100
AcDbEntity
  8
BORDER
100
AcDbLine
 10
3.207569473639999
 20
1.210823390001177
 30
0.0
 11
2.97068992403447
 21
1.210823390001177
 31
0.0
  0
LINE
  5
D2F4
102
{ACAD_REACTORS
330
D2CA
102
}
330
D2BC
100
AcDbEntity
  8
BORDER
100
AcDbLine
 10
2.97068992403447
 20
1.210823390001177
 30
0.0
 11
2.97068992403447
 21
0.8103116902278602
 31
0.0
  0
LINE
  5
D2F5
102
{ACAD_REACTORS
330
D2CA
102
}
330
D2BC
100
AcDbEntity
  8
BORDER
100
AcDbLine
 10
2.742595799279769
 20
1.210823390001177
 30
0.0
 11
2.742595799279769
 21
0.8103116902278602
 31
0.0
  0
LWPOLYLINE
  5
D2F6
102
{ACAD_REACTORS
330
D2CA
102
}
330
D2BC
100
AcDbEntity
  8
BORDER
100
AcDbPolyline
 90
        2
 70
     0
 43
0.0
 10
2.742595799279769
 20
0.8103116902278602
 42
0.4200313539007612
 10
2.856642861657119
 20
0.7143926244696806
 42
11.58242317374937
  0
LWPOLYLINE
  5
D2F7
102
{ACAD_REACTORS
330
D2CA
102
}
330
D2BC
100
AcDbEntity
  8
BORDER
100
AcDbPolyline
 90
        2
 70
     0
 43
0.0
 10
2.97068992403447
 20
0.8103116902278602
 42
-0.4200313539007612
 10
2.856642861657119
 20
0.7143926244696806
 42
-11.58242317374937
  0
LINE
  5
D2F8
102
{ACAD_REACTORS
330
D2CA
102
}
330
D2BC
100
AcDbEntity
  8
BORDER
100
AcDbLine
 10
3.207569473639999
 20
1.210823390001178
 30
0.0
 11
3.207569473639999
 21
0.772901002687239
 31
0.0
  0
LINE
  5
D2F9
102
{ACAD_REACTORS
330
D2E9
102
}
330
D2BC
100
AcDbEntity
  8
BORDER
100
AcDbLine
 10
3.283593305412015
 20
1.210823390001174
 30
0.0
 11
3.511746224409179
 21
1.210823390001175
 31
0.0
  0
LINE
  5
D2FA
102
{ACAD_REACTORS
330
D2E9
102
}
330
D2BC
100
AcDbEntity
  8
BORDER
100
AcDbLine
 10
3.511746224409179
 20
1.210823390001175
 30
0.0
 11
3.511746224409179
 21
1.17674545761826
 31
0.0
  0
LINE
  5
D2FB
102
{ACAD_REACTORS
330
D2E9
102
}
330
D2BC
100
AcDbEntity
  8
BORDER
100
AcDbLine
 10
3.543552027320888
 20
0.2247896168944043
 30
0.0
 11
3.543552027320888
 21
0.7804715789202215
 31
0.0
  0
LINE
  5
D2FC
102
{ACAD_REACTORS
330
D2E9
102
}
330
D2BC
100
AcDbEntity
  8
BORDER
100
AcDbLine
 10
3.772608220453182
 20
0.7804715789202224
 30
0.0
 11
3.772608220453182
 21
0.5359676872847592
 31
0.0
  0
TEXT
  5
D2FD
330
D2BC
100
AcDbEntity
  8
BORDER
100
AcDbText
 10
3.927258038517418
 20
0.0894040491941448
 30
0.0
 40
0.285
  1
O
 41
1.399999999999999
  7
STYLE1
100
AcDbText
  0
TEXT
  5
D2FE
330
D2BC
100
AcDbEntity
  8
BORDER
100
AcDbText
 10
3.616382320200756
 20
0.0894040491941448
 30
0.0
 40
0.285
  1
C
 41
1.199999999999999
  7
STYLE1
100
AcDbText
  0
LINE
  5
D2FF
102
{ACAD_REACTORS
330
D2E9
102
}
330
D2BC
100
AcDbEntity
  8
BORDER
100
AcDbLine
 10
3.659452863703549
 20
1.067198966848452
 30
0.0
 11
3.867474576194682
 21
0.7804715789202215
 31
0.0
  0
LINE
  5
D300
102
{ACAD_REACTORS
330
D2E9
102
}
330
D2BC
100
AcDbEntity
  8
BORDER
100
AcDbLine
 10
3.867474576194684
 20
0.7804715789202224
 30
0.0
 11
3.772608220453182
 21
0.7804715789202224
 31
0.0
  0
LWPOLYLINE
  5
D301
102
{ACAD_REACTORS
330
D30F
102
}
330
D2BC
100
AcDbEntity
  8
BORDER
100
AcDbPolyline
 90
        2
 70
     0
 43
0.0
 10
5.973279680035597
 20
1.150812264554936
 42
0.6909438751418913
 10
5.440434332939707
 20
0.8818297943702857
 42
-0.5048040142428894
  0
TEXT
  5
D302
330
D2BC
100
AcDbEntity
  8
BORDER
100
AcDbText
 10
5.241307695552828
 20
0.0894040491941448
 30
0.0
 40
0.285
  1
N
 41
1.399999999999999
  7
STYLE1
100
AcDbText
  0
HATCH
  5
D303
330
D2BC
100
AcDbEntity
  8
BORDER
100
AcDbHatch
 10
0.0
 20
0.0
 30
0.0
210
0.0
220
0.0
230
1.0
  2
ANSI31
 70
     0
 71
     1
 91
        1
 92
        7
 72
     1
 73
     1
 93
        4
 10
5.406875676888972
 20
0.9985006720278359
 42
0.0
 10
5.406875676888972
 20
1.193069413294879
 42
1.650530424535229
 10
5.406875676888972
 20
0.561525602554343
 42
0.0
 10
5.406875676888972
 20
0.7610711911541639
 42
-2.336901821186075
 97
        4
330
D304
330
D30E
330
D305
330
D316
 75
     0
 76
     1
 52
0.0
 41
0.01
 77
     0
 78
     1
 53
45.0
 43
-5.292718358303066
 44
-4.627344112226039
 45
-0.0008838834764832
 46
0.0008838834764832
 79
     0
 47
0.0013045575780811
 98
        1
 10
5.314274491218899
 20
1.093733382300416
  0
LWPOLYLINE
  5
D304
102
{ACAD_REACTORS
330
D303
102
}
330
D2BC
100
AcDbEntity
  8
BORDER
100
AcDbPolyline
 90
        2
 70
     0
 43
0.0
 10
5.406875676888972
 20
1.193069413294879
 42
1.650530424535229
 10
5.406875676888972
 20
0.561525602554343
 42
0.5256020146743076
  0
LWPOLYLINE
  5
D305
102
{ACAD_REACTORS
330
D303
102
}
330
D2BC
100
AcDbEntity
  8
BORDER
100
AcDbPolyline
 90
        2
 70
     0
 43
0.0
 10
5.406875676888972
 20
0.9985006720278359
 42
2.336901821186075
 10
5.406875676888972
 20
0.7610711911541639
 42
-1.34460690001456
  0
LWPOLYLINE
  5
D306
102
{ACAD_REACTORS
330
D30F
102
}
330
D2BC
100
AcDbEntity
  8
BORDER
100
AcDbPolyline
 90
        2
 70
     0
 43
0.0
 10
5.973279680035597
 20
0.6128473241856352
 42
-0.6909438751418913
 10
5.440434332939707
 20
0.8818297943702857
 42
0.5048040142428894
  0
LINE
  5
D307
102
{ACAD_REACTORS
330
D2C6
102
}
330
D2BC
100
AcDbEntity
  8
BORDER
100
AcDbLine
 10
4.850541574047026
 20
1.210823390001176
 30
0.0
 11
4.850541574047026
 21
0.552836198739394
 31
0.0
  0
LINE
  5
D308
102
{ACAD_REACTORS
330
D2C6
102
}
330
D2BC
100
AcDbEntity
  8
BORDER
100
AcDbLine
 10
4.613061472142545
 20
0.552836198739394
 30
0.0
 11
4.613061472142545
 21
0.6128473241856796
 31
0.0
  0
TEXT
  5
D309
330
D2BC
100
AcDbEntity
  8
BORDER
100
AcDbText
 10
4.915806984056283
 20
0.0894040491941448
 30
0.0
 40
0.285
  1
A
 41
1.199999999999999
  7
STYLE1
100
AcDbText
  0
TEXT
  5
D30A
330
D2BC
100
AcDbEntity
  8
BORDER
100
AcDbText
 10
4.733771086927012
 20
0.0894040491941448
 30
0.0
 40
0.285
  1
P
 41
0.95
  7
STYLE1
100
AcDbText
  0
LINE
  5
D30B
102
{ACAD_REACTORS
330
D2C6
102
}
330
D2BC
100
AcDbEntity
  8
BORDER
100
AcDbLine
 10
4.850541574047026
 20
0.552836198739394
 30
0.0
 11
4.613061472142543
 21
0.5528361987393931
 31
0.0
  0
LINE
  5
D30C
102
{ACAD_REACTORS
330
D2C6
102
}
330
D2BC
100
AcDbEntity
  8
BORDER
100
AcDbLine
 10
4.850541574047026
 20
1.210823390001176
 30
0.0
 11
4.613061472142545
 21
1.210823390001176
 31
0.0
  0
LINE
  5
D30D
102
{ACAD_REACTORS
330
D2C6
102
}
330
D2BC
100
AcDbEntity
  8
BORDER
100
AcDbLine
 10
4.613061472142545
 20
1.15081226455498
 30
0.0
 11
4.613061472142545
 21
1.210823390001176
 31
0.0
  0
LINE
  5
D30E
102
{ACAD_REACTORS
330
D303
102
}
330
D2BC
100
AcDbEntity
  8
BORDER
100
AcDbLine
 10
5.406875676888972
 20
0.561525602554343
 30
0.0
 11
5.406875676888972
 21
0.761071191154187
 31
0.0
  0
HATCH
  5
D30F
330
D2BC
100
AcDbEntity
  8
BORDER
100
AcDbHatch
 10
0.0
 20
0.0
 30
0.0
210
0.0
220
0.0
230
1.0
  2
ANSI31
 70
     0
 71
     1
 91
        2
 92
        7
 72
     1
 73
     1
 93
        7
 10
6.210759781940078
 20
1.210823390001175
 42
0.0
 10
5.973279680035597
 20
1.210823390001177
 42
0.0
 10
5.973279680035597
 20
1.150812264554936
 42
0.6909438751418913
 10
5.440434332939707
 20
0.8818297943702857
 42
0.6909438751418913
 10
5.973279680035597
 20
0.6128473241856352
 42
0.0
 10
5.973279680035599
 20
0.5528361987393931
 42
0.0
 10
6.210759781940078
 20
0.5528361987393949
 42
0.0
 97
        7
330
D317
330
D318
330
D301
330
D306
330
D310
330
D313
330
D311
 92
       22
 72
     1
 73
     1
 93
        2
 10
5.974402814199516
 20
0.8818297943702857
 42
-1.0
 10
5.674222924484583
 20
0.8818297943702857
 42
-1.0
 97
        1
330
D315
 75
     0
 76
     1
 52
0.0
 41
0.01
 77
     0
 78
     1
 53
45.0
 43
-5.292718358303066
 44
-4.627344112226039
 45
-0.0008838834764832
 46
0.0008838834764832
 79
     0
 47
0.0025121746057047
 98
        2
 10
6.048748304781685
 20
1.078946274350886
 10
6.048748304781685
 20
1.078946274350886
  0
LINE
  5
D310
102
{ACAD_REACTORS
330
D30F
102
}
330
D2BC
100
AcDbEntity
  8
BORDER
100
AcDbLine
 10
5.973279680035597
 20
0.552836198739394
 30
0.0
 11
5.973279680035597
 21
0.6128473241856796
 31
0.0
  0
LINE
  5
D311
102
{ACAD_REACTORS
330
D30F
102
}
330
D2BC
100
AcDbEntity
  8
BORDER
100
AcDbLine
 10
6.210759781940078
 20
1.210823390001176
 30
0.0
 11
6.210759781940078
 21
0.552836198739394
 31
0.0
  0
TEXT
  5
D312
330
D2BC
100
AcDbEntity
  8
BORDER
100
AcDbText
 10
5.62148292330966
 20
0.0894040491941448
 30
0.0
 40
0.285
  1
Y
  7
STYLE1
100
AcDbText
  0
LINE
  5
D313
102
{ACAD_REACTORS
330
D30F
102
}
330
D2BC
100
AcDbEntity
  8
BORDER
100
AcDbLine
 10
6.210759781940078
 20
0.552836198739394
 30
0.0
 11
5.973279680035595
 21
0.5528361987393931
 31
0.0
  0
TEXT
  5
D314
330
D2BC
100
AcDbEntity
  8
BORDER
100
AcDbText
 10
5.928229672617966
 20
0.3716965974513329
 30
0.0
 40
0.07125
  1
TM
 41
1.1
  7
STYLE1
100
AcDbText
  0
CIRCLE
  5
D315
102
{ACAD_REACTORS
330
D30F
102
}
330
D2BC
100
AcDbEntity
  8
BORDER
100
AcDbCircle
 10
5.824312869342049
 20
0.8818297943702857
 30
0.0
 40
0.1500899448574664
  0
LINE
  5
D316
102
{ACAD_REACTORS
330
D303
102
}
330
D2BC
100
AcDbEntity
  8
BORDER
100
AcDbLine
 10
5.406875676888972
 20
0.998500672027859
 30
0.0
 11
5.406875676888972
 21
1.193069413294879
 31
0.0
  0
LINE
  5
D317
102
{ACAD_REACTORS
330
D30F
102
}
330
D2BC
100
AcDbEntity
  8
BORDER
100
AcDbLine
 10
6.210759781940078
 20
1.210823390001176
 30
0.0
 11
5.973279680035597
 21
1.210823390001176
 31
0.0
  0
LINE
  5
D318
102
{ACAD_REACTORS
330
D30F
102
}
330
D2BC
100
AcDbEntity
  8
BORDER
100
AcDbLine
 10
5.973279680035597
 20
1.15081226455498
 30
0.0
 11
5.973279680035597
 21
1.210823390001176
 31
0.0
  0
ENDBLK
  5
D31A
330
D2BC
100
AcDbEntity
  8
0
100
AcDbBlockEnd
  0
BLOCK
  5
D34D
330
D31B
100
AcDbEntity
  8
0
100
AcDbBlockBegin
  2
A$C45FA2CBB
 70
     2
 10
0.0
 20
0.0
 30
0.0
  3
A$C45FA2CBB
  1

  0
ATTDEF
  5
D31C
330
D31B
100
AcDbEntity
  8
BORDER
100
AcDbText
 10
2.602259108042209
 20
1.152207951334488
 30
0.0
 40
0.0778305
  1

  7
STYLE1
 72
     1
 11
2.602259108042209
 21
1.191123201334488
 31
0.0
100
AcDbAttributeDefinition
280
     0
  3
ELEVATOR CONTRACTOR
  2
NAME
 70
     0
 74
     2
280
     0
  0
ATTDEF
  5
D31D
330
D31B
100
AcDbEntity
  8
BORDER
100
AcDbText
 10
1.42748491402852
 20
0.9616283846896434
 30
0.0
 40
0.0778305
  1

  7
STYLE1
 72
     1
 11
1.42748491402852
 21
1.000543634689643
 31
0.0
100
AcDbAttributeDefinition
280
     0
  3
JOB NAME
  2
NAME
 70
     0
 74
     2
280
     0
  0
ATTDEF
  5
D31E
330
D31B
100
AcDbEntity
  8
BORDER
100
AcDbText
 10
3.385018844706094
 20
0.9616283846896434
 30
0.0
 40
0.0778305
  1

  7
STYLE1
 72
     1
 11
3.385018844706094
 21
1.000543634689643
 31
0.0
100
AcDbAttributeDefinition
280
     0
  3
ORDER NUMBER
  2
000000
 70
     0
 74
     2
280
     0
  0
ATTDEF
  5
D31F
330
D31B
100
AcDbEntity
  8
BORDER
100
AcDbText
 10
0.3702518885642885
 20
0.0421102961156979
 30
0.0
 40
0.0778305
  1

  7
STYLE1
 72
     1
 11
0.3702518885642885
 21
0.0810255461156979
 31
0.0
100
AcDbAttributeDefinition
280
     0
  3
DRAWN BY:
  2
MLK.
 70
     0
 74
     2
280
     0
  0
ATTDEF
  5
D320
330
D31B
100
AcDbEntity
  8
BORDER
100
AcDbText
 10
0.9882669056348643
 20
0.0421102961156979
 30
0.0
 40
0.0778305
  1

  7
STYLE1
 72
     1
 11
0.9882669056348643
 21
0.0810255461156979
 31
0.0
100
AcDbAttributeDefinition
280
     0
  3
DATE:
  2
00/00/00
 70
     0
 74
     2
280
     0
  0
ATTDEF
  5
D321
330
D31B
100
AcDbEntity
  8
BORDER
100
AcDbText
 10
1.795086183149413
 20
0.7140110640229583
 30
0.0
 40
0.11
  1

  7
STYLE1
 72
     1
 11
1.795086183149413
 21
0.7690110640229584
 31
0.0
100
AcDbAttributeDefinition
280
     0
  3
TITLE BLOCK 1ST LINE
  2
NAME
 70
     0
 74
     2
280
     0
  0
ATTDEF
  5
D322
330
D31B
100
AcDbEntity
  8
BORDER
100
AcDbText
 10
1.795086183149413
 20
0.4091644631502855
 30
0.0
 40
0.11
  1

  7
STYLE1
 72
     1
 11
1.795086183149413
 21
0.4641644631502855
 31
0.0
100
AcDbAttributeDefinition
280
     0
  3
TITLE BLOCK 2ND LINE
  2
NAME
 70
     0
 74
     2
280
     0
  0
ATTDEF
  5
D323
330
D31B
100
AcDbEntity
  8
BORDER
100
AcDbText
 10
3.170227345187038
 20
0.1107312090050261
 30
0.0
 40
0.1
  1

  7
STYLE1
 72
     4
 11
3.170227345187038
 21
0.1107312090050261
 31
0.0
100
AcDbAttributeDefinition
280
     0
  3
DRAWING NUMBER
  2
C-003015
 70
     0
280
     0
  0
ARC
  5
D324
330
D31B
100
AcDbEntity
  8
BORDER
100
AcDbCircle
 10
0.4316347015782629
 20
1.774995508309271
 30
0.0
 40
0.4226412776318015
100
AcDbArc
 50
21.38648137766207
 51
175.9212681707675
  0
ARC
  5
D325
330
D31B
100
AcDbEntity
  8
BORDER
100
AcDbCircle
 10
0.4316347015782629
 20
1.774995508309271
 30
0.0
 40
0.4302802514480037
100
AcDbArc
 50
22.08221518144672
 51
175.9576513202748
  0
INSERT
  5
D326
330
D31B
100
AcDbEntity
  8
BORDER
100
AcDbBlockReference
  2
A$C5E6C7229
 10
0.0480674510856414
 20
1.359700692583424
 30
0.0
 41
0.37372406352327
 42
0.37372406352327
 43
0.37372406352327
  0
TEXT
  5
D327
330
D31B
100
AcDbEntity
  8
BORDER
100
AcDbText
 10
0.0318892695947266
 20
1.152207951334488
 30
0.0
 40
0.0778305
  1
DUMBWAITER CONTRACTOR:
  7
STYLE1
 11
0.0318892695947266
 21
1.191123201334488
 31
0.0
100
AcDbText
 73
     2
  0
LINE
  5
D328
330
D31B
100
AcDbEntity
  8
BORDER
100
AcDbLine
 10
0.0100638669369282
 20
0.9090733382751459
 30
0.0
 11
2.221144700747489
 21
0.9090733382751441
 31
0.0
  0
LINE
  5
D329
330
D31B
100
AcDbEntity
  8
BORDER
100
AcDbLine
 10
0.0100638669369282
 20
1.092013931104141
 30
0.0
 11
2.221144700747489
 21
1.092013931104141
 31
0.0
  0
LINE
  5
D32A
330
D31B
100
AcDbEntity
  8
BORDER
100
AcDbLine
 10
2.7693387165717
 20
0.3241021888980979
 30
0.0
 11
1.246093901078074
 21
0.3241021888980979
 31
0.0
  0
LINE
  5
D32B
330
D31B
100
AcDbEntity
  8
BORDER
100
AcDbLine
 10
0.0100638669369282
 20
1.282593497748986
 30
0.0
 11
3.5801084993619
 21
1.282593497748986
 31
0.0
  0
LINE
  5
D32C
330
D31B
100
AcDbEntity
  8
BORDER
100
AcDbLine
 10
0.0100638669369282
 20
1.290232471564836
 30
0.0
 11
3.5801084993619
 21
1.290232471564836
 31
0.0
  0
LINE
  5
D32D
330
D31B
100
AcDbEntity
  8
BORDER
100
AcDbLine
 10
0.0024248931209137
 20
-0.0000000014784352
 30
0.0
 11
3.5801084993619
 21
-0.0000000014784369
 31
0.0
  0
LINE
  5
D32E
330
D31B
100
AcDbEntity
  8
BORDER
100
AcDbLine
 10
0.0100638669369282
 20
1.099652904919991
 30
0.0
 11
3.5801084993619
 21
1.099652904919991
 31
0.0
  0
LINE
  5
D32F
330
D31B
100
AcDbEntity
  8
BORDER
100
AcDbLine
 10
0.0100638669369282
 20
0.9014343644592948
 30
0.0
 11
3.5801084993619
 21
0.9014343644592948
 31
0.0
  0
LINE
  5
D330
330
D31B
100
AcDbEntity
  8
BORDER
100
AcDbLine
 10
3.580108499361903
 20
0.3317411627139482
 30
0.0
 11
0.0100638669369282
 21
0.331741162713949
 31
0.0
  0
LINE
  5
D331
330
D31B
100
AcDbEntity
  8
BORDER
100
AcDbLine
 10
0.8303519033588688
 20
1.936753623377422
 30
0.0
 11
3.580108499361903
 21
1.936753623377424
 31
0.0
  0
LINE
  5
D332
330
D31B
100
AcDbEntity
  8
BORDER
100
AcDbLine
 10
0.825173695653822
 20
1.929114649561225
 30
0.0
 11
3.580108499361903
 21
1.929114649561181
 31
0.0
  0
TEXT
  5
D333
330
D31B
100
AcDbEntity
  8
BORDER
100
AcDbText
 10
1.421047891362404
 20
0.2292125692573034
 30
0.0
 40
0.066
  1
%%USIGNATURE OF APPROVAL%%u
 41
0.95
  7
STYLE1
 72
     1
 11
2.007716308824887
 21
0.2622125692573034
 31
0.0
100
AcDbText
 73
     2
  0
LINE
  5
D334
330
D31B
100
AcDbEntity
  8
BORDER
100
AcDbLine
 10
0.0100638669369282
 20
0.331741162713949
 30
0.0
 11
0.0100638669369282
 21
0.9014343644592948
 31
0.0
  0
LINE
  5
D335
330
D31B
100
AcDbEntity
  8
BORDER
100
AcDbLine
 10
0.0024248931209137
 20
-0.0000000014784352
 30
0.0
 11
0.0024248931209137
 21
1.805327588853837
 31
0.0
  0
LINE
  5
D336
330
D31B
100
AcDbEntity
  8
BORDER
100
AcDbLine
 10
0.7304399101916541
 20
0.3241021888980979
 30
0.0
 11
0.0100638669369282
 21
0.3241021888980988
 31
0.0
  0
TEXT
  5
D337
330
D31B
100
AcDbEntity
  8
BORDER
100
AcDbText
 10
0.0545499320499637
 20
0.2041613913039649
 30
0.0
 40
0.0778305
  1
DRAWN BY:
  7
STYLE1
 72
     1
 11
0.3702518885642885
 21
0.2430766413039649
 31
0.0
100
AcDbText
 73
     2
  0
LINE
  5
D338
330
D31B
100
AcDbEntity
  8
BORDER
100
AcDbLine
 10
0.0100638669369282
 20
-0.0000000014784352
 30
0.0
 11
0.0100638669369282
 21
0.3241021888980979
 31
0.0
  0
LINE
  5
D339
330
D31B
100
AcDbEntity
  8
BORDER
100
AcDbLine
 10
1.238454927262226
 20
0.3241021888980979
 30
0.0
 11
0.7380788840075017
 21
0.3241021888980979
 31
0.0
  0
TEXT
  5
D33A
330
D31B
100
AcDbEntity
  8
BORDER
100
AcDbText
 10
0.8235539955052598
 20
0.2041613913039649
 30
0.0
 40
0.0778305
  1
DATE:
  7
STYLE1
 72
     1
 11
0.9882669056348643
 21
0.2430766413039649
 31
0.0
100
AcDbText
 73
     2
  0
LINE
  5
D33B
330
D31B
100
AcDbEntity
  8
BORDER
100
AcDbLine
 10
0.7304399101916506
 20
0.3241021888980988
 30
0.0
 11
0.7304399101916506
 21
-0.000000001478436
 31
0.0
  0
LINE
  5
D33C
330
D31B
100
AcDbEntity
  8
BORDER
100
AcDbLine
 10
0.7380788840075017
 20
0.3241021888980988
 30
0.0
 11
0.7380788840075017
 21
-0.000000001478436
 31
0.0
  0
LINE
  5
D33D
330
D31B
100
AcDbEntity
  8
BORDER
100
AcDbLine
 10
1.246093901078074
 20
0.3241021888980988
 30
0.0
 11
1.246093901078074
 21
-0.000000001478436
 31
0.0
  0
LINE
  5
D33E
330
D31B
100
AcDbEntity
  8
BORDER
100
AcDbLine
 10
1.238454927262226
 20
0.3241021888980988
 30
0.0
 11
1.238454927262226
 21
-0.000000001478436
 31
0.0
  0
LINE
  5
D33F
330
D31B
100
AcDbEntity
  8
BORDER
100
AcDbLine
 10
0.01006386693693
 20
1.099652904919991
 30
0.0
 11
0.01006386693693
 21
1.805056794676477
 31
0.0
  0
TEXT
  5
D340
330
D31B
100
AcDbEntity
  8
BORDER
100
AcDbText
 10
0.0318892695947266
 20
0.9616283846896434
 30
0.0
 40
0.0778305
  1
JOB NAME:
  7
STYLE1
 11
0.0318892695947266
 21
1.000543634689643
 31
0.0
100
AcDbText
 73
     2
  0
LINE
  5
D341
330
D31B
100
AcDbEntity
  8
BORDER
100
AcDbLine
 10
0.0100638669369282
 20
0.9090733382751468
 30
0.0
 11
0.01006386693693
 21
1.092013931104141
 31
0.0
  0
LINE
  5
D342
330
D31B
100
AcDbEntity
  8
BORDER
100
AcDbLine
 10
2.228783674563343
 20
0.9090733382751441
 30
0.0
 11
3.5801084993619
 21
0.9090733382751459
 31
0.0
  0
LINE
  5
D343
330
D31B
100
AcDbEntity
  8
BORDER
100
AcDbLine
 10
2.228783674563343
 20
1.092013931104141
 30
0.0
 11
3.5801084993619
 21
1.092013931104141
 31
0.0
  0
MTEXT
  5
D344
330
D31B
100
AcDbEntity
  8
BORDER
100
AcDbMText
 10
2.982225244568679
 20
1.609673560563016
 30
0.0
 40
0.066
 41
1.730938253798231
 46
0.0
 71
     5
 72
     5
  1
1726 North Ballard Road\PAppleton, WI 54911\PPhone: 800-238-8739
  7
STYLE1
 73
     1
 44
1.0
  0
LINE
  5
D345
330
D31B
100
AcDbEntity
  8
BORDER
100
AcDbLine
 10
3.580108499361903
 20
0.3241021888980979
 30
0.0
 11
2.776977690387552
 21
0.3241021888980979
 31
0.0
  0
TEXT
  5
D346
330
D31B
100
AcDbEntity
  8
BORDER
100
AcDbText
 10
2.797966832567338
 20
0.221125390050917
 30
0.0
 40
0.066
  1
DWG. NO.
  7
STYLE1
 11
2.797966832567338
 21
0.254125390050917
 31
0.0
100
AcDbText
 73
     2
  0
LINE
  5
D347
330
D31B
100
AcDbEntity
  8
BORDER
100
AcDbLine
 10
2.7693387165717
 20
0.3241021888980979
 30
0.0
 11
2.7693387165717
 21
-0.0000000014784352
 31
0.0
  0
LINE
  5
D348
330
D31B
100
AcDbEntity
  8
BORDER
100
AcDbLine
 10
2.776977690387548
 20
0.3241021888980979
 30
0.0
 11
2.776977690387552
 21
-0.0000000014784352
 31
0.0
  0
TEXT
  5
D349
330
D31B
100
AcDbEntity
  8
BORDER
100
AcDbText
 10
2.242969523303569
 20
0.9616283846896434
 30
0.0
 40
0.0778305
  1
ORDER NUMBER:
  7
STYLE1
 11
2.242969523303569
 21
1.000543634689643
 31
0.0
100
AcDbText
 73
     2
  0
LINE
  5
D34A
330
D31B
100
AcDbEntity
  8
BORDER
100
AcDbLine
 10
2.228783674563343
 20
0.9090733382751459
 30
0.0
 11
2.228783674563343
 21
1.092013931104141
 31
0.0
  0
LINE
  5
D34B
330
D31B
100
AcDbEntity
  8
BORDER
100
AcDbLine
 10
2.221144700747492
 20
0.9090733382751459
 30
0.0
 11
2.221144700747492
 21
1.092013931104141
 31
0.0
  0
LINE
  5
D34C
330
D31B
100
AcDbEntity
  8
BORDER
100
AcDbLine
 10
3.5801084993619
 20
-0.0000000014784369
 30
0.0
 11
3.580108499361903
 21
1.936753623377424
 31
0.0
  0
ENDBLK
  5
D34E
330
D31B
100
AcDbEntity
  8
0
100
AcDbBlockEnd
  0
BLOCK
  5
122AF
330
122AE
100
AcDbEntity
  8
0
100
AcDbBlockBegin
  2
*D85
 70
     1
 10
0.0
 20
0.0
 30
0.0
  3
*D85
  1

  0
LINE
  5
13AED
330
122AE
100
AcDbEntity
  8
Drywall
 62
     0
440
 16777216
370
    -2
100
AcDbLine
 10
210.9097963739404
 20
157.1758473540293
 30
0.0
 11
210.9097963739404
 21
158.8690950716844
 31
0.0
  0
LINE
  5
13AEE
330
122AE
100
AcDbEntity
  8
Drywall
 62
     0
440
 16777216
370
    -2
100
AcDbLine
 10
204.9097963739404
 20
156.6758473540294
 30
0.0
 11
204.9097963739404
 21
158.8690950716844
 31
0.0
  0
LINE
  5
13AEF
330
122AE
100
AcDbEntity
  8
Drywall
 62
     0
440
 16777216
370
    -2
100
AcDbLine
 10
210.1897963739404
 20
158.6190950716844
 30
0.0
 11
205.6297963739404
 21
158.6190950716844
 31
0.0
  0
LINE
  5
13AF0
330
122AE
100
AcDbEntity
  8
Drywall
 62
     0
440
 16777216
370
    -2
100
AcDbLine
 10
204.9097963739404
 20
158.6190950716844
 30
0.0
 11
204.1897963739404
 21
158.6190950716844
 31
0.0
  0
SOLID
  5
13AF1
330
122AE
100
AcDbEntity
  8
Drywall
 62
     0
440
 16777216
100
AcDbTrace
 10
210.1897963739404
 20
158.7390950716844
 30
0.0
 11
210.1897963739404
 21
158.4990950716844
 31
0.0
 12
210.9097963739404
 22
158.6190950716844
 32
0.0
 13
210.9097963739404
 23
158.6190950716844
 33
0.0
  0
SOLID
  5
13AF2
330
122AE
100
AcDbEntity
  8
Drywall
 62
     0
440
 16777216
100
AcDbTrace
 10
205.6297963739404
 20
158.7390950716844
 30
0.0
 11
205.6297963739404
 21
158.4990950716844
 31
0.0
 12
204.9097963739404
 22
158.6190950716844
 32
0.0
 13
204.9097963739404
 23
158.6190950716844
 33
0.0
  0
MTEXT
  5
13AF3
330
122AE
100
AcDbEntity
  8
Drywall
 62
     0
440
 16777216
100
AcDbMText
 10
201.6355106596547
 20
158.6190950716844
 30
0.0
 40
0.72
 41
0.0
 46
0.0
 71
     5
 72
     1
  1
\A1;6"\P\f [;[152.40]\f]
  7
ROMANS
 73
     1
 44
1.0
  0
POINT
  5
13AF4
330
122AE
100
AcDbEntity
  8
DEFPOINTS
 62
     0
440
 16777216
100
AcDbPoint
 10
210.9097963739404
 20
156.9258473540293
 30
0.0
  0
POINT
  5
13AF5
330
122AE
100
AcDbEntity
  8
DEFPOINTS
 62
     0
440
 16777216
100
AcDbPoint
 10
204.9097963739404
 20
156.4258473540293
 30
0.0
  0
POINT
  5
13AF6
330
122AE
100
AcDbEntity
  8
DEFPOINTS
 62
     0
440
 16777216
100
AcDbPoint
 10
204.9097963739404
 20
158.6190950716844
 30
0.0
  0
ENDBLK
  5
122B0
330
122AE
100
AcDbEntity
  8
0
100
AcDbBlockEnd
  0
BLOCK
  5
122FA
330
122F9
100
AcDbEntity
  8
0
100
AcDbBlockBegin
  2
*D86
 70
     1
 10
0.0
 20
0.0
 30
0.0
  3
*D86
  1

  0
LINE
  5
13AF7
330
122F9
100
AcDbEntity
  8
Drywall
 62
     0
440
 16777216
370
    -2
100
AcDbLine
 10
210.9097963739404
 20
157.1758473540293
 30
0.0
 11
210.9097963739404
 21
158.8690950716844
 31
0.0
  0
LINE
  5
13AF8
330
122F9
100
AcDbEntity
  8
Drywall
 62
     0
440
 16777216
370
    -2
100
AcDbLine
 10
216.9097963739404
 20
156.6758473540294
 30
0.0
 11
216.9097963739404
 21
158.8690950716844
 31
0.0
  0
LINE
  5
13AF9
330
122F9
100
AcDbEntity
  8
Drywall
 62
     0
440
 16777216
370
    -2
100
AcDbLine
 10
211.6297963739404
 20
158.6190950716844
 30
0.0
 11
216.1897963739404
 21
158.6190950716844
 31
0.0
  0
LINE
  5
13AFA
330
122F9
100
AcDbEntity
  8
Drywall
 62
     0
440
 16777216
370
    -2
100
AcDbLine
 10
216.9097963739404
 20
158.6190950716844
 30
0.0
 11
217.6297963739404
 21
158.6190950716844
 31
0.0
  0
SOLID
  5
13AFB
330
122F9
100
AcDbEntity
  8
Drywall
 62
     0
440
 16777216
100
AcDbTrace
 10
211.6297963739404
 20
158.7390950716844
 30
0.0
 11
211.6297963739404
 21
158.4990950716844
 31
0.0
 12
210.9097963739404
 22
158.6190950716844
 32
0.0
 13
210.9097963739404
 23
158.6190950716844
 33
0.0
  0
SOLID
  5
13AFC
330
122F9
100
AcDbEntity
  8
Drywall
 62
     0
440
 16777216
100
AcDbTrace
 10
216.1897963739404
 20
158.7390950716844
 30
0.0
 11
216.1897963739404
 21
158.4990950716844
 31
0.0
 12
216.9097963739404
 22
158.6190950716844
 32
0.0
 13
216.9097963739404
 23
158.6190950716844
 33
0.0
  0
MTEXT
  5
13AFD
330
122F9
100
AcDbEntity
  8
Drywall
 62
     0
440
 16777216
100
AcDbMText
 10
220.1840820882261
 20
158.6190950716844
 30
0.0
 40
0.72
 41
0.0
 46
0.0
 71
     5
 72
     1
  1
\A1;6"\P\f [;[152.40]\f]
  7
ROMANS
 73
     1
 44
1.0
  0
POINT
  5
13AFE
330
122F9
100
AcDbEntity
  8
DEFPOINTS
 62
     0
440
 16777216
100
AcDbPoint
 10
210.9097963739404
 20
156.9258473540293
 30
0.0
  0
POINT
  5
13AFF
330
122F9
100
AcDbEntity
  8
DEFPOINTS
 62
     0
440
 16777216
100
AcDbPoint
 10
216.9097963739404
 20
156.4258473540293
 30
0.0
  0
POINT
  5
13B00
330
122F9
100
AcDbEntity
  8
DEFPOINTS
 62
     0
440
 16777216
100
AcDbPoint
 10
216.9097963739404
 20
158.6190950716844
 30
0.0
  0
ENDBLK
  5
122FB
330
122F9
100
AcDbEntity
  8
0
100
AcDbBlockEnd
  0
BLOCK
  5
12C30
330
12C2F
100
AcDbEntity
  8
0
100
AcDbBlockBegin
  2
A$C033B77E7
 70
     0
 10
0.0
 20
0.0
 30
0.0
  3
A$C033B77E7
  1

  0
LINE
  5
12C31
330
12C2F
100
AcDbEntity
  8
WALL
100
AcDbLine
 10
1.249999934931793
 20
-0.0000001255374116
 30
0.0
 11
1.249999934931793
 21
0.6249998744625885
 31
0.0
  0
LINE
  5
12C32
330
12C2F
100
AcDbEntity
  8
WALL
100
AcDbLine
 10
1.062499934931793
 20
-0.0000001255374116
 30
0.0
 11
1.062499934931736
 21
0.4999998744625885
 31
0.0
  0
LINE
  5
12C33
330
12C2F
100
AcDbEntity
  8
WALL
100
AcDbLine
 10
0.6874999349317932
 20
-0.0000001255374116
 30
0.0
 11
0.6874999349317364
 21
0.4999998744625885
 31
0.0
  0
LINE
  5
12C34
330
12C2F
100
AcDbEntity
  8
WALL
100
AcDbLine
 10
0.6874999349317932
 20
0.49999987446256
 30
0.0
 11
1.062499934931736
 21
0.4999998744625885
 31
0.0
  0
LINE
  5
12C35
330
12C2F
100
AcDbEntity
  8
WALL
100
AcDbLine
 10
1.062499934931793
 20
-0.0000001255374116
 30
0.0
 11
1.249999934931793
 21
-0.0000001255374116
 31
0.0
  0
LINE
  5
12C36
330
12C2F
100
AcDbEntity
  8
WALL
100
AcDbLine
 10
-0.0000000650682068
 20
0.6249998744625885
 30
0.0
 11
-0.0000000650682068
 21
-0.0000001255374116
 31
0.0
  0
LINE
  5
12C37
330
12C2F
100
AcDbEntity
  8
WALL
100
AcDbLine
 10
1.249999934931793
 20
0.6249998744625885
 30
0.0
 11
-0.0000000650682068
 21
0.6249998744625885
 31
0.0
  0
LINE
  5
12C38
330
12C2F
100
AcDbEntity
  8
WALL
100
AcDbLine
 10
-0.0000000650682068
 20
-0.0000001255374116
 30
0.0
 11
0.6874999349317932
 21
-0.0000001255374116
 31
0.0
  0
ENDBLK
  5
12C39
330
12C2F
100
AcDbEntity
  8
0
100
AcDbBlockEnd
  0
BLOCK
  5
12C3B
330
12C3A
100
AcDbEntity
  8
0
100
AcDbBlockBegin
  2
A$C302758B8
 70
     0
 10
0.0
 20
0.0
 30
0.0
  3
A$C302758B8
  1

  0
INSERT
  5
12C3C
330
12C3A
100
AcDbEntity
  8
WALL
100
AcDbBlockReference
  2
A$C033B77E7
 10
0.0000000904855142
 20
0.0000001027410121
 30
0.0
  0
ENDBLK
  5
12C3D
330
12C3A
100
AcDbEntity
  8
0
100
AcDbBlockEnd
  0
BLOCK
  5
12C3F
330
12C3E
100
AcDbEntity
  8
0
100
AcDbBlockBegin
  2
A$C50E91184
 70
     0
 10
0.0
 20
0.0
 30
0.0
  3
A$C50E91184
  1

  0
LINE
  5
12C40
330
12C3E
100
AcDbEntity
  8
WALL
100
AcDbLine
 10
1.249999934931793
 20
0.6249998449978307
 30
0.0
 11
1.249999934931793
 21
-0.0000001550021693
 31
0.0
  0
LINE
  5
12C41
330
12C3E
100
AcDbEntity
  8
WALL
100
AcDbLine
 10
1.062499934931793
 20
0.6249998449978307
 30
0.0
 11
1.062499934931736
 21
0.1249998449978307
 31
0.0
  0
LINE
  5
12C42
330
12C3E
100
AcDbEntity
  8
WALL
100
AcDbLine
 10
0.6874999349317932
 20
0.6249998449978307
 30
0.0
 11
0.6874999349317364
 21
0.1249998449978307
 31
0.0
  0
LINE
  5
12C43
330
12C3E
100
AcDbEntity
  8
WALL
100
AcDbLine
 10
0.6874999349317932
 20
0.1249998449978591
 30
0.0
 11
1.062499934931736
 21
0.1249998449978307
 31
0.0
  0
LINE
  5
12C44
330
12C3E
100
AcDbEntity
  8
WALL
100
AcDbLine
 10
1.062499934931793
 20
0.6249998449978307
 30
0.0
 11
1.249999934931793
 21
0.6249998449978307
 31
0.0
  0
LINE
  5
12C45
330
12C3E
100
AcDbEntity
  8
WALL
100
AcDbLine
 10
-0.0000000650682068
 20
-0.0000001550021693
 30
0.0
 11
-0.0000000650682068
 21
0.6249998449978307
 31
0.0
  0
LINE
  5
12C46
330
12C3E
100
AcDbEntity
  8
WALL
100
AcDbLine
 10
1.249999934931793
 20
-0.0000001550021693
 30
0.0
 11
-0.0000000650682068
 21
-0.0000001550021693
 31
0.0
  0
LINE
  5
12C47
330
12C3E
100
AcDbEntity
  8
WALL
100
AcDbLine
 10
-0.0000000650682068
 20
0.6249998449978307
 30
0.0
 11
0.6874999349317932
 21
0.6249998449978307
 31
0.0
  0
ENDBLK
  5
12C48
330
12C3E
100
AcDbEntity
  8
0
100
AcDbBlockEnd
  0
BLOCK
  5
12C4A
330
12C49
100
AcDbEntity
  8
0
100
AcDbBlockBegin
  2
A$C32E66CAB
 70
     0
 10
0.0
 20
0.0
 30
0.0
  3
A$C32E66CAB
  1

  0
INSERT
  5
12C4B
330
12C49
100
AcDbEntity
  8
WALL
100
AcDbBlockReference
  2
A$C50E91184
 10
0.0000000904855142
 20
0.0000000865995418
 30
0.0
  0
ENDBLK
  5
12C4C
330
12C49
100
AcDbEntity
  8
0
100
AcDbBlockEnd
  0
BLOCK
  5
13360
330
1335F
100
AcDbEntity
  8
0
100
AcDbBlockBegin
  2
*D91
 70
     1
 10
0.0
 20
0.0
 30
0.0
  3
*D91
  1

  0
LINE
  5
13B01
330
1335F
100
AcDbEntity
  8
DIM
 62
     0
440
 16777216
370
    -2
100
AcDbLine
 10
225.3472963739404
 20
147.1758473540293
 30
0.0
 11
240.5080312466269
 21
147.1758473540293
 31
0.0
  0
LINE
  5
13B02
330
1335F
100
AcDbEntity
  8
DIM
 62
     0
440
 16777216
370
    -2
100
AcDbLine
 10
225.3472963739404
 20
121.1758473540293
 30
0.0
 11
240.5080312466269
 21
121.1758473540293
 31
0.0
  0
LINE
  5
13B03
330
1335F
100
AcDbEntity
  8
DIM
 62
     0
440
 16777216
370
    -2
100
AcDbLine
 10
240.0705312466269
 20
145.9158473540294
 30
0.0
 11
240.0705312466269
 21
139.1744152380967
 31
0.0
  0
LINE
  5
13B04
330
1335F
100
AcDbEntity
  8
DIM
 62
     0
440
 16777216
370
    -2
100
AcDbLine
 10
240.0705312466269
 20
122.4358473540293
 30
0.0
 11
240.0705312466269
 21
129.3762557288943
 31
0.0
  0
SOLID
  5
13B05
330
1335F
100
AcDbEntity
  8
DIM
 62
     0
440
 16777216
100
AcDbTrace
 10
239.8605312466269
 20
145.9158473540294
 30
0.0
 11
240.2805312466269
 21
145.9158473540294
 31
0.0
 12
240.0705312466269
 22
147.1758473540293
 32
0.0
 13
240.0705312466269
 23
147.1758473540293
 33
0.0
  0
SOLID
  5
13B06
330
1335F
100
AcDbEntity
  8
DIM
 62
     0
440
 16777216
100
AcDbTrace
 10
239.8605312466269
 20
122.4358473540293
 30
0.0
 11
240.2805312466269
 21
122.4358473540293
 31
0.0
 12
240.0705312466269
 22
121.1758473540293
 32
0.0
 13
240.0705312466269
 23
121.1758473540293
 33
0.0
  0
MTEXT
  5
13B07
330
1335F
100
AcDbEntity
  8
DIM
 62
     0
440
 16777216
100
AcDbMText
 10
240.0705312466268
 20
134.2753354834955
 30
0.0
 40
1.26
 41
0.0
 46
0.0
 71
     5
 72
     1
  1
\A1;{\fSegoe Print|b0|i0|c0|p2;CLEAR CAR\PINSIDE\P}26"\P\f\P [;[660.40]\f]
  7
ROMANS
 73
     1
 44
1.0
  0
POINT
  5
13B08
330
1335F
100
AcDbEntity
  8
DEFPOINTS
 62
     0
440
 16777216
100
AcDbPoint
 10
224.9097963739404
 20
147.1758473540293
 30
0.0
  0
POINT
  5
13B09
330
1335F
100
AcDbEntity
  8
DEFPOINTS
 62
     0
440
 16777216
100
AcDbPoint
 10
224.9097963739404
 20
121.1758473540293
 30
0.0
  0
POINT
  5
13B0A
330
1335F
100
AcDbEntity
  8
DEFPOINTS
 62
     0
440
 16777216
100
AcDbPoint
 10
240.0705312466269
 20
121.1758473540293
 30
0.0
  0
ENDBLK
  5
13361
330
1335F
100
AcDbEntity
  8
0
100
AcDbBlockEnd
  0
BLOCK
  5
1374B
330
1374A
100
AcDbEntity
  8
0
100
AcDbBlockBegin
  2
*D92
 70
     1
 10
0.0
 20
0.0
 30
0.0
  3
*D92
  1

  0
LINE
  5
13B0B
330
1374A
100
AcDbEntity
  8
DIM
 62
     0
440
 16777216
370
    -2
100
AcDbLine
 10
223.4722963739404
 20
147.6133473540294
 30
0.0
 11
223.4722963739404
 21
164.9834097847025
 31
0.0
  0
LINE
  5
13B0C
330
1374A
100
AcDbEntity
  8
DIM
 62
     0
440
 16777216
370
    -2
100
AcDbLine
 10
197.4722963739404
 20
147.4883473540293
 30
0.0
 11
197.4722963739404
 21
164.9834097847025
 31
0.0
  0
LINE
  5
13B0D
330
1374A
100
AcDbEntity
  8
DIM
 62
     0
440
 16777216
370
    -2
100
AcDbLine
 10
222.2122963739405
 20
164.5459097847025
 30
0.0
 11
219.7653261946894
 21
164.5459097847025
 31
0.0
  0
LINE
  5
13B0E
330
1374A
100
AcDbEntity
  8
DIM
 62
     0
440
 16777216
370
    -2
100
AcDbLine
 10
198.7322963739404
 20
164.5459097847025
 30
0.0
 11
200.9022587100268
 21
164.5459097847025
 31
0.0
  0
SOLID
  5
13B0F
330
1374A
100
AcDbEntity
  8
DIM
 62
     0
440
 16777216
100
AcDbTrace
 10
222.2122963739405
 20
164.7559097847025
 30
0.0
 11
222.2122963739405
 21
164.3359097847025
 31
0.0
 12
223.4722963739404
 22
164.5459097847025
 32
0.0
 13
223.4722963739404
 23
164.5459097847025
 33
0.0
  0
SOLID
  5
13B10
330
1374A
100
AcDbEntity
  8
DIM
 62
     0
440
 16777216
100
AcDbTrace
 10
198.7322963739404
 20
164.7559097847025
 30
0.0
 11
198.7322963739404
 21
164.3359097847025
 31
0.0
 12
197.4722963739404
 22
164.5459097847025
 32
0.0
 13
197.4722963739404
 23
164.5459097847025
 33
0.0
  0
MTEXT
  5
13B11
330
1374A
100
AcDbEntity
  8
DIM
 62
     0
440
 16777216
100
AcDbMText
 10
210.3337924523581
 20
164.5459097847025
 30
0.0
 40
1.26
 41
0.0
 46
0.0
 71
     5
 72
     1
  1
\A1;{\fSegoe Print|b0|i0|c0|p2;CLEAR CAR INSIDE}\P26" [660.40]
  7
ROMANS
 73
     1
 44
1.0
  0
POINT
  5
13B12
330
1374A
100
AcDbEntity
  8
DEFPOINTS
 62
     0
440
 16777216
100
AcDbPoint
 10
223.4722963739404
 20
147.1758473540293
 30
0.0
  0
POINT
  5
13B13
330
1374A
100
AcDbEntity
  8
DEFPOINTS
 62
     0
440
 16777216
100
AcDbPoint
 10
197.4722963739404
 20
147.0508473540293
 30
0.0
  0
POINT
  5
13B14
330
1374A
100
AcDbEntity
  8
DEFPOINTS
 62
     0
440
 16777216
100
AcDbPoint
 10
197.4722963739404
 20
164.5459097847025
 30
0.0
  0
ENDBLK
  5
1374C
330
1374A
100
AcDbEntity
  8
0
100
AcDbBlockEnd
  0
BLOCK
  5
13836
330
13835
100
AcDbEntity
  8
0
100
AcDbBlockBegin
  2
*D93
 70
     1
 10
0.0
 20
0.0
 30
0.0
  3
*D93
  1

  0
LINE
  5
13B15
330
13835
100
AcDbEntity
  8
DIM
 62
     0
440
 16777216
370
    -2
100
AcDbLine
 10
190.7222963739403
 20
146.5508473540293
 30
0.0
 11
179.0620408686782
 21
146.5508473540293
 31
0.0
  0
LINE
  5
13B16
330
13835
100
AcDbEntity
  8
DIM
 62
     0
440
 16777216
370
    -2
100
AcDbLine
 10
195.2222963739404
 20
151.4258473540293
 30
0.0
 11
179.0620408686782
 21
151.4258473540294
 31
0.0
  0
LINE
  5
13B17
330
13835
100
AcDbEntity
  8
DIM
 62
     0
440
 16777216
370
    -2
100
AcDbLine
 10
179.4995408686783
 20
145.2908473540293
 30
0.0
 11
179.4995408686783
 21
144.0308473540293
 31
0.0
  0
LINE
  5
13B18
330
13835
100
AcDbEntity
  8
DIM
 62
     0
440
 16777216
370
    -2
100
AcDbLine
 10
179.4995408686783
 20
152.6858473540294
 30
0.0
 11
179.4995408686783
 21
153.9458473540294
 31
0.0
  0
SOLID
  5
13B19
330
13835
100
AcDbEntity
  8
DIM
 62
     0
440
 16777216
100
AcDbTrace
 10
179.2895408686782
 20
145.2908473540293
 30
0.0
 11
179.7095408686783
 21
145.2908473540293
 31
0.0
 12
179.4995408686783
 22
146.5508473540293
 32
0.0
 13
179.4995408686783
 23
146.5508473540293
 33
0.0
  0
SOLID
  5
13B1A
330
13835
100
AcDbEntity
  8
DIM
 62
     0
440
 16777216
100
AcDbTrace
 10
179.2895408686782
 20
152.6858473540294
 30
0.0
 11
179.7095408686783
 21
152.6858473540294
 31
0.0
 12
179.4995408686783
 22
151.4258473540294
 32
0.0
 13
179.4995408686783
 23
151.4258473540294
 33
0.0
  0
MTEXT
  5
13B1B
330
13835
100
AcDbEntity
  8
DIM
 62
     0
440
 16777216
100
AcDbMText
 10
179.4995408686782
 20
148.9883473540294
 30
0.0
 40
1.26
 41
0.0
 46
0.0
 71
     5
 72
     1
  1
\A1;4 7/8" [123.83]
  7
ROMANS
 73
     1
 44
1.0
  0
POINT
  5
13B1C
330
13835
100
AcDbEntity
  8
DEFPOINTS
 62
     0
440
 16777216
100
AcDbPoint
 10
191.1597963739403
 20
146.5508473540293
 30
0.0
  0
POINT
  5
13B1D
330
13835
100
AcDbEntity
  8
DEFPOINTS
 62
     0
440
 16777216
100
AcDbPoint
 10
195.6597963739404
 20
151.4258473540293
 30
0.0
  0
POINT
  5
13B1E
330
13835
100
AcDbEntity
  8
DEFPOINTS
 62
     0
440
 16777216
100
AcDbPoint
 10
179.4995408686783
 20
151.4258473540294
 30
0.0
  0
ENDBLK
  5
13837
330
13835
100
AcDbEntity
  8
0
100
AcDbBlockEnd
  0
BLOCK
  5
13862
330
13861
100
AcDbEntity
  8
0
100
AcDbBlockBegin
  2
*D94
 70
     1
 10
0.0
 20
0.0
 30
0.0
  3
*D94
  1

  0
LINE
  5
13B1F
330
13861
100
AcDbEntity
  8
DIM
 62
     0
440
 16777216
370
    -2
100
AcDbLine
 10
190.7222963739404
 20
121.8008473540293
 30
0.0
 11
179.0620408686782
 21
121.8008473540293
 31
0.0
  0
LINE
  5
13B20
330
13861
100
AcDbEntity
  8
DIM
 62
     0
440
 16777216
370
    -2
100
AcDbLine
 10
190.7222963739403
 20
146.5508473540293
 30
0.0
 11
179.0620408686782
 21
146.5508473540293
 31
0.0
  0
LINE
  5
13B21
330
13861
100
AcDbEntity
  8
DIM
 62
     0
440
 16777216
370
    -2
100
AcDbLine
 10
179.4995408686783
 20
123.0608473540293
 30
0.0
 11
179.4995408686783
 21
129.2565835503484
 31
0.0
  0
LINE
  5
13B22
330
13861
100
AcDbEntity
  8
DIM
 62
     0
440
 16777216
370
    -2
100
AcDbLine
 10
179.4995408686783
 20
145.2908473540293
 30
0.0
 11
179.4995408686783
 21
139.0951111577103
 31
0.0
  0
SOLID
  5
13B23
330
13861
100
AcDbEntity
  8
DIM
 62
     0
440
 16777216
100
AcDbTrace
 10
179.2895408686782
 20
123.0608473540293
 30
0.0
 11
179.7095408686783
 21
123.0608473540293
 31
0.0
 12
179.4995408686783
 22
121.8008473540293
 32
0.0
 13
179.4995408686783
 23
121.8008473540293
 33
0.0
  0
SOLID
  5
13B24
330
13861
100
AcDbEntity
  8
DIM
 62
     0
440
 16777216
100
AcDbTrace
 10
179.2895408686782
 20
145.2908473540293
 30
0.0
 11
179.7095408686783
 21
145.2908473540293
 31
0.0
 12
179.4995408686783
 22
146.5508473540293
 32
0.0
 13
179.4995408686783
 23
146.5508473540293
 33
0.0
  0
MTEXT
  5
13B25
330
13861
100
AcDbEntity
  8
DIM
 62
     0
440
 16777216
100
AcDbMText
 10
179.4995408686782
 20
134.1758473540294
 30
0.0
 40
1.26
 41
0.0
 46
0.0
 71
     5
 72
     1
  1
\A1;{\fSegoe Print|b0|i0|c0|p2;CLEAR DOOR\POPENING}\P24 3/4"\P\f [;[628.65]\f]
  7
ROMANS
 73
     1
 44
1.0
  0
POINT
  5
13B26
330
13861
100
AcDbEntity
  8
DEFPOINTS
 62
     0
440
 16777216
100
AcDbPoint
 10
191.1597963739404
 20
121.8008473540293
 30
0.0
  0
POINT
  5
13B27
330
13861
100
AcDbEntity
  8
DEFPOINTS
 62
     0
440
 16777216
100
AcDbPoint
 10
191.1597963739403
 20
146.5508473540293
 30
0.0
  0
POINT
  5
13B28
330
13861
100
AcDbEntity
  8
DEFPOINTS
 62
     0
440
 16777216
100
AcDbPoint
 10
179.4995408686783
 20
146.5508473540293
 30
0.0
  0
ENDBLK
  5
13863
330
13861
100
AcDbEntity
  8
0
100
AcDbBlockEnd
  0
BLOCK
  5
138BA
330
138B9
100
AcDbEntity
  8
0
100
AcDbBlockBegin
  2
*D95
 70
     1
 10
0.0
 20
0.0
 30
0.0
  3
*D95
  1

  0
LINE
  5
13B29
330
138B9
100
AcDbEntity
  8
DIM
 62
     0
440
 16777216
370
    -2
100
AcDbLine
 10
190.7222963739404
 20
121.8008473540294
 30
0.0
 11
179.0620408686782
 21
121.8008473540294
 31
0.0
  0
LINE
  5
13B2A
330
138B9
100
AcDbEntity
  8
DIM
 62
     0
440
 16777216
370
    -2
100
AcDbLine
 10
195.2222963739404
 20
118.1758473540293
 30
0.0
 11
179.0620408686782
 21
118.1758473540293
 31
0.0
  0
LINE
  5
13B2B
330
138B9
100
AcDbEntity
  8
DIM
 62
     0
440
 16777216
370
    -2
100
AcDbLine
 10
179.4995408686783
 20
123.0608473540294
 30
0.0
 11
179.4995408686783
 21
124.3208473540293
 31
0.0
  0
LINE
  5
13B2C
330
138B9
100
AcDbEntity
  8
DIM
 62
     0
440
 16777216
370
    -2
100
AcDbLine
 10
179.4995408686783
 20
116.9158473540294
 30
0.0
 11
179.4995408686783
 21
115.6558473540294
 31
0.0
  0
SOLID
  5
13B2D
330
138B9
100
AcDbEntity
  8
DIM
 62
     0
440
 16777216
100
AcDbTrace
 10
179.2895408686782
 20
123.0608473540294
 30
0.0
 11
179.7095408686783
 21
123.0608473540294
 31
0.0
 12
179.4995408686783
 22
121.8008473540294
 32
0.0
 13
179.4995408686783
 23
121.8008473540294
 33
0.0
  0
SOLID
  5
13B2E
330
138B9
100
AcDbEntity
  8
DIM
 62
     0
440
 16777216
100
AcDbTrace
 10
179.2895408686782
 20
116.9158473540294
 30
0.0
 11
179.7095408686783
 21
116.9158473540294
 31
0.0
 12
179.4995408686783
 22
118.1758473540293
 32
0.0
 13
179.4995408686783
 23
118.1758473540293
 33
0.0
  0
MTEXT
  5
13B2F
330
138B9
100
AcDbEntity
  8
DIM
 62
     0
440
 16777216
100
AcDbMText
 10
179.4995408686782
 20
119.9883473540294
 30
0.0
 40
1.26
 41
0.0
 46
0.0
 71
     5
 72
     1
  1
\A1;3 5/8" [92.08]
  7
ROMANS
 73
     1
 44
1.0
  0
POINT
  5
13B30
330
138B9
100
AcDbEntity
  8
DEFPOINTS
 62
     0
440
 16777216
100
AcDbPoint
 10
191.1597963739404
 20
121.8008473540294
 30
0.0
  0
POINT
  5
13B31
330
138B9
100
AcDbEntity
  8
DEFPOINTS
 62
     0
440
 16777216
100
AcDbPoint
 10
195.6597963739404
 20
118.1758473540293
 30
0.0
  0
POINT
  5
13B32
330
138B9
100
AcDbEntity
  8
DEFPOINTS
 62
     0
440
 16777216
100
AcDbPoint
 10
179.4995408686783
 20
118.1758473540293
 30
0.0
  0
ENDBLK
  5
138BB
330
138B9
100
AcDbEntity
  8
0
100
AcDbBlockEnd
  0
ENDSEC
  0
SECTION
  2
ENTITIES
  0
INSERT
  5
259
330
18
100
AcDbEntity
  8
0
  6
Continuous
100
AcDbBlockReference
  2
GENDIM11
 10
0.0
 20
0.0
 30
0.0
  0
INSERT
  5
2AF
330
18
100
AcDbEntity
  8
0
  6
Continuous
100
AcDbBlockReference
  2
*X1
 10
0.0
 20
0.0
 30
0.0
  0
INSERT
  5
F18
330
18
100
AcDbEntity
  8
0
  6
Continuous
100
AcDbBlockReference
  2
GENARR10
 10
120.788927908886
 20
-6.030762665291916
 30
0.0
  0
INSERT
  5
F1B
330
18
100
AcDbEntity
  8
0
  6
Continuous
100
AcDbBlockReference
  2
*X3
 10
120.788927908886
 20
-6.030762665291916
 30
0.0
  0
INSERT
  5
F21
330
18
100
AcDbEntity
  8
0
  6
Continuous
100
AcDbBlockReference
  2
GENARR12
 10
254.3684047587628
 20
-11.03920895245812
 30
0.0
  0
INSERT
  5
F22
330
18
100
AcDbEntity
  8
0
  6
Continuous
100
AcDbBlockReference
  2
*X5
 10
254.3684047587628
 20
-11.03920895245812
 30
0.0
  0
INSERT
  5
F23
330
18
100
AcDbEntity
  8
0
  6
Continuous
100
AcDbBlockReference
  2
*X6
 10
254.3684047587628
 20
-11.03920895245812
 30
0.0
  0
TEXT
  5
1243
330
18
100
AcDbEntity
  8
CK_LEVEL_1
  6
Continuous
 62
     6
100
AcDbText
 10
154.6186201519557
 20
-30.02622411074185
 30
0.0
 40
0.8
  1

 41
0.75
  7
CKSTANDARD
100
AcDbText
  0
INSERT
  5
43A2
330
18
100
AcDbEntity
  8
0
  6
Continuous
100
AcDbBlockReference
  2
GENARR11
 10
259.9206969032008
 20
112.2472906450661
 30
0.0
  0
INSERT
  5
43B0
330
18
100
AcDbEntity
  8
0
  6
Continuous
100
AcDbBlockReference
  2
*X8
 10
259.9206969032008
 20
112.2472906450661
 30
0.0
  0
INSERT
  5
43B1
330
18
100
AcDbEntity
  8
0
  6
Continuous
100
AcDbBlockReference
  2
GENDIM17
 10
259.9206969032008
 20
112.2472906450661
 30
0.0
  0
INSERT
  5
528F
330
18
100
AcDbEntity
  8
0
  6
Continuous
100
AcDbBlockReference
  2
GENARR11
 10
250.768888710706
 20
114.3489332727658
 30
0.0
  0
INSERT
  5
529D
330
18
100
AcDbEntity
  8
0
  6
Continuous
100
AcDbBlockReference
  2
*X10
 10
250.768888710706
 20
114.3489332727658
 30
0.0
  0
INSERT
  5
529E
330
18
100
AcDbEntity
  8
0
  6
Continuous
100
AcDbBlockReference
  2
GENDIM17
 10
250.768888710706
 20
114.3489332727658
 30
0.0
  0
INSERT
  5
5FB3
330
18
100
AcDbEntity
  8
0
  6
Continuous
100
AcDbBlockReference
  2
GENARR11
 10
262.0346281505359
 20
115.0526473032428
 30
0.0
  0
INSERT
  5
5FC1
330
18
100
AcDbEntity
  8
0
  6
Continuous
100
AcDbBlockReference
  2
*X11
 10
262.0346281505359
 20
115.0526473032428
 30
0.0
  0
INSERT
  5
5FC2
330
18
100
AcDbEntity
  8
0
  6
Continuous
100
AcDbBlockReference
  2
GENDIM17
 10
262.0346281505359
 20
115.0526473032428
 30
0.0
  0
INSERT
  5
675A
330
18
100
AcDbEntity
  8
0
  6
Continuous
100
AcDbBlockReference
  2
GENARR11
 10
300.4413796231177
 20
108.7335647297009
 30
0.0
  0
INSERT
  5
6768
330
18
100
AcDbEntity
  8
0
  6
Continuous
100
AcDbBlockReference
  2
*X11
 10
300.4413796231177
 20
108.7335647297009
 30
0.0
  0
INSERT
  5
6769
330
18
100
AcDbEntity
  8
0
  6
Continuous
100
AcDbBlockReference
  2
GENDIM17
 10
300.4413796231177
 20
108.7335647297009
 30
0.0
  0
INSERT
  5
752D
330
18
100
AcDbEntity
  8
0
  6
Continuous
100
AcDbBlockReference
  2
GENDIM11
 10
-3.675566156859787
 20
232.2270063609843
 30
0.0
  0
INSERT
  5
7537
330
18
100
AcDbEntity
  8
0
  6
Continuous
100
AcDbBlockReference
  2
*X12
 10
-3.675566156859787
 20
232.2270063609843
 30
0.0
  0
INSERT
  5
7551
330
18
100
AcDbEntity
  8
0
  6
Continuous
100
AcDbBlockReference
  2
GENARR10
 10
117.1133617520262
 20
226.1962436956924
 30
0.0
  0
INSERT
  5
7552
330
18
100
AcDbEntity
  8
0
  6
Continuous
100
AcDbBlockReference
  2
*X13
 10
117.1133617520262
 20
226.1962436956924
 30
0.0
  0
INSERT
  5
7556
330
18
100
AcDbEntity
  8
0
  6
Continuous
100
AcDbBlockReference
  2
GENARR12
 10
250.692838601903
 20
221.1877974085261
 30
0.0
  0
INSERT
  5
7557
330
18
100
AcDbEntity
  8
0
  6
Continuous
100
AcDbBlockReference
  2
*X14
 10
250.692838601903
 20
221.1877974085261
 30
0.0
  0
INSERT
  5
7558
330
18
100
AcDbEntity
  8
0
  6
Continuous
100
AcDbBlockReference
  2
*X15
 10
250.692838601903
 20
221.1877974085261
 30
0.0
  0
TEXT
  5
783A
330
18
100
AcDbEntity
  8
CK_LEVEL_1
  6
Continuous
 62
     6
100
AcDbText
 10
150.943053995096
 20
202.2007822502424
 30
0.0
 40
0.8
  1

 41
0.75
  7
CKSTANDARD
100
AcDbText
  0
DIMENSION
  5
86AD
330
18
100
AcDbEntity
  8
DIM
100
AcDbDimension
280
     0
  2
*D17
 10
195.6597963739404
 20
174.1897917368155
 30
0.0
 11
211.5239353125397
 21
174.1897917368155
 31
0.0
 70
   160
  1
{\fSegoe Print|b0|i0|c0|p2;FINISHED HOISTWAY}\P<>
 71
     5
 42
31.25
 73
     0
 74
     0
 75
     0
  3
STANDARD
100
AcDbAlignedDimension
 13
226.9097963739404
 23
151.4258473540293
 33
0.0
 14
195.6597963739404
 24
151.4258473540294
 34
0.0
 50
180.0
100
AcDbRotatedDimension
1001
ACAD
1000
DSTYLE
1002
{
1070
     3
1000
"
1070
    40
1040
7.0
1070
    44
1040
0.0625
1070
   170
1070
     1
1070
   276
1070
     2
1070
   277
1070
     5
1070
   340
1005
B03
1002
}
  0
DIMENSION
  5
86AE
330
18
100
AcDbEntity
  8
DIM
100
AcDbDimension
280
     0
  2
*D18
 10
196.9097963739404
 20
169.5037845055956
 30
0.0
 11
211.8539507275039
 21
169.5037845055956
 31
0.0
 70
   160
 71
     5
 42
28.0
 73
     0
 74
     0
 75
     0
  3
STANDARD
100
AcDbAlignedDimension
 13
224.9097963739404
 23
149.1758473540294
 33
0.0
 14
196.9097963739404
 24
149.1758473540294
 34
0.0
 50
180.0
100
AcDbRotatedDimension
1001
ACAD
1000
DSTYLE
1002
{
1070
     3
1000
"
1070
    40
1040
7.0
1070
    44
1040
0.0625
1070
   170
1070
     1
1070
   276
1070
     2
1070
   277
1070
     5
1070
   340
1005
B03
1002
}
  0
DIMENSION
  5
86AF
330
18
100
AcDbEntity
  8
DIM
100
AcDbDimension
280
     0
  2
*D19
 10
195.6597963739404
 20
169.5037845055956
 30
0.0
 11
186.4540820882261
 21
169.5037845055956
 31
0.0
 70
    32
 71
     5
 42
1.25
 73
     0
 74
     0
 75
     0
  3
STANDARD
100
AcDbAlignedDimension
 13
196.9097963739404
 23
149.1758473540294
 33
0.0
 14
195.6597963739404
 24
151.4258473540293
 34
0.0
 50
180.0
100
AcDbRotatedDimension
1001
ACAD
1000
DSTYLE
1002
{
1070
     3
1000
"
1070
    40
1040
6.0
1070
    44
1040
0.0625
1070
   170
1070
     1
1070
   276
1070
     2
1070
   277
1070
     5
1070
   340
1005
B02
1002
}
  0
DIMENSION
  5
86B0
330
18
100
AcDbEntity
  8
DIM
100
AcDbDimension
280
     0
  2
*D20
 10
226.9097963739404
 20
169.5037845055956
 30
0.0
 11
234.0069392310833
 21
169.5037845055956
 31
0.0
 70
    32
 71
     5
 42
2.0
 73
     0
 74
     0
 75
     0
  3
STANDARD
100
AcDbAlignedDimension
 13
224.9097963739404
 23
149.1758473540294
 33
0.0
 14
226.9097963739404
 24
151.4258473540293
 34
0.0
 50
180.0
100
AcDbRotatedDimension
1001
ACAD
1000
DSTYLE
1002
{
1070
     3
1000
"
1070
    40
1040
6.0
1070
    44
1040
0.0625
1070
   170
1070
     1
1070
   276
1070
     2
1070
   277
1070
     5
1070
   340
1005
B02
1002
}
  0
DIMENSION
  5
86B1
330
18
100
AcDbEntity
  8
DIM
100
AcDbDimension
280
     0
  2
*D21
 10
251.901361721591
 20
118.1758473540293
 30
0.0
 11
251.9013617215909
 21
134.3347927952884
 31
0.0
 70
   160
  1
{\fSegoe Print|b0|i0|c0|p2;FINISHED\PHOISTWAY}\P<>
 71
     5
 42
33.25
 73
     0
 74
     0
 75
     0
  3
STANDARD
100
AcDbAlignedDimension
 13
226.9097963739404
 23
151.4258473540293
 33
0.0
 14
226.9097963739404
 24
118.1758473540293
 34
0.0
 50
90.0
100
AcDbRotatedDimension
1001
ACAD
1000
DSTYLE
1002
{
1070
     3
1000
"\X\f
1070
     4
1000
;[[]]\f
1070
    40
1040
7.0
1070
    44
1040
0.0625
1070
   170
1070
     1
1070
   276
1070
     2
1070
   277
1070
     5
1070
   340
1005
B03
1002
}
  0
DIMENSION
  5
86B2
330
18
100
AcDbEntity
  8
DIM
100
AcDbDimension
280
     0
  2
*D22
 10
240.0448169609126
 20
147.1758473540293
 30
0.0
 11
240.0448169609126
 21
149.1143711551638
 31
0.0
 70
   160
 71
     5
 42
4.25
 73
     0
 74
     0
 75
     0
  3
STANDARD
100
AcDbAlignedDimension
 13
226.9097963739404
 23
151.4258473540293
 33
0.0
 14
224.9097963739404
 24
147.1758473540293
 34
0.0
 50
90.0
100
AcDbRotatedDimension
1001
ACAD
1000
DSTYLE
1002
{
1070
     3
1000
"
1070
    40
1040
6.0
1070
    44
1040
0.0625
1070
   170
1070
     1
1070
   276
1070
     2
1070
   277
1070
     5
1070
   340
1005
B02
1002
}
  0
DIMENSION
  5
86B3
330
18
100
AcDbEntity
  8
DIM
100
AcDbDimension
280
     0
  2
*D23
 10
240.0705312466269
 20
118.1758473540293
 30
0.0
 11
240.0705312466268
 21
119.6758473540294
 31
0.0
 70
   160
 71
     5
 42
3.0
 73
     0
 74
     0
 75
     0
  3
STANDARD
100
AcDbAlignedDimension
 13
224.9097963739404
 23
121.1758473540293
 33
0.0
 14
226.9097963739404
 24
118.1758473540293
 34
0.0
 50
90.0
100
AcDbRotatedDimension
1001
ACAD
1000
DSTYLE
1002
{
1070
     3
1000
"
1070
    40
1040
6.0
1070
    44
1040
0.0625
1070
   170
1070
     1
1070
   276
1070
     2
1070
   277
1070
     5
1070
   340
1005
B02
1002
}
  0
INSERT
  5
A60E
330
18
100
AcDbEntity
  8
0
  6
Continuous
100
AcDbBlockReference
  2
GENDIM11
 10
134.7821074161516
 20
0.0
 30
0.0
  0
INSERT
  5
A60F
330
18
100
AcDbEntity
  8
0
  6
Continuous
100
AcDbBlockReference
  2
*X24
 10
134.7821074161516
 20
0.0
 30
0.0
  0
INSERT
  5
A610
330
18
100
AcDbEntity
  8
0
  6
Continuous
100
AcDbBlockReference
  2
GENARR10
 10
255.5710353250376
 20
-6.030762665291916
 30
0.0
  0
INSERT
  5
A611
330
18
100
AcDbEntity
  8
0
  6
Continuous
100
AcDbBlockReference
  2
*X25
 10
255.5710353250376
 20
-6.030762665291916
 30
0.0
  0
INSERT
  5
A612
330
18
100
AcDbEntity
  8
0
  6
Continuous
100
AcDbBlockReference
  2
GENARR12
 10
389.1505121749145
 20
-11.03920895245812
 30
0.0
  0
INSERT
  5
A613
330
18
100
AcDbEntity
  8
0
  6
Continuous
100
AcDbBlockReference
  2
*X26
 10
389.1505121749145
 20
-11.03920895245812
 30
0.0
  0
INSERT
  5
A614
330
18
100
AcDbEntity
  8
0
  6
Continuous
100
AcDbBlockReference
  2
*X27
 10
389.1505121749145
 20
-11.03920895245812
 30
0.0
  0
TEXT
  5
A615
330
18
100
AcDbEntity
  8
CK_LEVEL_1
  6
Continuous
 62
     6
100
AcDbText
 10
289.4007275681074
 20
-30.02622411074185
 30
0.0
 40
0.8
  1

 41
0.75
  7
CKSTANDARD
100
AcDbText
  0
INSERT
  5
A65D
330
18
100
AcDbEntity
  8
0
  6
Continuous
100
AcDbBlockReference
  2
GENARR11
 10
394.7028043193524
 20
112.2472906450661
 30
0.0
  0
INSERT
  5
A65E
330
18
100
AcDbEntity
  8
0
  6
Continuous
100
AcDbBlockReference
  2
*X28
 10
394.7028043193524
 20
112.2472906450661
 30
0.0
  0
INSERT
  5
A65F
330
18
100
AcDbEntity
  8
0
  6
Continuous
100
AcDbBlockReference
  2
GENDIM17
 10
394.7028043193524
 20
112.2472906450661
 30
0.0
  0
INSERT
  5
A660
330
18
100
AcDbEntity
  8
0
  6
Continuous
100
AcDbBlockReference
  2
GENARR11
 10
385.5509961268576
 20
114.3489332727658
 30
0.0
  0
INSERT
  5
A661
330
18
100
AcDbEntity
  8
0
  6
Continuous
100
AcDbBlockReference
  2
*X29
 10
385.5509961268576
 20
114.3489332727658
 30
0.0
  0
INSERT
  5
A662
330
18
100
AcDbEntity
  8
0
  6
Continuous
100
AcDbBlockReference
  2
GENDIM17
 10
385.5509961268576
 20
114.3489332727658
 30
0.0
  0
INSERT
  5
A663
330
18
100
AcDbEntity
  8
0
  6
Continuous
100
AcDbBlockReference
  2
GENARR11
 10
396.8167355666875
 20
115.0526473032428
 30
0.0
  0
INSERT
  5
A664
330
18
100
AcDbEntity
  8
0
  6
Continuous
100
AcDbBlockReference
  2
*X30
 10
396.8167355666875
 20
115.0526473032428
 30
0.0
  0
INSERT
  5
A665
330
18
100
AcDbEntity
  8
0
  6
Continuous
100
AcDbBlockReference
  2
GENDIM17
 10
396.8167355666875
 20
115.0526473032428
 30
0.0
  0
INSERT
  5
A669
330
18
100
AcDbEntity
  8
0
  6
Continuous
100
AcDbBlockReference
  2
GENARR11
 10
435.2234870392693
 20
108.7335647297009
 30
0.0
  0
INSERT
  5
A66A
330
18
100
AcDbEntity
  8
0
  6
Continuous
100
AcDbBlockReference
  2
*X30
 10
435.2234870392693
 20
108.7335647297009
 30
0.0
  0
INSERT
  5
A66B
330
18
100
AcDbEntity
  8
0
  6
Continuous
100
AcDbBlockReference
  2
GENDIM17
 10
435.2234870392693
 20
108.7335647297009
 30
0.0
  0
INSERT
  5
A66C
330
18
100
AcDbEntity
  8
0
  6
Continuous
100
AcDbBlockReference
  2
GENDIM11
 10
131.1065412592918
 20
232.2270063609843
 30
0.0
  0
INSERT
  5
A66D
330
18
100
AcDbEntity
  8
0
  6
Continuous
100
AcDbBlockReference
  2
*X31
 10
131.1065412592918
 20
232.2270063609843
 30
0.0
  0
INSERT
  5
A672
330
18
100
AcDbEntity
  8
0
  6
Continuous
100
AcDbBlockReference
  2
GENARR10
 10
251.8954691681778
 20
226.1962436956924
 30
0.0
  0
INSERT
  5
A673
330
18
100
AcDbEntity
  8
0
  6
Continuous
100
AcDbBlockReference
  2
*X32
 10
251.8954691681778
 20
226.1962436956924
 30
0.0
  0
INSERT
  5
A677
330
18
100
AcDbEntity
  8
0
  6
Continuous
100
AcDbBlockReference
  2
GENARR12
 10
385.4749460180546
 20
221.1877974085261
 30
0.0
  0
INSERT
  5
A678
330
18
100
AcDbEntity
  8
0
  6
Continuous
100
AcDbBlockReference
  2
*X33
 10
385.4749460180546
 20
221.1877974085261
 30
0.0
  0
INSERT
  5
A679
330
18
100
AcDbEntity
  8
0
  6
Continuous
100
AcDbBlockReference
  2
*X34
 10
385.4749460180546
 20
221.1877974085261
 30
0.0
  0
TEXT
  5
A67A
330
18
100
AcDbEntity
  8
CK_LEVEL_1
  6
Continuous
 62
     6
100
AcDbText
 10
285.7251614112477
 20
202.2007822502424
 30
0.0
 40
0.8
  1

 41
0.75
  7
CKSTANDARD
100
AcDbText
  0
INSERT
  5
A6AB
330
18
100
AcDbEntity
  8
0
  6
Continuous
100
AcDbBlockReference
  2
GENDIM11
 10
57.50617338161885
 20
0.0
 30
0.0
  0
INSERT
  5
A6AC
330
18
100
AcDbEntity
  8
0
  6
Continuous
100
AcDbBlockReference
  2
*X35
 10
57.50617338161885
 20
0.0
 30
0.0
  0
INSERT
  5
A6AD
330
18
100
AcDbEntity
  8
0
  6
Continuous
100
AcDbBlockReference
  2
GENARR10
 10
178.2951012905048
 20
-6.030762665291916
 30
0.0
  0
INSERT
  5
A6AE
330
18
100
AcDbEntity
  8
0
  6
Continuous
100
AcDbBlockReference
  2
*X36
 10
178.2951012905048
 20
-6.030762665291916
 30
0.0
  0
INSERT
  5
A6AF
330
18
100
AcDbEntity
  8
0
  6
Continuous
100
AcDbBlockReference
  2
GENARR12
 10
311.8745781403817
 20
-11.03920895245812
 30
0.0
  0
INSERT
  5
A6B0
330
18
100
AcDbEntity
  8
0
  6
Continuous
100
AcDbBlockReference
  2
*X37
 10
311.8745781403817
 20
-11.03920895245812
 30
0.0
  0
INSERT
  5
A6B1
330
18
100
AcDbEntity
  8
0
  6
Continuous
100
AcDbBlockReference
  2
*X38
 10
311.8745781403817
 20
-11.03920895245812
 30
0.0
  0
TEXT
  5
A6B2
330
18
100
AcDbEntity
  8
CK_LEVEL_1
  6
Continuous
 62
     6
100
AcDbText
 10
212.1247935335746
 20
-30.02622411074185
 30
0.0
 40
0.8
  1

 41
0.75
  7
CKSTANDARD
100
AcDbText
  0
INSERT
  5
A6B3
330
18
100
AcDbEntity
  8
0
  6
Continuous
100
AcDbBlockReference
  2
GENARR11
 10
317.4268702848197
 20
112.2472906450661
 30
0.0
  0
INSERT
  5
A6B4
330
18
100
AcDbEntity
  8
0
  6
Continuous
100
AcDbBlockReference
  2
*X39
 10
317.4268702848197
 20
112.2472906450661
 30
0.0
  0
INSERT
  5
A6B5
330
18
100
AcDbEntity
  8
0
  6
Continuous
100
AcDbBlockReference
  2
GENDIM17
 10
317.4268702848197
 20
112.2472906450661
 30
0.0
  0
INSERT
  5
A6B6
330
18
100
AcDbEntity
  8
0
  6
Continuous
100
AcDbBlockReference
  2
GENARR11
 10
308.2750620923249
 20
114.3489332727658
 30
0.0
  0
INSERT
  5
A6B7
330
18
100
AcDbEntity
  8
0
  6
Continuous
100
AcDbBlockReference
  2
*X40
 10
308.2750620923249
 20
114.3489332727658
 30
0.0
  0
INSERT
  5
A6B8
330
18
100
AcDbEntity
  8
0
  6
Continuous
100
AcDbBlockReference
  2
GENDIM17
 10
308.2750620923249
 20
114.3489332727658
 30
0.0
  0
INSERT
  5
A6B9
330
18
100
AcDbEntity
  8
0
  6
Continuous
100
AcDbBlockReference
  2
GENARR11
 10
319.5408015321547
 20
115.0526473032428
 30
0.0
  0
INSERT
  5
A6BA
330
18
100
AcDbEntity
  8
0
  6
Continuous
100
AcDbBlockReference
  2
*X41
 10
319.5408015321547
 20
115.0526473032428
 30
0.0
  0
INSERT
  5
A6BB
330
18
100
AcDbEntity
  8
0
  6
Continuous
100
AcDbBlockReference
  2
GENDIM17
 10
319.5408015321547
 20
115.0526473032428
 30
0.0
  0
INSERT
  5
A6BC
330
18
100
AcDbEntity
  8
0
  6
Continuous
100
AcDbBlockReference
  2
GENARR11
 10
357.9475530047365
 20
108.7335647297009
 30
0.0
  0
INSERT
  5
A6BD
330
18
100
AcDbEntity
  8
0
  6
Continuous
100
AcDbBlockReference
  2
*X41
 10
357.9475530047365
 20
108.7335647297009
 30
0.0
  0
INSERT
  5
A6BE
330
18
100
AcDbEntity
  8
0
  6
Continuous
100
AcDbBlockReference
  2
GENDIM17
 10
357.9475530047365
 20
108.7335647297009
 30
0.0
  0
INSERT
  5
A6D7
330
18
100
AcDbEntity
  8
0
  6
Continuous
100
AcDbBlockReference
  2
GENDIM11
 10
53.83060722475907
 20
232.2270063609843
 30
0.0
  0
INSERT
  5
A6D8
330
18
100
AcDbEntity
  8
0
  6
Continuous
100
AcDbBlockReference
  2
*X42
 10
53.83060722475907
 20
232.2270063609843
 30
0.0
  0
INSERT
  5
A6D9
330
18
100
AcDbEntity
  8
0
  6
Continuous
100
AcDbBlockReference
  2
GENARR10
 10
174.619535133645
 20
226.1962436956924
 30
0.0
  0
INSERT
  5
A6DA
330
18
100
AcDbEntity
  8
0
  6
Continuous
100
AcDbBlockReference
  2
*X43
 10
174.619535133645
 20
226.1962436956924
 30
0.0
  0
INSERT
  5
A6DB
330
18
100
AcDbEntity
  8
0
  6
Continuous
100
AcDbBlockReference
  2
GENARR12
 10
308.1990119835219
 20
221.1877974085261
 30
0.0
  0
INSERT
  5
A6DC
330
18
100
AcDbEntity
  8
0
  6
Continuous
100
AcDbBlockReference
  2
*X44
 10
308.1990119835219
 20
221.1877974085261
 30
0.0
  0
INSERT
  5
A6DD
330
18
100
AcDbEntity
  8
0
  6
Continuous
100
AcDbBlockReference
  2
*X45
 10
308.1990119835219
 20
221.1877974085261
 30
0.0
  0
TEXT
  5
A6DE
330
18
100
AcDbEntity
  8
CK_LEVEL_1
  6
Continuous
 62
     6
100
AcDbText
 10
208.4492273767148
 20
202.2007822502424
 30
0.0
 40
0.8
  1

 41
0.75
  7
CKSTANDARD
100
AcDbText
  0
INSERT
  5
B9C0
330
18
100
AcDbEntity
  8
0
  6
Continuous
100
AcDbBlockReference
  2
*X46
 10
-661.5658630910298
 20
204.0134594507214
 30
0.0
 41
11.5384615
 42
11.5384615
 43
11.5384615
  0
INSERT
  5
B9C3
330
18
100
AcDbEntity
  8
0
  6
Continuous
100
AcDbBlockReference
  2
GENARR10
 10
1019.647943817433
 20
103.676993809133
 30
0.0
 41
11.5384615
 42
11.5384615
 43
11.5384615
  0
INSERT
  5
B9C4
330
18
100
AcDbEntity
  8
0
  6
Continuous
100
AcDbBlockReference
  2
*X47
 10
1019.647943817433
 20
103.676993809133
 30
0.0
 41
11.5384615
 42
11.5384615
 43
11.5384615
  0
INSERT
  5
B9C5
330
18
100
AcDbEntity
  8
0
  6
Continuous
100
AcDbBlockReference
  2
GENARR12
 10
2560.949594639879
 20
45.88722914984777
 30
0.0
 41
11.5384615
 42
11.5384615
 43
11.5384615
  0
INSERT
  5
B9C6
330
18
100
AcDbEntity
  8
0
  6
Continuous
100
AcDbBlockReference
  2
*X48
 10
2560.949594639879
 20
45.88722914984777
 30
0.0
 41
11.5384615
 42
11.5384615
 43
11.5384615
  0
INSERT
  5
B9C7
330
18
100
AcDbEntity
  8
0
  6
Continuous
100
AcDbBlockReference
  2
*X49
 10
2560.949594639879
 20
45.88722914984777
 30
0.0
 41
11.5384615
 42
11.5384615
 43
11.5384615
  0
TEXT
  5
B9C8
330
18
100
AcDbEntity
  8
CK_LEVEL_1
  6
Continuous
 62
     6
100
AcDbText
 10
-393.0570591696632
 20
-204.933031327658
 30
0.0
 40
9.230769200000001
  1

 41
0.75
  7
CKSTANDARD
100
AcDbText
  0
INSERT
  5
BE4A
330
18
100
AcDbEntity
  8
0
  6
Continuous
100
AcDbBlockReference
  2
*X50
 10
-950.4393535096435
 20
333.5737015494081
 30
0.0
 41
11.625
 42
11.625
 43
11.625
  0
INSERT
  5
BE4B
330
18
100
AcDbEntity
  8
0
  6
Continuous
100
AcDbBlockReference
  2
GENARR10
 10
743.3835625967097
 20
232.4847120785444
 30
0.0
 41
11.625
 42
11.625
 43
11.625
  0
INSERT
  5
BE4C
330
18
100
AcDbEntity
  8
0
  6
Continuous
100
AcDbBlockReference
  2
*X51
 10
743.3835625967097
 20
232.4847120785444
 30
0.0
 41
11.625
 42
11.625
 43
11.625
  0
INSERT
  5
BE4D
330
18
100
AcDbEntity
  8
0
  6
Continuous
100
AcDbBlockReference
  2
GENARR12
 10
2296.244980976529
 20
174.2615239902376
 30
0.0
 41
11.625
 42
11.625
 43
11.625
  0
INSERT
  5
BE4E
330
18
100
AcDbEntity
  8
0
  6
Continuous
100
AcDbBlockReference
  2
*X52
 10
2296.244980976529
 20
174.2615239902376
 30
0.0
 41
11.625
 42
11.625
 43
11.625
  0
INSERT
  5
BE4F
330
18
100
AcDbEntity
  8
0
  6
Continuous
100
AcDbBlockReference
  2
*X53
 10
2296.244980976529
 20
174.2615239902376
 30
0.0
 41
11.625
 42
11.625
 43
11.625
  0
TEXT
  5
BE50
330
18
100
AcDbEntity
  8
CK_LEVEL_1
  6
Continuous
 62
     6
100
AcDbText
 10
-679.9167326571257
 20
-78.43988928318754
 30
0.0
 40
9.3
  1

 41
0.75
  7
CKSTANDARD
100
AcDbText
  0
INSERT
  5
BE51
330
18
100
AcDbEntity
  8
0
  6
Continuous
100
AcDbBlockReference
  2
*X54
 10
-904.0376961272322
 20
333.5737015494081
 30
0.0
 41
11.625
 42
11.625
 43
11.625
  0
INSERT
  5
BE52
330
18
100
AcDbEntity
  8
0
  6
Continuous
100
AcDbBlockReference
  2
GENARR10
 10
789.7852199791209
 20
232.4847120785444
 30
0.0
 41
11.625
 42
11.625
 43
11.625
  0
INSERT
  5
BE53
330
18
100
AcDbEntity
  8
0
  6
Continuous
100
AcDbBlockReference
  2
*X55
 10
789.7852199791209
 20
232.4847120785444
 30
0.0
 41
11.625
 42
11.625
 43
11.625
  0
INSERT
  5
BE54
330
18
100
AcDbEntity
  8
0
  6
Continuous
100
AcDbBlockReference
  2
GENARR12
 10
2342.64663835894
 20
174.2615239902376
 30
0.0
 41
11.625
 42
11.625
 43
11.625
  0
INSERT
  5
BE55
330
18
100
AcDbEntity
  8
0
  6
Continuous
100
AcDbBlockReference
  2
*X56
 10
2342.64663835894
 20
174.2615239902376
 30
0.0
 41
11.625
 42
11.625
 43
11.625
  0
INSERT
  5
BE56
330
18
100
AcDbEntity
  8
0
  6
Continuous
100
AcDbBlockReference
  2
*X57
 10
2342.64663835894
 20
174.2615239902376
 30
0.0
 41
11.625
 42
11.625
 43
11.625
  0
TEXT
  5
BE57
330
18
100
AcDbEntity
  8
CK_LEVEL_1
  6
Continuous
 62
     6
100
AcDbText
 10
-633.5150752747146
 20
-78.43988928318754
 30
0.0
 40
9.3
  1

 41
0.75
  7
CKSTANDARD
100
AcDbText
  0
INSERT
  5
BE58
330
18
100
AcDbEntity
  8
0
100
AcDbBlockReference
  2
GENARR10
 10
-950.4393535096435
 20
333.5737015494081
 30
0.0
 41
11.625
 42
11.625
 43
11.625
  0
INSERT
  5
BE59
330
18
100
AcDbEntity
  8
0
  6
Continuous
100
AcDbBlockReference
  2
*X58
 10
-734.890472677539
 20
309.4217703096565
 30
0.0
 41
11.19239573625
 42
11.19239573625
 43
11.19239573625
  0
INSERT
  5
BE5A
330
18
100
AcDbEntity
  8
0
  6
Continuous
100
AcDbBlockReference
  2
GENARR10
 10
895.899753919561
 20
212.0946326979995
 30
0.0
 41
11.19239573625
 42
11.19239573625
 43
11.19239573625
  0
INSERT
  5
BE5B
330
18
100
AcDbEntity
  8
0
  6
Continuous
100
AcDbBlockReference
  2
*X59
 10
895.899753919561
 20
212.0946326979995
 30
0.0
 41
11.19239573625
 42
11.19239573625
 43
11.19239573625
  0
INSERT
  5
BE5C
330
18
100
AcDbEntity
  8
0
  6
Continuous
100
AcDbBlockReference
  2
GENARR12
 10
2390.974121064628
 20
156.038119828283
 30
0.0
 41
11.19239573625
 42
11.19239573625
 43
11.19239573625
  0
INSERT
  5
BE5D
330
18
100
AcDbEntity
  8
0
  6
Continuous
100
AcDbBlockReference
  2
*X60
 10
2390.974121064628
 20
156.038119828283
 30
0.0
 41
11.19239573625
 42
11.19239573625
 43
11.19239573625
  0
INSERT
  5
BE5E
330
18
100
AcDbEntity
  8
0
  6
Continuous
100
AcDbBlockReference
  2
*X61
 10
2390.974121064628
 20
156.038119828283
 30
0.0
 41
11.19239573625
 42
11.19239573625
 43
11.19239573625
  0
TEXT
  5
BE5F
330
18
100
AcDbEntity
  8
CK_LEVEL_1
  6
Continuous
 62
     6
100
AcDbText
 10
-474.4348831559135
 20
-87.25944752361682
 30
0.0
 40
8.953916589
  1

 41
0.75
  7
CKSTANDARD
100
AcDbText
  0
INSERT
  5
BE60
330
18
100
AcDbEntity
  8
0
  6
Continuous
100
AcDbBlockReference
  2
*X62
 10
-690.215572699748
 20
309.4217703096565
 30
0.0
 41
11.19239573625
 42
11.19239573625
 43
11.19239573625
  0
INSERT
  5
BE61
330
18
100
AcDbEntity
  8
0
  6
Continuous
100
AcDbBlockReference
  2
GENARR10
 10
940.5746538973524
 20
212.0946326979995
 30
0.0
 41
11.19239573625
 42
11.19239573625
 43
11.19239573625
  0
INSERT
  5
BE62
330
18
100
AcDbEntity
  8
0
  6
Continuous
100
AcDbBlockReference
  2
*X63
 10
940.5746538973524
 20
212.0946326979995
 30
0.0
 41
11.19239573625
 42
11.19239573625
 43
11.19239573625
  0
INSERT
  5
BE63
330
18
100
AcDbEntity
  8
0
  6
Continuous
100
AcDbBlockReference
  2
GENARR12
 10
2435.649021042421
 20
156.038119828283
 30
0.0
 41
11.19239573625
 42
11.19239573625
 43
11.19239573625
  0
INSERT
  5
BE64
330
18
100
AcDbEntity
  8
0
  6
Continuous
100
AcDbBlockReference
  2
*X64
 10
2435.649021042421
 20
156.038119828283
 30
0.0
 41
11.19239573625
 42
11.19239573625
 43
11.19239573625
  0
INSERT
  5
BE65
330
18
100
AcDbEntity
  8
0
  6
Continuous
100
AcDbBlockReference
  2
*X65
 10
2435.649021042421
 20
156.038119828283
 30
0.0
 41
11.19239573625
 42
11.19239573625
 43
11.19239573625
  0
TEXT
  5
BE66
330
18
100
AcDbEntity
  8
CK_LEVEL_1
  6
Continuous
 62
     6
100
AcDbText
 10
-429.759983178121
 20
-87.25944752361682
 30
0.0
 40
8.953916589
  1

 41
0.75
  7
CKSTANDARD
100
AcDbText
  0
DIMENSION
  5
C322
330
18
100
AcDbEntity
  8
DIM
100
AcDbDimension
280
     0
  2
*D82
 10
195.6597963739404
 20
159.0340251498535
 30
0.0
 11
204.0799881800214
 21
159.0340251498535
 31
0.0
 70
   160
 71
     5
 42
15.25
 73
     0
 74
     0
 75
     0
  3
STANDARD
100
AcDbAlignedDimension
 13
210.9097963739404
 23
156.9258473540293
 33
0.0
 14
195.6597963739404
 24
151.4258473540293
 34
0.0
 50
180.0
100
AcDbRotatedDimension
1001
ACAD
1000
DSTYLE
1002
{
1070
     3
1000
"\X\f
1070
     4
1000
;[[]]\f
1070
    40
1040
7.0
1070
    44
1040
0.0625
1070
   170
1070
     1
1070
   276
1070
     2
1070
   277
1070
     5
1070
   340
1005
B03
1002
}
  0
LINE
  5
121AE
330
18
100
AcDbEntity
  8
Drywall
100
AcDbLine
 10
221.1597963739404
 20
155.4258473540294
 30
0.0
 11
221.1597963739404
 21
151.9258473540294
 31
0.0
  0
LINE
  5
121AF
330
18
100
AcDbEntity
  8
Drywall
100
AcDbLine
 10
219.6597963739404
 20
155.4258473540294
 30
0.0
 11
219.6597963739404
 21
151.9258473540294
 31
0.0
  0
LINE
  5
121B2
330
18
100
AcDbEntity
  8
Drywall
100
AcDbLine
 10
214.1597963739404
 20
155.4258473540294
 30
0.0
 11
214.1597963739404
 21
151.9258473540294
 31
0.0
  0
LINE
  5
121B4
330
18
100
AcDbEntity
  8
Drywall
100
AcDbLine
 10
221.1597963739404
 20
151.9258473540294
 30
0.0
 11
219.6597963739404
 21
155.4258473540294
 31
0.0
  0
LINE
  5
121B7
330
18
100
AcDbEntity
  8
Drywall
100
AcDbLine
 10
219.6597963739404
 20
151.9258473540294
 30
0.0
 11
221.1597963739404
 21
155.4258473540294
 31
0.0
  0
LINE
  5
121BA
330
18
100
AcDbEntity
  8
Drywall
100
AcDbLine
 10
212.6597963739404
 20
155.4258473540294
 30
0.0
 11
212.6597963739404
 21
151.9258473540294
 31
0.0
  0
LINE
  5
121BB
330
18
100
AcDbEntity
  8
Drywall
100
AcDbLine
 10
212.6597963739404
 20
151.9258473540294
 30
0.0
 11
214.1597963739404
 21
155.4258473540294
 31
0.0
  0
LINE
  5
121BC
330
18
100
AcDbEntity
  8
Drywall
100
AcDbLine
 10
214.1597963739404
 20
151.9258473540294
 30
0.0
 11
212.6597963739404
 21
155.4258473540294
 31
0.0
  0
LINE
  5
12204
330
18
100
AcDbEntity
  8
Drywall
100
AcDbLine
 10
227.4109691939933
 20
151.9258473540293
 30
0.0
 11
195.1609691939933
 21
151.9258473540293
 31
0.0
  0
LINE
  5
12205
330
18
100
AcDbEntity
  8
Drywall
100
AcDbLine
 10
230.9109691939933
 20
155.4258473540294
 30
0.0
 11
191.6609691939933
 21
155.4258473540294
 31
0.0
  0
LINE
  5
12206
330
18
100
AcDbEntity
  8
Drywall
100
AcDbLine
 10
230.9109691939933
 20
114.1758473540293
 30
0.0
 11
230.9109691939933
 21
155.4258473540294
 31
0.0
  0
LINE
  5
12207
330
18
100
AcDbEntity
  8
Drywall
100
AcDbLine
 10
227.4109691939933
 20
117.6758473540293
 30
0.0
 11
227.4109691939933
 21
151.9258473540293
 31
0.0
  0
LINE
  5
12208
330
18
100
AcDbEntity
  8
Drywall
100
AcDbLine
 10
195.1609691939933
 20
117.6758473540293
 30
0.0
 11
195.1609691939933
 21
121.8008473540294
 31
0.0
  0
LINE
  5
12209
330
18
100
AcDbEntity
  8
Drywall
100
AcDbLine
 10
191.6609691939933
 20
114.1758473540293
 30
0.0
 11
191.6609691939933
 21
121.8008473540294
 31
0.0
  0
LINE
  5
1220C
330
18
100
AcDbEntity
  8
Drywall
  6
CENTER
 48
2.0
100
AcDbLine
 10
216.9097963739404
 20
150.9258473540294
 30
0.0
 11
216.9097963739404
 21
156.4258473540293
 31
0.0
  0
LINE
  5
1220E
330
18
100
AcDbEntity
  8
Drywall
100
AcDbLine
 10
227.4109691939933
 20
117.6758473540293
 30
0.0
 11
195.1609691939933
 21
117.6758473540293
 31
0.0
  0
LINE
  5
1220F
330
18
100
AcDbEntity
  8
Drywall
100
AcDbLine
 10
230.9109691939933
 20
114.1758473540294
 30
0.0
 11
191.6609691939933
 21
114.1758473540293
 31
0.0
  0
LINE
  5
12211
330
18
100
AcDbEntity
  8
Drywall
100
AcDbLine
 10
195.1609691939932
 20
120.3008473540294
 30
0.0
 11
191.6609691939932
 21
120.3008473540294
 31
0.0
  0
LINE
  5
12212
330
18
100
AcDbEntity
  8
Drywall
100
AcDbLine
 10
195.1609691939932
 20
120.3008473540294
 30
0.0
 11
191.6609691939932
 21
121.8008473540294
 31
0.0
  0
LINE
  5
12213
330
18
100
AcDbEntity
  8
Drywall
100
AcDbLine
 10
195.1609691939932
 20
121.8008473540294
 30
0.0
 11
191.6609691939932
 21
120.3008473540294
 31
0.0
  0
LINE
  5
12214
330
18
100
AcDbEntity
  8
Drywall
100
AcDbLine
 10
195.1609691939932
 20
148.0508473540294
 30
0.0
 11
191.6609691939932
 21
148.0508473540294
 31
0.0
  0
LINE
  5
12215
330
18
100
AcDbEntity
  8
Drywall
100
AcDbLine
 10
195.1609691939932
 20
148.0508473540294
 30
0.0
 11
191.6609691939932
 21
146.5508473540294
 31
0.0
  0
LINE
  5
12216
330
18
100
AcDbEntity
  8
Drywall
100
AcDbLine
 10
195.1609691939932
 20
146.5508473540294
 30
0.0
 11
191.6609691939932
 21
148.0508473540294
 31
0.0
  0
LINE
  5
1221E
330
18
100
AcDbEntity
  8
Drywall
  6
CENTER
 48
2.0
100
AcDbLine
 10
204.9097963739404
 20
150.9258473540294
 30
0.0
 11
204.9097963739404
 21
156.4258473540293
 31
0.0
  0
LINE
  5
1221F
330
18
100
AcDbEntity
  8
Drywall
100
AcDbLine
 10
200.6597963739404
 20
155.4258473540294
 30
0.0
 11
200.6597963739404
 21
151.9258473540294
 31
0.0
  0
LINE
  5
12220
330
18
100
AcDbEntity
  8
Drywall
100
AcDbLine
 10
202.1597963739404
 20
155.4258473540294
 30
0.0
 11
202.1597963739404
 21
151.9258473540294
 31
0.0
  0
LINE
  5
12221
330
18
100
AcDbEntity
  8
Drywall
100
AcDbLine
 10
207.6597963739404
 20
155.4258473540294
 30
0.0
 11
207.6597963739404
 21
151.9258473540294
 31
0.0
  0
LINE
  5
12222
330
18
100
AcDbEntity
  8
Drywall
100
AcDbLine
 10
207.6597963739404
 20
153.4258473540293
 30
0.0
 11
202.1597963739404
 21
153.4258473540293
 31
0.0
  0
LINE
  5
12223
330
18
100
AcDbEntity
  8
Drywall
100
AcDbLine
 10
200.6597963739404
 20
151.9258473540294
 30
0.0
 11
202.1597963739404
 21
155.4258473540294
 31
0.0
  0
LINE
  5
12226
330
18
100
AcDbEntity
  8
Drywall
100
AcDbLine
 10
202.1597963739404
 20
151.9258473540294
 30
0.0
 11
200.6597963739404
 21
155.4258473540294
 31
0.0
  0
LINE
  5
12227
330
18
100
AcDbEntity
  8
Drywall
100
AcDbLine
 10
202.1597963739404
 20
151.9258473540294
 30
0.0
 11
207.6597963739404
 21
153.4258473540293
 31
0.0
  0
LINE
  5
12228
330
18
100
AcDbEntity
  8
Drywall
100
AcDbLine
 10
207.6597963739404
 20
151.9258473540294
 30
0.0
 11
202.1597963739404
 21
153.4258473540293
 31
0.0
  0
LINE
  5
12229
330
18
100
AcDbEntity
  8
Drywall
100
AcDbLine
 10
209.1597963739404
 20
155.4258473540294
 30
0.0
 11
209.1597963739404
 21
151.9258473540294
 31
0.0
  0
LINE
  5
1222A
330
18
100
AcDbEntity
  8
Drywall
100
AcDbLine
 10
209.1597963739404
 20
151.9258473540294
 30
0.0
 11
207.6597963739404
 21
155.4258473540294
 31
0.0
  0
LINE
  5
1222B
330
18
100
AcDbEntity
  8
Drywall
100
AcDbLine
 10
207.6597963739404
 20
151.9258473540294
 30
0.0
 11
209.1597963739404
 21
155.4258473540294
 31
0.0
  0
LINE
  5
12272
330
18
100
AcDbEntity
  8
Drywall
100
AcDbLine
 10
202.1597963739404
 20
154.9258473540293
 30
0.0
 11
207.6597963739404
 21
153.4258473540293
 31
0.0
  0
LINE
  5
12273
330
18
100
AcDbEntity
  8
Drywall
100
AcDbLine
 10
207.6597963739404
 20
154.9258473540293
 30
0.0
 11
202.1597963739404
 21
153.4258473540293
 31
0.0
  0
LINE
  5
12274
330
18
100
AcDbEntity
  8
Drywall
100
AcDbLine
 10
207.6597963739404
 20
154.9258473540293
 30
0.0
 11
202.1597963739404
 21
154.9258473540293
 31
0.0
  0
LINE
  5
12275
330
18
100
AcDbEntity
  8
Drywall
100
AcDbLine
 10
214.1597963739404
 20
153.4258473540293
 30
0.0
 11
219.6597963739404
 21
153.4258473540293
 31
0.0
  0
LINE
  5
12276
330
18
100
AcDbEntity
  8
Drywall
100
AcDbLine
 10
219.6597963739404
 20
151.9258473540294
 30
0.0
 11
214.1597963739404
 21
153.4258473540293
 31
0.0
  0
LINE
  5
12277
330
18
100
AcDbEntity
  8
Drywall
100
AcDbLine
 10
214.1597963739404
 20
151.9258473540294
 30
0.0
 11
219.6597963739404
 21
153.4258473540293
 31
0.0
  0
LINE
  5
12278
330
18
100
AcDbEntity
  8
Drywall
100
AcDbLine
 10
219.6597963739404
 20
154.9258473540293
 30
0.0
 11
214.1597963739404
 21
153.4258473540293
 31
0.0
  0
LINE
  5
12279
330
18
100
AcDbEntity
  8
Drywall
100
AcDbLine
 10
214.1597963739404
 20
154.9258473540293
 30
0.0
 11
219.6597963739404
 21
153.4258473540293
 31
0.0
  0
LINE
  5
1227A
330
18
100
AcDbEntity
  8
Drywall
100
AcDbLine
 10
214.1597963739404
 20
154.9258473540293
 30
0.0
 11
219.6597963739404
 21
154.9258473540293
 31
0.0
  0
DIMENSION
  5
122AD
330
18
100
AcDbEntity
  8
Drywall
100
AcDbDimension
280
     0
  2
*D85
 10
204.9097963739404
 20
158.6190950716844
 30
0.0
 11
201.6355106596547
 21
158.6190950716844
 31
0.0
 70
   160
 71
     5
 42
6.0
 73
     0
 74
     0
 75
     0
  3
STANDARD
100
AcDbAlignedDimension
 13
210.9097963739404
 23
156.9258473540293
 33
0.0
 14
204.9097963739404
 24
156.4258473540293
 34
0.0
 50
180.0
100
AcDbRotatedDimension
1001
ACAD
1000
DSTYLE
1002
{
1070
     3
1000
"\X\f
1070
     4
1000
;[[]]\f
1070
    40
1040
4.0
1070
    44
1040
0.0625
1070
   170
1070
     1
1070
   276
1070
     2
1070
   277
1070
     5
1070
   340
1005
B03
1002
}
  0
DIMENSION
  5
122F8
330
18
100
AcDbEntity
  8
Drywall
100
AcDbDimension
280
     0
  2
*D86
 10
216.9097963739404
 20
158.6190950716844
 30
0.0
 11
220.1840820882261
 21
158.6190950716844
 31
0.0
 70
   160
 71
     5
 42
6.0
 73
     0
 74
     0
 75
     0
  3
STANDARD
100
AcDbAlignedDimension
 13
210.9097963739404
 23
156.9258473540293
 33
0.0
 14
216.9097963739404
 24
156.4258473540293
 34
0.0
 50
0.000000000000007
100
AcDbRotatedDimension
1001
ACAD
1000
DSTYLE
1002
{
1070
     3
1000
"\X\f
1070
     4
1000
;[[]]\f
1070
    40
1040
4.0
1070
    44
1040
0.0625
1070
   170
1070
     1
1070
   276
1070
     2
1070
   277
1070
     5
1070
   340
1005
B03
1002
}
  0
LINE
  5
12CB0
330
18
100
AcDbEntity
  8
CEN
 48
5.0
100
AcDbLine
 10
210.9097963739404
 20
143.5510166929699
 30
0.0
 11
210.9097963739404
 21
156.9258473540293
 31
0.0
  0
LWPOLYLINE
  5
12E43
330
18
100
AcDbEntity
  8
WALL
100
AcDbPolyline
 90
        5
 70
     0
 43
0.0
 10
191.1597963739404
 20
146.5508473540293
 10
186.8620039766839
 20
122.1768554669772
 10
188.3392156062021
 20
121.9163832004769
 10
192.6370080034587
 20
146.2903750875289
 10
191.1597963739404
 20
146.5508473540293
  0
LWPOLYLINE
  5
12E44
330
18
100
AcDbEntity
  8
EMI
100
AcDbPolyline
 90
        7
 70
     0
 43
0.0
 10
192.7813256998072
 20
121.8365451328437
 10
195.6597963739404
 20
121.8365451328437
 10
195.5541677523899
 20
123.852059298784
 42
0.3989595459737161
 10
195.3042089845539
 20
124.0892613126001
 10
193.1369130891937
 20
124.0892613126001
 42
0.3989595459737233
 10
192.8869543213577
 20
123.852059298784
 10
192.7813256998072
 20
121.8365451328437
  0
LINE
  5
12E45
330
18
100
AcDbEntity
  8
EMI
370
    15
100
AcDbLine
 10
193.4521345177792
 20
121.8008473540294
 30
0.0
 11
193.1117240728382
 21
121.8008473540294
 31
0.0
  0
LINE
  5
12E46
330
18
100
AcDbEntity
  8
EMI
370
    15
100
AcDbLine
 10
193.4521345177792
 20
121.8306056040648
 30
0.0
 11
193.1117240728382
 21
121.8306056040648
 31
0.0
  0
LINE
  5
12E47
330
18
100
AcDbEntity
  8
EMI
370
    15
100
AcDbLine
 10
193.0312844676433
 20
121.8365451328437
 30
0.0
 11
193.4696556436217
 21
121.8365451328437
 31
0.0
  0
LINE
  5
12E48
330
18
100
AcDbEntity
  8
EMI
370
    15
100
AcDbLine
 10
193.1117240728382
 20
121.8306056040648
 30
0.0
 11
193.1117240728382
 21
121.8008473540294
 31
0.0
  0
LINE
  5
12E49
330
18
100
AcDbEntity
  8
EMI
370
    15
100
AcDbLine
 10
193.1168872264346
 20
121.8365451328437
 30
0.0
 11
193.1117240728382
 21
121.8306056040648
 31
0.0
  0
ARC
  5
12E4A
330
18
100
AcDbEntity
  8
EMI
370
    15
100
AcDbCircle
 10
194.2650250260403
 20
123.9647215279252
 30
0.0
 40
0.2216568822020822
100
AcDbArc
 50
54.33180170646794
 51
79.59251882427941
  0
ARC
  5
12E4B
330
18
100
AcDbEntity
  8
EMI
370
    15
100
AcDbCircle
 10
194.2205610368739
 20
123.9172963926424
 30
0.0
 40
0.3042552848276811
100
AcDbArc
 50
70.11412671897911
 51
85.65937965758939
  0
LWPOLYLINE
  5
12E4C
330
18
100
AcDbEntity
  8
EMI
370
    15
100
AcDbPolyline
 90
        3
 70
   128
 43
0.0
 10
194.3049910241092
 20
124.1823679604115
 10
194.298031825474
 20
124.1835671785768
 10
194.2606173433065
 20
124.1848727807557
  0
LINE
  5
12E4D
330
18
100
AcDbEntity
  8
EMI
370
    15
100
AcDbLine
 10
194.0330774054556
 20
124.1476474929966
 30
0.0
 11
194.0330774054556
 21
124.0892613126001
 31
0.0
  0
LINE
  5
12E4E
330
18
100
AcDbEntity
  8
EMI
370
    15
100
AcDbLine
 10
194.0403437424933
 20
124.1321167832419
 30
0.0
 11
194.0403437424933
 21
124.0892613126001
 31
0.0
  0
ARC
  5
12E4F
330
18
100
AcDbEntity
  8
EMI
370
    15
100
AcDbCircle
 10
194.1760970477074
 20
123.9647215279252
 30
0.0
 40
0.2216568822020821
100
AcDbArc
 50
100.3998573293602
 51
125.668198293532
  0
ARC
  5
12E50
330
18
100
AcDbEntity
  8
EMI
370
    15
100
AcDbCircle
 10
194.2205610368739
 20
123.9172963926424
 30
0.0
 40
0.3051254763610743
100
AcDbArc
 50
109.9496648690543
 51
125.8925911028815
  0
ARC
  5
12E51
330
18
100
AcDbEntity
  8
EMI
370
    15
100
AcDbCircle
 10
194.055952184787
 20
124.1321167832419
 30
0.0
 40
0.0156084422937005
100
AcDbArc
 50
125.668198293528
 51
180.0
  0
ARC
  5
12E52
330
18
100
AcDbEntity
  8
EMI
370
    15
100
AcDbCircle
 10
194.0538600395719
 20
124.1476474929966
 30
0.0
 40
0.0207826341162697
100
AcDbArc
 50
125.8925911028815
 51
180.0
  0
ARC
  5
12E53
330
18
100
AcDbEntity
  8
EMI
370
    15
100
AcDbCircle
 10
194.2205610368739
 20
123.9172963926424
 30
0.0
 40
0.3042552848276811
100
AcDbArc
 50
94.3406203424106
 51
109.8858732810209
  0
LINE
  5
12E54
330
18
100
AcDbEntity
  8
EMI
370
    15
100
AcDbLine
 10
194.1164539090755
 20
124.2041121214059
 30
0.0
 11
194.1170693001466
 21
124.2034095499329
 31
0.0
  0
ARC
  5
12E55
330
18
100
AcDbEntity
  8
EMI
370
    15
100
AcDbCircle
 10
194.2205610368739
 20
123.8264221194161
 30
0.0
 40
0.3776900855816621
100
AcDbArc
 50
86.50450824908203
 51
93.49549175091798
  0
LINE
  5
12E56
330
18
100
AcDbEntity
  8
EMI
370
    15
100
AcDbLine
 10
194.1975332714808
 20
124.2034095499329
 30
0.0
 11
194.1975332714808
 21
124.2206789899787
 31
0.0
  0
LINE
  5
12E57
330
18
100
AcDbEntity
  8
EMI
370
    15
100
AcDbLine
 10
194.2020387038403
 20
124.1823679604115
 30
0.0
 11
194.2390833699074
 21
124.1823679604115
 31
0.0
  0
LINE
  5
12E58
330
18
100
AcDbEntity
  8
EMI
370
    15
100
AcDbLine
 10
194.2020387038403
 20
124.1823679604115
 30
0.0
 11
194.2020199304183
 21
124.1863784101273
 31
0.0
  0
LINE
  5
12E59
330
18
100
AcDbEntity
  8
EMI
370
    15
100
AcDbLine
 10
194.2390833699074
 20
124.1823679604115
 30
0.0
 11
194.239367641586
 21
124.1863784101273
 31
0.0
  0
LINE
  5
12E5A
330
18
100
AcDbEntity
  8
EMI
370
    15
100
AcDbLine
 10
194.2435888022669
 20
124.2034095499329
 30
0.0
 11
194.2435888022669
 21
124.2206789899787
 31
0.0
  0
LINE
  5
12E5B
330
18
100
AcDbEntity
  8
EMI
370
    15
100
AcDbLine
 10
194.2609019444437
 20
124.1863784101273
 30
0.0
 11
194.239367641586
 21
124.1863784101273
 31
0.0
  0
LINE
  5
12E5C
330
18
100
AcDbEntity
  8
EMI
370
    15
100
AcDbLine
 10
194.1803146148277
 20
124.1863784101273
 30
0.0
 11
194.1360842796676
 21
124.182737013204
 31
0.0
  0
LINE
  5
12E5D
330
18
100
AcDbEntity
  8
EMI
370
    15
100
AcDbLine
 10
194.2020199304183
 20
124.1863784101273
 30
0.0
 11
194.1803146148277
 21
124.1863784101273
 31
0.0
  0
LINE
  5
12E5E
330
18
100
AcDbEntity
  8
EMI
370
    15
100
AcDbLine
 10
194.4080446682921
 20
124.0892613126001
 30
0.0
 11
194.4080446682921
 21
124.1476474929966
 31
0.0
  0
LINE
  5
12E5F
330
18
100
AcDbEntity
  8
EMI
370
    15
100
AcDbLine
 10
194.4007783312543
 20
124.0892613126001
 30
0.0
 11
194.4007783312543
 21
124.1321167832419
 31
0.0
  0
ARC
  5
12E60
330
18
100
AcDbEntity
  8
EMI
370
    15
100
AcDbCircle
 10
194.2205610368739
 20
123.9172963926424
 30
0.0
 40
0.3051254763610743
100
AcDbArc
 50
54.10740889711474
 51
70.0503351309457
  0
LINE
  5
12E61
330
18
100
AcDbEntity
  8
EMI
370
    15
100
AcDbLine
 10
194.324052773601
 20
124.2034095499329
 30
0.0
 11
194.3246681646722
 21
124.2041121214059
 31
0.0
  0
ARC
  5
12E62
330
18
100
AcDbEntity
  8
EMI
370
    15
100
AcDbCircle
 10
194.3872620341758
 20
124.1476474929966
 30
0.0
 40
0.0207826341162733
100
AcDbArc
 50
0.000000000000007
 51
54.10740889711052
  0
ARC
  5
12E63
330
18
100
AcDbEntity
  8
EMI
370
    15
100
AcDbCircle
 10
194.3851698889606
 20
124.1321167832419
 30
0.0
 40
0.0156084422936999
100
AcDbArc
 50
0.000000000000007
 51
54.33180170647201
  0
LINE
  5
12E64
330
18
100
AcDbEntity
  8
EMI
370
    15
100
AcDbLine
 10
194.9714664301259
 20
121.8365451328437
 30
0.0
 11
195.4098376061044
 21
121.8365451328437
 31
0.0
  0
LINE
  5
12E65
330
18
100
AcDbEntity
  8
EMI
370
    15
100
AcDbLine
 10
195.3293980009094
 20
121.8306056040648
 30
0.0
 11
194.9889875559685
 21
121.8306056040648
 31
0.0
  0
LINE
  5
12E66
330
18
100
AcDbEntity
  8
EMI
370
    15
100
AcDbLine
 10
195.3293980009094
 20
121.8008473540294
 30
0.0
 11
194.9889875559685
 21
121.8008473540294
 31
0.0
  0
LINE
  5
12E67
330
18
100
AcDbEntity
  8
EMI
370
    15
100
AcDbLine
 10
193.4521345177792
 20
121.8008473540294
 30
0.0
 11
193.4521345177792
 21
121.8306056040648
 31
0.0
  0
LINE
  5
12E68
330
18
100
AcDbEntity
  8
EMI
370
    15
100
AcDbLine
 10
193.4521345177792
 20
121.8306056040648
 30
0.0
 11
193.4469713641827
 21
121.8365451328437
 31
0.0
  0
LINE
  5
12E69
330
18
100
AcDbEntity
  8
EMI
370
    15
100
AcDbLine
 10
194.9889875559685
 20
121.8306056040648
 30
0.0
 11
194.9889875559685
 21
121.8008473540294
 31
0.0
  0
LINE
  5
12E6A
330
18
100
AcDbEntity
  8
EMI
370
    15
100
AcDbLine
 10
194.9941507095648
 20
121.8365451328437
 30
0.0
 11
194.9889875559685
 21
121.8306056040648
 31
0.0
  0
LINE
  5
12E6B
330
18
100
AcDbEntity
  8
EMI
370
    15
100
AcDbLine
 10
195.3293980009094
 20
121.8008473540294
 30
0.0
 11
195.3293980009094
 21
121.8306056040648
 31
0.0
  0
LINE
  5
12E6C
330
18
100
AcDbEntity
  8
EMI
370
    15
100
AcDbLine
 10
195.3293980009094
 20
121.8306056040648
 30
0.0
 11
195.3242348473131
 21
121.8365451328437
 31
0.0
  0
LINE
  5
1310C
330
18
100
AcDbEntity
  8
WALL
100
AcDbLine
 10
195.6597963739404
 20
146.5508473540293
 30
0.0
 11
195.6597963739404
 21
121.8008473540294
 31
0.0
  0
LINE
  5
1310D
330
18
100
AcDbEntity
  8
WALL
100
AcDbLine
 10
191.1597963739404
 20
137.9126916293139
 30
0.0
 11
191.1597963739404
 21
121.8008473540294
 31
0.0
  0
DIMENSION
  5
1335E
330
18
100
AcDbEntity
  8
DIM
100
AcDbDimension
280
     0
  2
*D91
 10
240.0705312466269
 20
121.1758473540293
 30
0.0
 11
240.0705312466268
 21
134.2753354834955
 31
0.0
 70
   160
  1
{\fSegoe Print|b0|i0|c0|p2;CLEAR CAR\PINSIDE\P}<>\P[]
 71
     5
 42
26.0
 73
     0
 74
     0
 75
     0
  3
STANDARD
100
AcDbAlignedDimension
 13
224.9097963739404
 23
147.1758473540293
 33
0.0
 14
224.9097963739404
 24
121.1758473540293
 34
0.0
 50
90.0
100
AcDbRotatedDimension
1001
ACAD
1000
DSTYLE
1002
{
1070
     3
1000
"\X\f
1070
     4
1000
;[[]]\f
1070
    40
1040
7.0
1070
    44
1040
0.0625
1070
   170
1070
     1
1070
   276
1070
     2
1070
   277
1070
     5
1070
   340
1005
B03
1002
}
  0
LINE
  5
13493
330
18
100
AcDbEntity
  8
WALL
100
AcDbLine
 10
231.4097963739404
 20
155.9258473540293
 30
0.0
 11
191.1597963739404
 21
155.9258473540293
 31
0.0
  0
INSERT
  5
13494
330
18
100
AcDbEntity
  8
RAIL
100
AcDbBlockReference
  2
PWRAIL
 10
163.8399257326512
 20
241.6382831863295
 30
-216.0
  0
LINE
  5
13495
330
18
100
AcDbEntity
  8
WALL
100
AcDbLine
 10
226.9097963739404
 20
151.4258473540293
 30
0.0
 11
195.6597963739404
 21
151.4258473540293
 31
0.0
  0
LWPOLYLINE
  5
13496
330
18
100
AcDbEntity
  8
CAR
100
AcDbPolyline
 90
        5
 70
     0
 43
0.0625
 10
196.9097963739404
 20
121.1758473540293
 10
196.9097963739404
 20
147.1758473540293
 10
224.9097963739404
 20
147.1758473540293
 10
224.9097963739404
 20
121.1758473540293
 10
196.9097963739404
 20
121.1758473540293
  0
LINE
  5
13497
330
18
100
AcDbEntity
  8
WALL
100
AcDbLine
 10
231.4097963739404
 20
113.6758473540294
 30
0.0
 11
231.4097963739404
 21
155.9258473540293
 31
0.0
  0
LINE
  5
13498
330
18
100
AcDbEntity
  8
WALL
100
AcDbLine
 10
226.9097963739404
 20
118.1758473540293
 30
0.0
 11
226.9097963739404
 21
151.4258473540293
 31
0.0
  0
LWPOLYLINE
  5
13499
330
18
100
AcDbEntity
  8
CAR
100
AcDbPolyline
 90
        2
 70
     0
 43
0.0625
 10
224.9097963739404
 20
121.1758473540293
 10
196.9097963739404
 20
121.1758473540293
  0
LINE
  5
1349A
330
18
100
AcDbEntity
  8
WALL
100
AcDbLine
 10
231.4097963739404
 20
113.6758473540294
 30
0.0
 11
191.1597963739403
 21
113.6758473540293
 31
0.0
  0
LINE
  5
1349B
330
18
100
AcDbEntity
  8
WALL
100
AcDbLine
 10
226.9097963739404
 20
118.1758473540293
 30
0.0
 11
195.6597963739404
 21
118.1758473540293
 31
0.0
  0
LWPOLYLINE
  5
1349C
330
18
100
AcDbEntity
  8
CAR
100
AcDbPolyline
 90
        2
 70
     0
 43
0.0625
 10
196.9097963739404
 20
121.1758473540293
 10
196.9097963739404
 20
119.1758473540293
  0
TEXT
  5
1349D
330
18
100
AcDbEntity
  8
DIM
100
AcDbText
 10
220.9662519224507
 20
122.0426736552487
 30
0.0
 40
1.605406979319466
  1
B
  7
ROMANS
100
AcDbText
  0
LWPOLYLINE
  5
1349E
330
18
100
AcDbEntity
  8
CAR
100
AcDbPolyline
 90
        2
 70
     0
 43
0.0625
 10
224.9097963739404
 20
121.1758473540293
 10
224.9097963739404
 20
119.1758473540293
  0
TEXT
  5
1349F
330
18
100
AcDbEntity
  8
DIM
100
AcDbText
 10
220.8898039710545
 20
144.5049959547116
 30
0.0
 40
1.605406979319466
  1
A
  7
ROMANS
100
AcDbText
  0
LWPOLYLINE
  5
134A0
330
18
100
AcDbEntity
  8
CAR
100
AcDbPolyline
 90
        2
 70
     0
 43
0.0625
 10
196.9097963739404
 20
147.1758473540293
 10
196.9097963739404
 20
149.1758473540294
  0
TEXT
  5
134A1
330
18
100
AcDbEntity
  8
DIM
100
AcDbText
 10
198.5882729035262
 20
122.2875597827314
 30
0.0
 40
1.605406979319466
  1
C
  7
ROMANS
100
AcDbText
  0
TEXT
  5
134A2
330
18
100
AcDbEntity
  8
DIM
100
AcDbText
 10
198.8940647091109
 20
144.7498820821943
 30
0.0
 40
1.605406979319466
  1
D
  7
ROMANS
100
AcDbText
  0
LWPOLYLINE
  5
134A3
330
18
100
AcDbEntity
  8
CAR
100
AcDbPolyline
 90
        2
 70
     0
 43
0.0625
 10
224.9097963739404
 20
147.1758473540293
 10
224.9097963739404
 20
149.1758473540294
  0
LINE
  5
134A4
330
18
100
AcDbEntity
  8
WALL
100
AcDbLine
 10
191.1597963739404
 20
113.6758473540294
 30
0.0
 11
191.1597963739404
 21
121.8008473540293
 31
0.0
  0
LINE
  5
134A5
330
18
100
AcDbEntity
  8
WALL
100
AcDbLine
 10
195.6597963739404
 20
118.1758473540293
 30
0.0
 11
195.6597963739404
 21
121.8008473540293
 31
0.0
  0
LINE
  5
134A6
330
18
100
AcDbEntity
  8
WALL
100
AcDbLine
 10
195.6597963739404
 20
146.5508473540293
 30
0.0
 11
191.1597963739403
 21
146.5508473540293
 31
0.0
  0
LINE
  5
134A7
330
18
100
AcDbEntity
  8
WALL
100
AcDbLine
 10
195.6597963739404
 20
121.8008473540294
 30
0.0
 11
191.1597963739404
 21
121.8008473540294
 31
0.0
  0
LINE
  5
134A8
330
18
100
AcDbEntity
  8
WALL
100
AcDbLine
 10
191.1597963739403
 20
146.5508473540293
 30
0.0
 11
191.1597963739404
 21
155.9258473540293
 31
0.0
  0
LINE
  5
134A9
330
18
100
AcDbEntity
  8
WALL
100
AcDbLine
 10
195.6597963739404
 20
146.5508473540293
 30
0.0
 11
195.6597963739404
 21
151.4258473540293
 31
0.0
  0
INSERT
  5
134AB
330
18
100
AcDbEntity
  8
WALL
100
AcDbBlockReference
  2
A$C302758B8
 10
198.1597963993577
 20
146.5508473768257
 30
0.0
 41
-1.0
  0
INSERT
  5
134AC
330
18
100
AcDbEntity
  8
WALL
100
AcDbBlockReference
  2
A$C32E66CAB
 10
198.1597963993577
 20
121.175847422432
 30
0.0
 41
-1.0
  0
LINE
  5
134AD
330
18
100
AcDbEntity
  8
CENT
  6
HIDDEN
 48
3.0
100
AcDbLine
 10
197.4722963739404
 20
121.8008473540294
 30
0.0
 11
197.4722963739404
 21
146.5508473540293
 31
0.0
  0
LINE
  5
134AE
330
18
100
AcDbEntity
  8
CENT
  6
HIDDEN
 48
3.0
100
AcDbLine
 10
197.0972964617343
 20
121.8008474028417
 30
0.0
 11
197.0972963739404
 21
146.5508473540293
 31
0.0
  0
LINE
  5
134AF
330
18
100
AcDbEntity
  8
CAR
100
AcDbLine
 10
223.4722963739404
 20
147.1758473540293
 30
0.0
 11
223.4722963739404
 21
121.1758473540293
 31
0.0
  0
LINE
  5
134B0
330
18
100
AcDbEntity
  8
CENT
  6
HIDDEN
 48
3.0
100
AcDbLine
 10
223.9422963739405
 20
147.1758473540293
 30
0.0
 11
223.9422963739405
 21
121.1758473540293
 31
0.0
  0
LINE
  5
134B1
330
18
100
AcDbEntity
  8
CENT
  6
HIDDEN
 48
3.0
100
AcDbLine
 10
224.4122963739405
 20
147.1758473540293
 30
0.0
 11
224.4122963739405
 21
121.1758473540293
 31
0.0
  0
LINE
  5
134B2
330
18
100
AcDbEntity
  8
CAR
100
AcDbLine
 10
223.5469963739404
 20
147.1758473540293
 30
0.0
 11
223.5469963739404
 21
121.1758473540293
 31
0.0
  0
LINE
  5
13589
330
18
100
AcDbEntity
  8
Drywall
100
AcDbLine
 10
191.6609691939933
 20
146.5508473540293
 30
0.0
 11
191.6609691939933
 21
155.4258473540294
 31
0.0
  0
LINE
  5
1358A
330
18
100
AcDbEntity
  8
Drywall
100
AcDbLine
 10
195.1609691939932
 20
146.5508473540294
 30
0.0
 11
195.1609691939933
 21
151.9258473540293
 31
0.0
  0
DIMENSION
  5
13749
330
18
100
AcDbEntity
  8
DIM
100
AcDbDimension
280
     0
  2
*D92
 10
197.4722963739404
 20
164.5459097847025
 30
0.0
 11
210.3337924523581
 21
164.5459097847025
 31
0.0
 70
   160
  1
{\fSegoe Print|b0|i0|c0|p2;CLEAR CAR INSIDE}\P<>
 71
     5
 42
26.00000000000006
 73
     0
 74
     0
 75
     0
  3
STANDARD
100
AcDbAlignedDimension
 13
223.4722963739404
 23
147.1758473540293
 33
0.0
 14
197.4722963739404
 24
147.0508473540293
 34
0.0
 50
180.0
100
AcDbRotatedDimension
1001
ACAD
1000
DSTYLE
1002
{
1070
     3
1000
"
1070
    40
1040
7.0
1070
    44
1040
0.0625
1070
   170
1070
     1
1070
   276
1070
     2
1070
   277
1070
     5
1070
   340
1005
B03
1002
}
  0
DIMENSION
  5
13834
330
18
100
AcDbEntity
  8
DIM
100
AcDbDimension
280
     0
  2
*D93
 10
179.4995408686783
 20
151.4258473540294
 30
0.0
 11
179.4995408686782
 21
148.9883473540294
 31
0.0
 70
   160
 71
     5
 42
4.875000000000028
 73
     0
 74
     0
 75
     0
  3
STANDARD
100
AcDbAlignedDimension
 13
191.1597963739403
 23
146.5508473540293
 33
0.0
 14
195.6597963739404
 24
151.4258473540293
 34
0.0
 50
90.0
100
AcDbRotatedDimension
1001
ACAD
1000
DSTYLE
1002
{
1070
     3
1000
"
1070
    40
1040
7.0
1070
    44
1040
0.0625
1070
   170
1070
     1
1070
   276
1070
     2
1070
   277
1070
     5
1070
   340
1005
B03
1002
}
  0
DIMENSION
  5
13860
330
18
100
AcDbEntity
  8
DIM
100
AcDbDimension
280
     0
  2
*D94
 10
179.4995408686783
 20
146.5508473540293
 30
0.0
 11
179.4995408686782
 21
134.1758473540294
 31
0.0
 70
   160
  1
{\fSegoe Print|b0|i0|c0|p2;CLEAR DOOR\POPENING}\P<>
 71
     5
 42
24.75
 73
     0
 74
     0
 75
     0
  3
STANDARD
100
AcDbAlignedDimension
 13
191.1597963739404
 23
121.8008473540293
 33
0.0
 14
191.1597963739403
 24
146.5508473540293
 34
0.0
 50
90.0
100
AcDbRotatedDimension
1001
ACAD
1000
DSTYLE
1002
{
1070
     3
1000
"\X\f
1070
     4
1000
;[[]]\f
1070
    40
1040
7.0
1070
    44
1040
0.0625
1070
   170
1070
     1
1070
   276
1070
     2
1070
   277
1070
     5
1070
   340
1005
B03
1002
}
  0
DIMENSION
  5
138B8
330
18
100
AcDbEntity
  8
DIM
100
AcDbDimension
280
     0
  2
*D95
 10
179.4995408686783
 20
118.1758473540293
 30
0.0
 11
179.4995408686782
 21
119.9883473540294
 31
0.0
 70
   160
 71
     5
 42
3.625
 73
     0
 74
     0
 75
     0
  3
STANDARD
100
AcDbAlignedDimension
 13
191.1597963739404
 23
121.8008473540294
 33
0.0
 14
195.6597963739404
 24
118.1758473540293
 34
0.0
 50
90.0
100
AcDbRotatedDimension
1001
ACAD
1000
DSTYLE
1002
{
1070
     3
1000
"
1070
    40
1040
7.0
1070
    44
1040
0.0625
1070
   170
1070
     1
1070
   276
1070
     2
1070
   277
1070
     5
1070
   340
1005
B03
1002
}
  0
HATCH
  5
13997
330
18
100
AcDbEntity
  8
WALL
100
AcDbHatch
 10
0.0
 20
0.0
 30
0.0
210
0.0
220
0.0
230
1.0
  2
ANSI31
 70
     0
 71
     0
 91
        2
 92
        7
 72
     0
 73
     1
 93
        6
 10
191.1597963739404
 20
155.9258473540293
 10
210.9097963739404
 20
155.9258473540293
 10
210.9097963739404
 20
151.4258473540293
 10
195.6597963739404
 20
151.4258473540293
 10
195.6597963739404
 20
146.5508473540293
 10
191.1597963739403
 20
146.5508473540293
 97
        0
 92
        7
 72
     0
 73
     1
 93
       10
 10
210.9097963739404
 20
155.9258473540293
 10
231.4097963739404
 20
155.9258473540293
 10
231.4097963739404
 20
113.6758473540294
 10
191.1597963739404
 20
113.6758473540293
 10
191.1597963739404
 20
121.8008473540294
 10
195.6597963739404
 20
121.8008473540294
 10
195.6597963739404
 20
118.1758473540293
 10
226.9097963739404
 20
118.1758473540293
 10
226.9097963739404
 20
151.4258473540293
 10
210.9097963739404
 20
151.4258473540293
 97
        0
 75
     1
 76
     1
 52
0.0
 41
10.0
 77
     0
 78
     1
 53
45.0
 43
0.0
 44
0.0
 45
-0.8838834764831842
 46
0.8838834764831844
 79
     0
 47
0.0672845194607574
 98
        2
 10
207.5147938322471
 20
152.9454554078249
 10
212.6310650288794
 20
153.8874387252395
1001
GradientColor1ACI
1070
     5
1001
GradientColor2ACI
1070
     2
1001
ACAD
1010
0.0
1020
0.0
1030
0.0
  0
VIEWPORT
  5
6CA3
330
15
100
AcDbEntity
 67
     1
  8
0
 62
     6
100
AcDbViewport
 10
6.748648922978456
 20
5.498826730155442
 30
0.0
 40
21.01793724069844
 41
10.60884266214768
 68
     1
 69
     1
 12
6.748648922978456
 22
5.498826730155442
 13
0.0
 23
0.0
 14
1.0
 24
1.0
 15
0.0
 25
0.0
 16
0.0
 26
0.0
 36
1.0
 17
0.0
 27
0.0
 37
0.0
 42
50.0
 43
0.0
 44
0.0
 45
10.60884266214768
 50
0.0
 51
0.0
 72
 10000
 90
    32768
  1

281
     0
 71
     1
 74
     0
110
0.0
120
0.0
130
0.0
111
1.0
121
0.0
131
0.0
112
0.0
122
1.0
132
0.0
 79
     0
146
0.0
170
     0
 61
     5
348
1191D
292
     1
282
     1
141
0.0
142
0.0
 63
   250
421
  3355443
  0
VIEWPORT
  5
D1CD
330
15
100
AcDbEntity
 67
     1
  8
VPORT
100
AcDbViewport
 10
6.759798005046931
 20
6.638101553297954
 30
0.0
 40
7.781584801201205
 41
8.219796893404089
 68
     2
 69
     2
 12
214.1765334904493
 22
145.4058455257724
 13
0.0
 23
0.0
 14
1.0
 24
1.0
 15
0.0
 25
0.0
 16
0.0
 26
0.0
 36
1.0
 17
0.0
 27
0.0
 37
0.0
 42
50.0
 43
0.0
 44
0.0
 45
91.04689701133141
 50
0.0
 51
0.0
 72
 10000
 90
    32768
  1

281
     0
 71
     1
 74
     0
110
0.0
120
0.0
130
0.0
111
1.0
121
0.0
131
0.0
112
0.0
122
1.0
132
0.0
 79
     0
146
0.0
170
     0
 61
     5
348
1191D
292
     1
282
     1
141
0.0
142
0.0
 63
   250
421
  3355443
  0
INSERT
  5
D281
330
15
100
AcDbEntity
 67
     1
  8
0
  6
Continuous
100
AcDbBlockReference
  2
*X66
 10
-79.28199939962016
 20
22.04748434982761
 30
0.0
 41
0.9997499999999998
 42
0.9997499999999998
 43
0.9997499999999998
  0
INSERT
  5
D282
330
15
100
AcDbEntity
 67
     1
  8
0
  6
Continuous
100
AcDbBlockReference
  2
GENARR10
 10
66.3867713855262
 20
13.35383125533334
 30
0.0
 41
0.9997499999999998
 42
0.9997499999999998
 43
0.9997499999999998
  0
INSERT
  5
D283
330
15
100
AcDbEntity
 67
     1
  8
0
  6
Continuous
100
AcDbBlockReference
  2
*X67
 10
66.3867713855262
 20
13.35383125533334
 30
0.0
 41
0.9997499999999998
 42
0.9997499999999998
 43
0.9997499999999998
  0
INSERT
  5
D284
330
15
100
AcDbEntity
 67
     1
  8
0
  6
Continuous
100
AcDbBlockReference
  2
GENARR12
 10
199.9328533661906
 20
8.346637079738927
 30
0.0
 41
0.9997499999999998
 42
0.9997499999999998
 43
0.9997499999999998
  0
INSERT
  5
D285
330
15
100
AcDbEntity
 67
     1
  8
0
  6
Continuous
100
AcDbBlockReference
  2
*X68
 10
199.9328533661906
 20
8.346637079738927
 30
0.0
 41
0.9997499999999998
 42
0.9997499999999998
 43
0.9997499999999998
  0
INSERT
  5
D286
330
15
100
AcDbEntity
 67
     1
  8
0
  6
Continuous
100
AcDbBlockReference
  2
*X69
 10
199.9328533661906
 20
8.346637079738927
 30
0.0
 41
0.9997499999999998
 42
0.9997499999999998
 43
0.9997499999999998
  0
TEXT
  5
D287
330
15
100
AcDbEntity
 67
     1
  8
CK_LEVEL_1
  6
Continuous
 62
     6
100
AcDbText
 10
-56.01705400630358
 20
-13.38568446177562
 30
0.0
 40
0.7998
  1

 41
0.75
  7
CKSTANDARD
100
AcDbText
  0
INSERT
  5
D288
330
15
100
AcDbEntity
 67
     1
  8
0
  6
Continuous
100
AcDbBlockReference
  2
*X70
 10
-75.29145686473279
 20
22.04748434982761
 30
0.0
 41
0.9997499999999998
 42
0.9997499999999998
 43
0.9997499999999998
  0
INSERT
  5
D289
330
15
100
AcDbEntity
 67
     1
  8
0
  6
Continuous
100
AcDbBlockReference
  2
GENARR10
 10
70.37731392041357
 20
13.35383125533334
 30
0.0
 41
0.9997499999999998
 42
0.9997499999999998
 43
0.9997499999999998
  0
INSERT
  5
D28A
330
15
100
AcDbEntity
 67
     1
  8
0
  6
Continuous
100
AcDbBlockReference
  2
*X71
 10
70.37731392041357
 20
13.35383125533334
 30
0.0
 41
0.9997499999999998
 42
0.9997499999999998
 43
0.9997499999999998
  0
INSERT
  5
D28B
330
15
100
AcDbEntity
 67
     1
  8
0
  6
Continuous
100
AcDbBlockReference
  2
GENARR12
 10
203.9233959010779
 20
8.346637079738927
 30
0.0
 41
0.9997499999999998
 42
0.9997499999999998
 43
0.9997499999999998
  0
INSERT
  5
D28C
330
15
100
AcDbEntity
 67
     1
  8
0
  6
Continuous
100
AcDbBlockReference
  2
*X72
 10
203.9233959010779
 20
8.346637079738927
 30
0.0
 41
0.9997499999999998
 42
0.9997499999999998
 43
0.9997499999999998
  0
INSERT
  5
D28D
330
15
100
AcDbEntity
 67
     1
  8
0
  6
Continuous
100
AcDbBlockReference
  2
*X73
 10
203.9233959010779
 20
8.346637079738927
 30
0.0
 41
0.9997499999999998
 42
0.9997499999999998
 43
0.9997499999999998
  0
TEXT
  5
D28E
330
15
100
AcDbEntity
 67
     1
  8
CK_LEVEL_1
  6
Continuous
 62
     6
100
AcDbText
 10
-52.02651147141621
 20
-13.38568446177562
 30
0.0
 40
0.7998
  1

 41
0.75
  7
CKSTANDARD
100
AcDbText
  0
INSERT
  5
D28F
330
15
100
AcDbEntity
 67
     1
  8
0
100
AcDbBlockReference
  2
GENARR10
 10
-79.28199939962016
 20
22.04748434982761
 30
0.0
 41
0.9997499999999998
 42
0.9997499999999998
 43
0.9997499999999998
  0
LWPOLYLINE
  5
D290
330
15
100
AcDbEntity
 67
     1
  8
BORDER
100
AcDbPolyline
 90
        5
 70
     0
 43
0.0312421875
 10
2.75
 20
10.748
 10
2.75
 20
0.25
 10
10.747375
 20
0.25
 10
10.747375
 20
10.748
 10
2.75
 20
10.748
  0
INSERT
  5
D2A4
330
15
100
AcDbEntity
 67
     1
  8
0
  6
Continuous
100
AcDbBlockReference
  2
*X74
 10
-60.74479564805921
 20
19.97041826320897
 30
0.0
 41
0.9625460333174999
 42
0.9625460333174999
 43
0.9625460333174999
  0
INSERT
  5
D2A5
330
15
100
AcDbEntity
 67
     1
  8
0
  6
Continuous
100
AcDbBlockReference
  2
GENARR10
 10
79.5031638392914
 20
11.60028442860645
 30
0.0
 41
0.9625460333174999
 42
0.9625460333174999
 43
0.9625460333174999
  0
INSERT
  5
D2A6
330
15
100
AcDbEntity
 67
     1
  8
0
  6
Continuous
100
AcDbBlockReference
  2
*X75
 10
79.5031638392914
 20
11.60028442860645
 30
0.0
 41
0.9625460333174999
 42
0.9625460333174999
 43
0.9625460333174999
  0
INSERT
  5
D2A7
330
15
100
AcDbEntity
 67
     1
  8
0
  6
Continuous
100
AcDbBlockReference
  2
GENARR12
 10
208.0795594137672
 20
6.779424321810859
 30
0.0
 41
0.9625460333174999
 42
0.9625460333174999
 43
0.9625460333174999
  0
INSERT
  5
D2A8
330
15
100
AcDbEntity
 67
     1
  8
0
  6
Continuous
100
AcDbBlockReference
  2
*X76
 10
208.0795594137672
 20
6.779424321810859
 30
0.0
 41
0.9625460333174999
 42
0.9625460333174999
 43
0.9625460333174999
  0
INSERT
  5
D2A9
330
15
100
AcDbEntity
 67
     1
  8
0
  6
Continuous
100
AcDbBlockReference
  2
*X77
 10
208.0795594137672
 20
6.779424321810859
 30
0.0
 41
0.9625460333174999
 42
0.9625460333174999
 43
0.9625460333174999
  0
TEXT
  5
D2AA
330
15
100
AcDbEntity
 67
     1
  8
CK_LEVEL_1
  6
Continuous
 62
     6
100
AcDbText
 10
-38.34561494919937
 20
-14.14416647045249
 30
0.0
 40
0.770036826654
  1

 41
0.75
  7
CKSTANDARD
100
AcDbText
  0
INSERT
  5
D2AB
330
15
100
AcDbEntity
 67
     1
  8
0
  6
Continuous
100
AcDbBlockReference
  2
*X78
 10
-56.90275424996909
 20
19.97041826320897
 30
0.0
 41
0.9625460333174999
 42
0.9625460333174999
 43
0.9625460333174999
  0
INSERT
  5
D2AC
330
15
100
AcDbEntity
 67
     1
  8
0
  6
Continuous
100
AcDbBlockReference
  2
GENARR10
 10
83.34520523738149
 20
11.60028442860645
 30
0.0
 41
0.9625460333174999
 42
0.9625460333174999
 43
0.9625460333174999
  0
INSERT
  5
D2AD
330
15
100
AcDbEntity
 67
     1
  8
0
  6
Continuous
100
AcDbBlockReference
  2
*X79
 10
83.34520523738149
 20
11.60028442860645
 30
0.0
 41
0.9625460333174999
 42
0.9625460333174999
 43
0.9625460333174999
  0
INSERT
  5
D2AE
330
15
100
AcDbEntity
 67
     1
  8
0
  6
Continuous
100
AcDbBlockReference
  2
GENARR12
 10
211.9216008118574
 20
6.779424321810859
 30
0.0
 41
0.9625460333174999
 42
0.9625460333174999
 43
0.9625460333174999
  0
INSERT
  5
D2AF
330
15
100
AcDbEntity
 67
     1
  8
0
  6
Continuous
100
AcDbBlockReference
  2
*X80
 10
211.9216008118574
 20
6.779424321810859
 30
0.0
 41
0.9625460333174999
 42
0.9625460333174999
 43
0.9625460333174999
  0
INSERT
  5
D2B0
330
15
100
AcDbEntity
 67
     1
  8
0
  6
Continuous
100
AcDbBlockReference
  2
*X81
 10
211.9216008118574
 20
6.779424321810859
 30
0.0
 41
0.9625460333174999
 42
0.9625460333174999
 43
0.9625460333174999
  0
TEXT
  5
D2B1
330
15
100
AcDbEntity
 67
     1
  8
CK_LEVEL_1
  6
Continuous
 62
     6
100
AcDbText
 10
-34.50357355110926
 20
-14.14416647045249
 30
0.0
 40
0.770036826654
  1

 41
0.75
  7
CKSTANDARD
100
AcDbText
  0
INSERT
  5
D362
330
15
100
AcDbEntity
 67
     1
  8
BORDER
100
AcDbBlockReference
 66
     1
  2
A$C45FA2CBB
 10
7.167266500638099
 20
0.2500000014784369
 30
0.0
  0
ATTRIB
  5
D363
330
D362
100
AcDbEntity
 67
     1
  8
BORDER
100
AcDbText
 10
9.769525608680313
 20
1.402207952812925
 30
0.0
 40
0.0778305
  1

  7
STYLE1
 72
     1
 11
9.769525608680313
 21
1.441123202812925
 31
0.0
100
AcDbAttribute
280
     0
  2
NAME
 70
     0
 74
     2
280
     0
  0
ATTRIB
  5
D364
330
D362
100
AcDbEntity
 67
     1
  8
BORDER
100
AcDbText
 10
8.594751414666619
 20
1.21162838616808
 30
0.0
 40
0.0778305
  1

  7
STYLE1
 72
     1
 11
8.594751414666619
 21
1.25054363616808
 31
0.0
100
AcDbAttribute
280
     0
  2
NAME
 70
     0
 74
     2
280
     0
  0
ATTRIB
  5
D365
330
D362
100
AcDbEntity
 67
     1
  8
BORDER
100
AcDbText
 10
10.55228534534419
 20
1.21162838616808
 30
0.0
 40
0.0778305
  1

  7
STYLE1
 72
     1
 11
10.55228534534419
 21
1.25054363616808
 31
0.0
100
AcDbAttribute
280
     0
  2
000000
 70
     0
 74
     2
280
     0
  0
ATTRIB
  5
D366
330
D362
100
AcDbEntity
 67
     1
  8
BORDER
100
AcDbText
 10
7.537518389202391
 20
0.2921102975941348
 30
0.0
 40
0.0778305
  1

  7
STYLE1
 72
     1
 11
7.537518389202391
 21
0.3310255475941348
 31
0.0
100
AcDbAttribute
280
     0
  2
MLK.
 70
     0
 74
     2
280
     0
  0
ATTRIB
  5
D367
330
D362
100
AcDbEntity
 67
     1
  8
BORDER
100
AcDbText
 10
8.155533406272967
 20
0.2921102975941348
 30
0.0
 40
0.0778305
  1

  7
STYLE1
 72
     1
 11
8.155533406272967
 21
0.3310255475941348
 31
0.0
100
AcDbAttribute
280
     0
  2
00/00/00
 70
     0
 74
     2
280
     0
  0
ATTRIB
  5
D368
330
D362
100
AcDbEntity
 67
     1
  8
BORDER
100
AcDbText
 10
8.111015712436902
 20
0.9640110655013952
 30
0.0
 40
0.11
  1
PACA-WAITER SERIES
  7
STYLE1
 72
     1
 11
8.962352683787516
 21
1.019011065501395
 31
0.0
100
AcDbAttribute
280
     0
  2
NAME
 70
     0
 74
     2
280
     0
  0
ATTRIB
  5
D369
330
D362
100
AcDbEntity
 67
     1
  8
BORDER
100
AcDbText
 10
7.762894975738403
 20
0.6591644646287224
 30
0.0
 40
0.11
  1
DC OPENING W/ ROLL-UP GATE
  7
STYLE1
 72
     1
 11
8.962352683787516
 21
0.7141644646287224
 31
0.0
100
AcDbAttribute
280
     0
  2
NAME
 70
     0
 74
     2
280
     0
  0
ATTRIB
  5
D36A
330
D362
100
AcDbEntity
 67
     1
  8
BORDER
100
AcDbText
 10
10.03070666983605
 20
0.310731210483463
 30
0.0
 40
0.1
  1
C-002654
  7
STYLE1
 72
     4
 11
10.33749384582514
 21
0.360731210483463
 31
0.0
100
AcDbAttribute
280
     0
  2
C-003015
 70
     0
280
     0
  0
SEQEND
  5
D36B
330
D362
100
AcDbEntity
 67
     1
  8
BORDER
  0
TEXT
  5
D36C
330
15
100
AcDbEntity
 67
     1
  8
BORDER
100
AcDbText
 10
7.361462506434174
 20
0.8115877650650588
 30
0.0
 40
0.11
  1
200 LB. (90.7 KG) CAPACITY DUMBWAITER
  7
STYLE1
 72
     1
 11
8.962352683787516
 21
0.8665877650650589
 31
0.0
100
AcDbText
 73
     2
  0
LWPOLYLINE
  5
D36D
330
15
100
AcDbEntity
 67
     1
  8
BORDER
100
AcDbPolyline
 90
        3
 70
     0
 43
0.02
 10
10.26821981668195
 20
10.7436285717968
 10
10.26821981668195
 20
10.52621189687821
 10
10.747375
 20
10.52621189687821
  0
TEXT
  5
D36E
330
15
100
AcDbEntity
 67
     1
  8
BORDER
100
AcDbText
 10
10.34483202897187
 20
10.59906294202835
 30
0.0
 40
0.0625
  1
REV. C
  7
ROMANT
100
AcDbText
  0
MTEXT
  5
13B51
330
15
100
AcDbEntity
 67
     1
  8
DIM
  6
Continuous
100
AcDbMText
 10
2.959253721659962
 20
0.5663051316209469
 30
0.0
 40
0.086
 41
3.969240020565884
 46
0.0
 71
     1
 72
     5
  1
\A1;{\fSegoe Script|b1|i0|c0|p34;CAR HEIGHT - 4" [101.6] = CLEAR DOOR HEIGHT OPENING}
  7
ROMANS
 73
     1
 44
1.0
1001
ACAD
1000
ACAD_MTEXT_COLUMN_INFO_BEGIN
1070
    75
1070
     2
1070
    79
1070
     0
1070
    76
1070
     1
1070
    78
1070
     0
1070
    48
1040
3.969240020565884
1070
    49
1040
4.0
1070
    50
1070
     1
1040
0.0
1000
ACAD_MTEXT_COLUMN_INFO_END
  0
MTEXT
  5
13B52
330
15
100
AcDbEntity
 67
     1
  8
DIM
  6
Continuous
100
AcDbMText
 10
2.959253721659962
 20
1.173357620330879
 30
0.0
 40
0.086
 41
3.969240020565884
 46
0.0
 71
     1
 72
     5
  1
\A1;{\fSegoe Script|b1|i0|c0|p34;NOTE: \PALL DIMENSIONS ARE IN INCHES.\PDIMENSIONS IN [ ] ARE MM.}
  7
ROMANS
 73
     1
 44
1.0
1001
ACAD
1000
ACAD_MTEXT_COLUMN_INFO_BEGIN
1070
    75
1070
     2
1070
    79
1070
     0
1070
    76
1070
     1
1070
    78
1070
     0
1070
    48
1040
3.969240020565884
1070
    49
1040
4.0
1070
    50
1070
     1
1040
0.0
1000
ACAD_MTEXT_COLUMN_INFO_END
  0
ENDSEC
  0
SECTION
  2
OBJECTS
  0
DICTIONARY
  5
C
330
0
100
AcDbDictionary
281
     1
  3
ACAD_CIP_PREVIOUS_PRODUCT_INFO
350
11957
  3
ACAD_COLOR
350
11930
  3
ACAD_DETAILVIEWSTYLE
350
1194A
  3
ACAD_GROUP
350
D
  3
ACAD_LAYOUT
350
1194C
  3
ACAD_MATERIAL
350
118FE
  3
ACAD_MLEADERSTYLE
350
11945
  3
ACAD_MLINESTYLE
350
E
  3
ACAD_PLOTSETTINGS
350
1194D
  3
ACAD_PLOTSTYLENAME
350
118FC
  3
ACAD_SCALELIST
350
11933
  3
ACAD_SECTIONVIEWSTYLE
350
11947
  3
ACAD_TABLESTYLE
350
11931
  3
ACAD_VISUALSTYLE
350
11917
  3
ACDB_RECOMPOSE_DATA
350
13BB3
  3
ACDBVARIABLEDICTIONARY
350
47CB
  3
AcDsDecomposeData
350
13BBA
  0
DICTIONARY
  5
1195D
330
2
100
AcDbDictionary
280
     1
281
     1
  3
ACAD_LAYERSTATES
360
1195E
  0
DICTIONARY
  5
11D3A
330
F
100
AcDbDictionary
280
     1
281
     1
  3
ADSK_XREC_LAYER_RECONCILED
360
11D3B
  0
DICTIONARY
  5
11D3C
330
44
100
AcDbDictionary
280
     1
281
     1
  3
ADSK_XREC_LAYER_RECONCILED
360
11D3D
  0
DICTIONARY
  5
11D3E
330
3005
100
AcDbDictionary
280
     1
281
     1
  3
ADSK_XREC_LAYER_RECONCILED
360
11D3F
  0
DICTIONARY
  5
11D40
330
84E3
100
AcDbDictionary
280
     1
281
     1
  3
ADSK_XREC_LAYER_RECONCILED
360
11D41
  0
DICTIONARY
  5
11D42
330
84E4
100
AcDbDictionary
280
     1
281
     1
  3
ADSK_XREC_LAYER_RECONCILED
360
11D43
  0
DICTIONARY
  5
11D44
330
84E5
100
AcDbDictionary
280
     1
281
     1
  3
ADSK_XREC_LAYER_RECONCILED
360
11D45
  0
DICTIONARY
  5
11D46
330
84E6
100
AcDbDictionary
280
     1
281
     1
  3
ADSK_XREC_LAYER_RECONCILED
360
11D47
  0
DICTIONARY
  5
11D48
330
84E7
100
AcDbDictionary
280
     1
281
     1
  3
ADSK_XREC_LAYER_RECONCILED
360
11D49
  0
DICTIONARY
  5
12C67
330
12C66
100
AcDbDictionary
280
     1
281
     1
  0
DICTIONARY
  5
121B0
330
18
100
AcDbDictionary
280
     1
281
     1
  3
ACAD_SORTENTS
360
121B1
  0
DICTIONARY
  5
12E0D
330
15
100
AcDbDictionary
280
     1
281
     1
  3
ACAD_SORTENTS
360
12E0E
  0
XRECORD
  5
11957
102
{ACAD_REACTORS
330
C
102
}
330
C
100
AcDbXrecord
280
     1
300
ACDLT
300
2013
300
ACDLT_F_S
  0
DICTIONARY
  5
11930
102
{ACAD_REACTORS
330
C
102
}
330
C
100
AcDbDictionary
281
     1
  0
DICTIONARY
  5
1194A
102
{ACAD_REACTORS
330
C
102
}
330
C
100
AcDbDictionary
281
     1
  3
Imperial24
350
1194B
  0
DICTIONARY
  5
D
102
{ACAD_REACTORS
330
C
102
}
330
C
100
AcDbDictionary
281
     1
  0
DICTIONARY
  5
1194C
102
{ACAD_REACTORS
330
C
102
}
330
C
100
AcDbDictionary
281
     1
  3
Layout1
350
1194F
  3
Model
350
1194E
  0
DICTIONARY
  5
118FE
102
{ACAD_REACTORS
330
C
102
}
330
C
100
AcDbDictionary
281
     1
  3
ByBlock
350
11907
  3
ByLayer
350
118FF
  3
Global
350
1190F
  0
DICTIONARY
  5
11945
102
{ACAD_REACTORS
330
C
102
}
330
C
100
AcDbDictionary
281
     1
  3
Standard
350
11946
  0
DICTIONARY
  5
E
102
{ACAD_REACTORS
330
C
102
}
330
C
100
AcDbDictionary
281
     1
  3
STANDARD
350
1B
  0
DICTIONARY
  5
1194D
102
{ACAD_REACTORS
330
C
102
}
330
C
100
AcDbDictionary
281
     1
  0
ACDBDICTIONARYWDFLT
  5
118FC
102
{ACAD_REACTORS
330
C
102
}
330
C
100
AcDbDictionary
281
     1
  3
Normal
350
118FD
100
AcDbDictionaryWithDefault
340
118FD
  0
DICTIONARY
  5
11933
102
{ACAD_REACTORS
330
C
102
}
330
C
100
AcDbDictionary
281
     1
  3
A0
350
11934
  3
A1
350
11935
  3
A2
350
11936
  3
A3
350
11937
  3
A4
350
11938
  3
A5
350
11939
  3
A6
350
1193A
  3
A7
350
1193B
  3
A8
350
1193C
  3
A9
350
1193D
  3
B0
350
1193E
  3
B1
350
1193F
  3
B2
350
11940
  3
B3
350
11941
  3
B4
350
11942
  3
B5
350
11943
  3
B6
350
11944
  0
DICTIONARY
  5
11947
102
{ACAD_REACTORS
330
C
102
}
330
C
100
AcDbDictionary
281
     1
  3
Imperial24
350
11949
  0
DICTIONARY
  5
11931
102
{ACAD_REACTORS
330
C
102
}
330
C
100
AcDbDictionary
281
     1
  3
Standard
350
11932
  0
DICTIONARY
  5
11917
102
{ACAD_REACTORS
330
C
102
}
330
C
100
AcDbDictionary
281
     1
  3
2dWireframe
350
1191D
  3
Basic
350
1191C
  3
Brighten
350
11923
  3
ColorChange
350
11927
  3
Conceptual
350
11920
  3
Dim
350
11922
  3
EdgeColorOff
350
1192F
  3
Facepattern
350
11926
  3
Flat
350
11918
  3
FlatWithEdges
350
11919
  3
Gouraud
350
1191A
  3
GouraudWithEdges
350
1191B
  3
Hidden
350
1191F
  3
JitterOff
350
1192D
  3
Linepattern
350
11925
  3
OverhangOff
350
1192E
  3
Realistic
350
11921
  3
Shaded
350
1192C
  3
Shaded with edges
350
1192B
  3
Shades of Gray
350
11928
  3
Sketchy
350
11929
  3
Thicken
350
11924
  3
Wireframe
350
1191E
  3
X-Ray
350
1192A
  0
XRECORD
  5
13BB3
102
{ACAD_REACTORS
330
C
102
}
330
C
100
AcDbXrecord
280
     1
 90
        1
330
11932
330
13B51
330
13B52
  0
DICTIONARY
  5
47CB
102
{ACAD_REACTORS
330
C
102
}
330
C
100
AcDbDictionary
281
     1
  3
CANNOSCALE
350
11D5C
  3
CMLEADERSTYLE
350
11D58
  3
CTABLESTYLE
350
11D57
  3
CVIEWDETAILSTYLE
350
11D59
  3
CVIEWSECTIONSTYLE
350
11D5A
  3
LAYEREVAL
350
11D5E
  3
LAYERNOTIFY
350
11D5F
  3
LIGHTINGUNITS
350
11D5D
  3
MSLTSCALE
350
11D5B
  3
SORTENTS
350
47CC
  0
DICTIONARY
  5
13BBA
102
{ACAD_REACTORS
330
C
102
}
330
C
100
AcDbDictionary
281
     1
  3
AcDsRecords
350
13BBC
  3
AcDsSchemas
350
13BBB
1001
ACAD
1070
     2
  0
DICTIONARY
  5
1195E
102
{ACAD_REACTORS
330
1195D
102
}
330
1195D
100
AcDbDictionary
281
     1
  0
XRECORD
  5
11D3B
102
{ACAD_REACTORS
330
11D3A
102
}
330
11D3A
100
AcDbXrecord
280
     1
290
     1
  0
XRECORD
  5
11D3D
102
{ACAD_REACTORS
330
11D3C
102
}
330
11D3C
100
AcDbXrecord
280
     1
290
     1
  0
XRECORD
  5
11D3F
102
{ACAD_REACTORS
330
11D3E
102
}
330
11D3E
100
AcDbXrecord
280
     1
290
     1
  0
XRECORD
  5
11D41
102
{ACAD_REACTORS
330
11D40
102
}
330
11D40
100
AcDbXrecord
280
     1
290
     1
  0
XRECORD
  5
11D43
102
{ACAD_REACTORS
330
11D42
102
}
330
11D42
100
AcDbXrecord
280
     1
290
     1
  0
XRECORD
  5
11D45
102
{ACAD_REACTORS
330
11D44
102
}
330
11D44
100
AcDbXrecord
280
     1
290
     1
  0
XRECORD
  5
11D47
102
{ACAD_REACTORS
330
11D46
102
}
330
11D46
100
AcDbXrecord
280
     1
290
     1
  0
XRECORD
  5
11D49
102
{ACAD_REACTORS
330
11D48
102
}
330
11D48
100
AcDbXrecord
280
     1
290
     1
  0
SORTENTSTABLE
  5
121B1
102
{ACAD_REACTORS
330
121B0
102
}
330
121B0
100
AcDbSortentsTable
330
18
331
12E65
  5
1312F
331
12E61
  5
1310D
331
12E5D
  5
12E6A
331
134A4
  5
134A9
331
12E59
  5
12E66
331
134A0
  5
134A5
331
138B8
  5
13935
331
BE64
  5
12273
331
BE60
  5
F633
331
A66C
  5
BE4B
331
1221E
  5
1261A
331
12E55
  5
12E62
331
1349C
  5
134A1
331
12E51
  5
12E5E
331
13498
  5
1349D
331
12E4D
  5
12E5A
331
13494
  5
13499
331
F22
  5
F22
331
43B1
  5
43B1
331
12E49
  5
12E56
331
13860
  5
138E6
331
13834
  5
138E5
331
BE5C
  5
F62F
331
BE58
  5
F62B
331
BE54
  5
F627
331
BE50
  5
F623
331
A6DB
  5
F612
331
A664
  5
B9C5
331
A6D7
  5
C322
331
A660
  5
A6DE
331
12216
  5
125C8
331
12212
  5
12402
331
1220E
  5
A661
331
12E45
  5
12E52
331
12277
  5
12A62
331
12273
  5
12A0D
331
BE4C
  5
F61F
331
86B2
  5
A6B9
331
A6BB
  5
BE63
331
A614
  5
A6D9
331
A6B7
  5
BE5F
331
A610
  5
A6BD
331
A6B3
  5
BE5B
331
12206
  5
A613
331
B9C6
  5
F61A
331
121BA
  5
122F8
331
1310C
  5
13495
331
1222B
  5
127B2
331
12227
  5
12714
331
12E6C
  5
13494
331
12223
  5
12712
331
12E68
  5
13132
331
134B0
  5
13749
331
134AC
  5
134B1
331
86AE
  5
A669
331
7557
  5
8618
331
134A8
  5
134AE
331
7537
  5
8614
331
A6AF
  5
BE57
331
A6AB
  5
BE53
331
121B2
  5
12279
331
121AE
  5
12277
331
12E64
  5
1312E
331
12E60
  5
1310C
331
134A7
  5
134AD
331
134A3
  5
134A8
331
2AF
  5
2AF
331
12E5C
  5
12E69
331
12E58
  5
12E65
331
13997
  5
12E4E
331
BE63
  5
F636
331
A677
  5
BE4F
331
A673
  5
BE4E
331
A66B
  5
BE4A
331
1349F
  5
134A4
331
12E54
  5
12E61
331
1349B
  5
134A0
331
13497
  5
1349C
331
12E50
  5
12E5D
331
13493
  5
13498
331
F21
  5
F21
331
5FB3
  5
5FB3
331
43B0
  5
43B0
331
12E4C
  5
12E59
331
12E48
  5
12E55
331
BE5F
  5
F632
331
BE5B
  5
F62E
331
BE57
  5
F62A
331
BE53
  5
F626
331
A6DE
  5
F615
331
A6DA
  5
F611
331
A663
  5
B9C4
331
A65F
  5
A6DD
331
12215
  5
125C7
331
12211
  5
12401
331
12209
  5
A065
331
1227A
  5
12C9A
331
12E44
  5
12E51
331
12276
  5
12A61
331
12272
  5
127B6
331
BE4F
  5
F622
331
BE4B
  5
F61E
331
783A
  5
861A
331
A6BE
  5
BE66
331
86B1
  5
A66C
331
A6BA
  5
BE62
331
A613
  5
A6D8
331
A6B6
  5
BE5E
331
A60F
  5
A6BC
331
A6B2
  5
BE5A
331
12205
  5
A611
331
B9C5
  5
F619
331
1222A
  5
127B1
331
528F
  5
528F
331
12226
  5
12713
331
12222
  5
1270D
331
12E6B
  5
13493
331
12CB0
  5
12E4F
331
134AF
  5
1358A
331
134AB
  5
134B0
331
86AD
  5
A665
331
7556
  5
8617
331
7552
  5
8616
331
C322
  5
12276
331
A6AE
  5
BE56
331
A67A
  5
BE52
331
12E67
  5
13131
331
12E63
  5
1312D
331
134A6
  5
134AC
331
12E5F
  5
12E6C
331
134A2
  5
134A7
331
675A
  5
675A
331
12E5B
  5
12E68
331
752D
  5
860E
331
5FC2
  5
5FC2
331
BE66
  5
12275
331
BE62
  5
F635
331
A672
  5
BE4D
331
A66A
  5
B9C8
331
1349E
  5
134A3
331
12E57
  5
12E64
331
1349A
  5
1349F
331
12E53
  5
12E60
331
122AD
  5
12E43
331
13496
  5
1349B
331
12E4F
  5
12E5C
331
12E4B
  5
12E58
331
F18
  5
F18
331
BE5E
  5
F631
331
BE5A
  5
F62D
331
BE56
  5
F629
331
A6DD
  5
F614
331
BE52
  5
F625
331
A6D9
  5
F610
331
A662
  5
B9C3
331
A65E
  5
A6DC
331
12214
  5
12404
331
1220C
  5
A662
331
12208
  5
8FB2
331
12E47
  5
12E54
331
12279
  5
12C99
331
12E43
  5
12E50
331
1335E
  5
13497
331
12275
  5
12A60
331
529E
  5
529E
331
1358A
  5
8FB4
331
BE4E
  5
F621
331
BE4A
  5
F61D
331
A6BD
  5
BE65
331
A6B9
  5
BE61
331
A612
  5
A6D7
331
86B0
  5
A66B
331
A6B5
  5
BE5D
331
B9C8
  5
F61C
331
A60E
  5
A6BB
331
B9C4
  5
F618
331
A6B1
  5
BE59
331
12204
  5
8FB0
331
B9C0
  5
F616
331
121BC
  5
123AF
331
12229
  5
127AD
331
12221
  5
1270C
331
12E6A
  5
1335E
331
6769
  5
6769
331
134B2
  5
13860
331
134AE
  5
13589
331
7551
  5
8615
331
A6AD
  5
BE55
331
A679
  5
BE51
331
121B4
  5
1227A
331
12E66
  5
13130
331
12E62
  5
1312C
331
12E5E
  5
12E6B
331
134A5
  5
134AB
331
122F8
  5
12E4D
331
12E5A
  5
12E67
331
134A1
  5
134A6
331
1243
  5
1243
331
5FC1
  5
5FC1
331
BE65
  5
12274
331
BE61
  5
F634
331
A66D
  5
BE4C
331
A669
  5
B9C7
331
1221F
  5
1261B
331
12E56
  5
12E63
331
1349D
  5
134A2
331
12E52
  5
12E5F
331
13499
  5
1349E
331
12E4E
  5
12E5B
331
13495
  5
1349A
331
259
  5
259
331
F23
  5
F23
331
12E4A
  5
12E57
331
43A2
  5
43A2
331
F1B
  5
F1B
331
BE5D
  5
F630
331
BE59
  5
F62C
331
BE55
  5
F628
331
BE51
  5
F624
331
A6DC
  5
F613
331
A665
  5
B9C6
331
A6D8
  5
F60F
331
A661
  5
B9C0
331
A65D
  5
A6DB
331
12213
  5
12403
331
1220F
  5
A660
331
12E46
  5
12E53
331
12278
  5
12A63
331
12274
  5
12A0E
331
529D
  5
529D
331
13749
  5
138B8
331
BE4D
  5
F620
331
13589
  5
A2A0
331
86B3
  5
A6BA
331
A6BC
  5
BE64
331
A615
  5
A6DA
331
7558
  5
8619
331
A6B8
  5
BE60
331
A611
  5
A6BE
331
A6B4
  5
BE5C
331
12207
  5
A02D
331
B9C7
  5
F61B
331
A6B0
  5
BE58
331
B9C3
  5
F617
331
121BB
  5
123AE
331
1310D
  5
13496
331
12228
  5
127AC
331
12E69
  5
13133
331
12220
  5
1261C
331
6768
  5
6768
331
134B1
  5
13834
331
134AD
  5
134B2
331
86AF
  5
A66A
331
134A9
  5
134AF
331
A6AC
  5
BE54
331
121B7
  5
122AD
331
A678
  5
BE50
331
121AF
  5
12278
  0
SORTENTSTABLE
  5
12E0E
102
{ACAD_REACTORS
330
12E0D
102
}
330
12E0D
100
AcDbSortentsTable
330
15
331
D281
  5
D281
331
D284
  5
D284
331
D28A
  5
D28A
331
D287
  5
D287
331
D28D
  5
D28D
331
D290
  5
D290
331
D2A4
  5
D2A4
331
D2A7
  5
D2A7
331
D2AA
  5
D2AA
331
D2B0
  5
D2B0
331
D36D
  5
D36D
331
D2AD
  5
D2AD
331
D283
  5
D283
331
D289
  5
D289
331
D286
  5
D286
331
D28C
  5
D28C
331
D28F
  5
D28F
331
D2A6
  5
D2A6
331
D2A9
  5
D2A9
331
D36C
  5
D36C
331
D2AC
  5
D2AC
331
D1CD
  5
D1CD
331
D2AF
  5
D2AF
331
D282
  5
D282
331
D288
  5
D288
331
D285
  5
D285
331
D28B
  5
D28B
331
D28E
  5
D28E
331
D362
  5
D362
331
D2A5
  5
D2A5
331
D2A8
  5
D2A8
331
D2AB
  5
D2AB
331
D2B1
  5
D2B1
331
6CA3
  5
6CA3
331
D2AE
  5
D2AE
331
D36E
  5
D36E
  0
ACDBDETAILVIEWSTYLE
  5
1194B
102
{ACAD_REACTORS
330
1194A
102
}
330
1194A
100
AcDbModelDocViewStyle
 70
     0
  3
Imperial24
290
     0
100
AcDbDetailViewStyle
 70
     0
 71
     0
 90
        3
 71
     1
340
10
 62
   256
 40
0.24
340
0
 62
   256
 40
0.24
300

 40
0.36
280
     3
 71
     2
340
14
 90
       25
 62
   256
 71
     3
340
10
 62
   256
 40
0.24
 90
        1
 40
0.75
 90
        1
300
%<\AcVar ViewType \f "%tc1">% %<\AcVar ViewDetailId>%\PSCALE %<\AcVar ViewScale \f "%sn">%
 71
     4
340
14
 90
       25
 62
   256
340
14
 90
       25
 62
   256
280
     0
  0
LAYOUT
  5
1194F
102
{ACAD_REACTORS
330
1194C
102
}
330
1194C
100
AcDbPlotSettings
  1

  2
HP LaserJet 5200 Series PCL 5
  4
Letter
  6

 40
7.143749713897705
 41
5.027099609375
 42
7.14373779296875
 43
5.027069091796875
 44
215.8999938964844
 45
279.3999938964844
 46
0.0
 47
0.0
 48
0.0
 49
0.0
140
0.0
141
0.0
142
1.0
143
1.011582816144205
 70
   688
 72
     0
 73
     0
 74
     1
  7
monochrome.ctb
 75
     0
147
0.9885498093093804
 76
     0
 77
     2
 78
   300
148
-69.45014599935149
149
-5.938767802650037
100
AcDbLayout
  1
Layout1
 70
     0
 71
     1
 10
2.449750060863681
 20
0.0336000087701197
 11
11.04820375501023
 21
11.16101074327718
 12
0.0
 22
0.0
 32
0.0
 14
2.734195998098655
 24
0.2336136128719488
 34
-0.0000000000112498
 15
10.76310184785825
 25
10.76403984743893
 35
0.0000000000002956
146
0.0
 13
0.0
 23
0.0
 33
0.0
 16
1.0
 26
0.0
 36
0.0
 17
0.0
 27
1.0
 37
0.0
 76
     0
330
15
331
6CA3
1001
ACAD_PSEXT
1000
HP LaserJet 5200 Series PCL 5
1000
HP LaserJet 5200 Series PCL 5
1000
DOT4_001
1000

1070
     0
  0
LAYOUT
  5
1194E
102
{ACAD_REACTORS
330
1194C
102
}
330
1194C
100
AcDbPlotSettings
  1

  2
HP LaserJet 5200 Series PCL 5
  4

  6

 40
0.0
 41
0.0
 42
0.0
 43
0.0
 44
0.0
 45
0.0
 46
0.0
 47
0.0
 48
0.0
 49
0.0
140
0.0
141
0.0
142
1.0
143
1.0
 70
  1712
 72
     0
 73
     0
 74
     0
  7
monochrome.ctb
 75
     0
147
1.0
 76
     0
 77
     2
 78
   300
148
0.0
149
0.0
100
AcDbLayout
  1
Model
 70
     1
 71
     0
 10
0.0
 20
0.0
 11
12.0
 21
9.0
 12
0.0
 22
0.0
 32
0.0
 14
0.0
 24
0.0
 34
0.0
 15
0.0
 25
0.0
 35
0.0
146
0.0
 13
0.0
 23
0.0
 33
0.0
 16
1.0
 26
0.0
 36
0.0
 17
0.0
 27
1.0
 37
0.0
 76
     0
330
18
331
118F3
  0
MATERIAL
  5
11907
102
{ACAD_XDICTIONARY
360
11908
102
}
102
{ACAD_REACTORS
330
118FE
102
}
330
118FE
100
AcDbMaterial
  1
ByBlock
 72
     0
 43
0.0208333333333333
 43
0.0
 43
0.0
 43
0.0
 43
0.0
 43
0.0208333333333333
 43
0.0
 43
0.0
 43
0.0
 43
0.0
 43
1.0
 43
0.0
 43
0.0
 43
0.0
 43
0.0
 43
1.0
 77
     0
 47
0.0208333333333333
 47
0.0
 47
0.0
 47
0.0
 47
0.0
 47
0.0208333333333333
 47
0.0
 47
0.0
 47
0.0
 47
0.0
 47
1.0
 47
0.0
 47
0.0
 47
0.0
 47
0.0
 47
1.0
171
     0
 49
0.0208333333333333
 49
0.0
 49
0.0
 49
0.0
 49
0.0
 49
0.0208333333333333
 49
0.0
 49
0.0
 49
0.0
 49
0.0
 49
1.0
 49
0.0
 49
0.0
 49
0.0
 49
0.0
 49
1.0
175
     0
142
0.0208333333333333
142
0.0
142
0.0
142
0.0
142
0.0
142
0.0208333333333333
142
0.0
142
0.0
142
0.0
142
0.0
142
1.0
142
0.0
142
0.0
142
0.0
142
0.0
142
1.0
179
     0
144
0.0208333333333333
144
0.0
144
0.0
144
0.0
144
0.0
144
0.0208333333333333
144
0.0
144
0.0
144
0.0
144
0.0
144
1.0
144
0.0
144
0.0
144
0.0
144
0.0
144
1.0
147
0.0208333333333333
147
0.0
147
0.0
147
0.0
147
0.0
147
0.0208333333333333
147
0.0
147
0.0
147
0.0
147
0.0
147
1.0
147
0.0
147
0.0
147
0.0
147
0.0
147
1.0
  0
MATERIAL
  5
118FF
102
{ACAD_XDICTIONARY
360
11900
102
}
102
{ACAD_REACTORS
330
118FE
102
}
330
118FE
100
AcDbMaterial
  1
ByLayer
 72
     0
 43
0.0208333333333333
 43
0.0
 43
0.0
 43
0.0
 43
0.0
 43
0.0208333333333333
 43
0.0
 43
0.0
 43
0.0
 43
0.0
 43
1.0
 43
0.0
 43
0.0
 43
0.0
 43
0.0
 43
1.0
 77
     0
 47
0.0208333333333333
 47
0.0
 47
0.0
 47
0.0
 47
0.0
 47
0.0208333333333333
 47
0.0
 47
0.0
 47
0.0
 47
0.0
 47
1.0
 47
0.0
 47
0.0
 47
0.0
 47
0.0
 47
1.0
171
     0
 49
0.0208333333333333
 49
0.0
 49
0.0
 49
0.0
 49
0.0
 49
0.0208333333333333
 49
0.0
 49
0.0
 49
0.0
 49
0.0
 49
1.0
 49
0.0
 49
0.0
 49
0.0
 49
0.0
 49
1.0
175
     0
142
0.0208333333333333
142
0.0
142
0.0
142
0.0
142
0.0
142
0.0208333333333333
142
0.0
142
0.0
142
0.0
142
0.0
142
1.0
142
0.0
142
0.0
142
0.0
142
0.0
142
1.0
179
     0
144
0.0208333333333333
144
0.0
144
0.0
144
0.0
144
0.0
144
0.0208333333333333
144
0.0
144
0.0
144
0.0
144
0.0
144
1.0
144
0.0
144
0.0
144
0.0
144
0.0
144
1.0
147
0.0208333333333333
147
0.0
147
0.0
147
0.0
147
0.0
147
0.0208333333333333
147
0.0
147
0.0
147
0.0
147
0.0
147
1.0
147
0.0
147
0.0
147
0.0
147
0.0
147
1.0
  0
MATERIAL
  5
1190F
102
{ACAD_XDICTIONARY
360
11910
102
}
102
{ACAD_REACTORS
330
118FE
102
}
330
118FE
100
AcDbMaterial
  1
Global
 72
     0
 43
0.0208333333333333
 43
0.0
 43
0.0
 43
0.0
 43
0.0
 43
0.0208333333333333
 43
0.0
 43
0.0
 43
0.0
 43
0.0
 43
1.0
 43
0.0
 43
0.0
 43
0.0
 43
0.0
 43
1.0
 77
     0
 47
0.0208333333333333
 47
0.0
 47
0.0
 47
0.0
 47
0.0
 47
0.0208333333333333
 47
0.0
 47
0.0
 47
0.0
 47
0.0
 47
1.0
 47
0.0
 47
0.0
 47
0.0
 47
0.0
 47
1.0
171
     0
 49
0.0208333333333333
 49
0.0
 49
0.0
 49
0.0
 49
0.0
 49
0.0208333333333333
 49
0.0
 49
0.0
 49
0.0
 49
0.0
 49
1.0
 49
0.0
 49
0.0
 49
0.0
 49
0.0
 49
1.0
175
     0
142
0.0208333333333333
142
0.0
142
0.0
142
0.0
142
0.0
142
0.0208333333333333
142
0.0
142
0.0
142
0.0
142
0.0
142
1.0
142
0.0
142
0.0
142
0.0
142
0.0
142
1.0
179
     0
144
0.0208333333333333
144
0.0
144
0.0
144
0.0
144
0.0
144
0.0208333333333333
144
0.0
144
0.0
144
0.0
144
0.0
144
1.0
144
0.0
144
0.0
144
0.0
144
0.0
144
1.0
147
0.0208333333333333
147
0.0
147
0.0
147
0.0
147
0.0
147
0.0208333333333333
147
0.0
147
0.0
147
0.0
147
0.0
147
1.0
147
0.0
147
0.0
147
0.0
147
0.0
147
1.0
  0
MLEADERSTYLE
  5
11946
102
{ACAD_XDICTIONARY
360
13BED
102
}
102
{ACAD_REACTORS
330
11945
102
}
330
11945
100
AcDbMLeaderStyle
179
     2
170
     2
171
     1
172
     0
 90
        2
 40
0.0
 41
0.0
173
     1
 91
-1056964608
340
12
 92
       -2
290
     1
 42
0.09
291
     1
 43
0.36
  3
Standard
 44
0.18
300

342
10
174
     1
178
     6
175
     1
176
     0
 93
-1056964608
 45
0.18
292
     0
297
     0
 46
0.18
 94
-1056964608
 47
1.0
 49
1.0
140
1.0
293
     1
141
0.0
294
     1
177
     0
142
1.0
295
     0
296
     0
143
0.125
271
     0
272
     9
273
     9
  0
MLINESTYLE
  5
1B
102
{ACAD_REACTORS
330
E
102
}
330
E
100
AcDbMlineStyle
  2
STANDARD
 70
     0
  3

 62
     0
 51
90.0
 52
90.0
 71
     2
 49
0.5
 62
   256
  6
BYLAYER
 49
-0.5
 62
   256
  6
BYLAYER
  0
ACDBPLACEHOLDER
  5
118FD
102
{ACAD_REACTORS
330
118FC
102
}
330
118FC
  0
SCALE
  5
11934
102
{ACAD_REACTORS
330
11933
102
}
330
11933
100
AcDbScale
 70
     0
300
1:1
140
1.0
141
1.0
290
     1
  0
SCALE
  5
11935
102
{ACAD_REACTORS
330
11933
102
}
330
11933
100
AcDbScale
 70
     0
300
1/128" = 1'-0"
140
0.0078125
141
12.0
290
     0
  0
SCALE
  5
11936
102
{ACAD_REACTORS
330
11933
102
}
330
11933
100
AcDbScale
 70
     0
300
1/64" = 1'-0"
140
0.015625
141
12.0
290
     0
  0
SCALE
  5
11937
102
{ACAD_REACTORS
330
11933
102
}
330
11933
100
AcDbScale
 70
     0
300
1/32" = 1'-0"
140
0.03125
141
12.0
290
     0
  0
SCALE
  5
11938
102
{ACAD_REACTORS
330
11933
102
}
330
11933
100
AcDbScale
 70
     0
300
1/16" = 1'-0"
140
0.0625
141
12.0
290
     0
  0
SCALE
  5
11939
102
{ACAD_REACTORS
330
11933
102
}
330
11933
100
AcDbScale
 70
     0
300
3/32" = 1'-0"
140
0.09375
141
12.0
290
     0
  0
SCALE
  5
1193A
102
{ACAD_REACTORS
330
11933
102
}
330
11933
100
AcDbScale
 70
     0
300
1/8" = 1'-0"
140
0.125
141
12.0
290
     0
  0
SCALE
  5
1193B
102
{ACAD_REACTORS
330
11933
102
}
330
11933
100
AcDbScale
 70
     0
300
3/16" = 1'-0"
140
0.1875
141
12.0
290
     0
  0
SCALE
  5
1193C
102
{ACAD_REACTORS
330
11933
102
}
330
11933
100
AcDbScale
 70
     0
300
1/4" = 1'-0"
140
0.25
141
12.0
290
     0
  0
SCALE
  5
1193D
102
{ACAD_REACTORS
330
11933
102
}
330
11933
100
AcDbScale
 70
     0
300
3/8" = 1'-0"
140
0.375
141
12.0
290
     0
  0
SCALE
  5
1193E
102
{ACAD_REACTORS
330
11933
102
}
330
11933
100
AcDbScale
 70
     0
300
1/2" = 1'-0"
140
0.5
141
12.0
290
     0
  0
SCALE
  5
1193F
102
{ACAD_REACTORS
330
11933
102
}
330
11933
100
AcDbScale
 70
     0
300
3/4" = 1'-0"
140
0.75
141
12.0
290
     0
  0
SCALE
  5
11940
102
{ACAD_REACTORS
330
11933
102
}
330
11933
100
AcDbScale
 70
     0
300
1" = 1'-0"
140
1.0
141
12.0
290
     0
  0
SCALE
  5
11941
102
{ACAD_REACTORS
330
11933
102
}
330
11933
100
AcDbScale
 70
     0
300
1-1/2" = 1'-0"
140
1.5
141
12.0
290
     0
  0
SCALE
  5
11942
102
{ACAD_REACTORS
330
11933
102
}
330
11933
100
AcDbScale
 70
     0
300
3" = 1'-0"
140
3.0
141
12.0
290
     0
  0
SCALE
  5
11943
102
{ACAD_REACTORS
330
11933
102
}
330
11933
100
AcDbScale
 70
     0
300
6" = 1'-0"
140
6.0
141
12.0
290
     0
  0
SCALE
  5
11944
102
{ACAD_REACTORS
330
11933
102
}
330
11933
100
AcDbScale
 70
     0
300
1'-0" = 1'-0"
140
12.0
141
12.0
290
     0
  0
ACDBSECTIONVIEWSTYLE
  5
11949
102
{ACAD_REACTORS
330
11947
102
}
330
11947
100
AcDbModelDocViewStyle
 70
     0
  3
Imperial24
290
     0
100
AcDbSectionViewStyle
 70
     0
 71
     0
 90
       78
 71
     1
340
10
 62
   256
 40
0.24
340
0
340
0
 62
   256
 40
0.24
300
I, O, Q, S, X, Z
 40
0.48
 90
        3
 40
0.18
 90
        1
 71
     2
340
11948
 90
       25
 62
   256
340
14
 90
       50
 62
   256
 40
0.24
 40
0.0
 40
0.24
 71
     3
340
10
 62
   256
 40
0.24
 90
        1
 40
0.75
 90
        1
300
%<\AcVar ViewType \f "%tc1">% %<\AcVar ViewSectionStartId>%-%<\AcVar ViewSectionEndId>%\PSCALE %<\AcVar ViewScale \f "%sn">%
 71
     4
 62
   256
 62
   257
300
ANSI31
 40
1.0
 90
        0
290
     0
290
     0
 90
        6
 40
0.0
 40
1.570796326794896
 40
0.2617993877991494
 40
1.308996938995747
 40
-0.2617993877991494
 40
1.832595714594046
  0
TABLESTYLE
  5
11932
102
{ACAD_XDICTIONARY
360
13BB1
102
}
102
{ACAD_REACTORS
330
11931
102
}
330
11931
100
AcDbTableStyle
280
     0
  3
Standard
 70
     0
 71
     0
 40
0.06
 41
0.06
280
     0
281
     0
  7
STANDARD
140
0.18
170
     2
 62
     0
 63
     7
283
     0
 90
      512
 91
        0
  1

274
    -2
284
     1
 64
     0
275
    -2
285
     1
 65
     0
276
    -2
286
     1
 66
     0
277
    -2
287
     1
 67
     0
278
    -2
288
     1
 68
     0
279
    -2
289
     1
 69
     0
  7
STANDARD
140
0.25
170
     5
 62
     0
 63
     7
283
     0
 90
      512
 91
        0
  1

274
    -2
284
     1
 64
     0
275
    -2
285
     1
 65
     0
276
    -2
286
     1
 66
     0
277
    -2
287
     1
 67
     0
278
    -2
288
     1
 68
     0
279
    -2
289
     1
 69
     0
  7
STANDARD
140
0.18
170
     5
 62
     0
 63
     7
283
     0
 90
      512
 91
        0
  1

274
    -2
284
     1
 64
     0
275
    -2
285
     1
 65
     0
276
    -2
286
     1
 66
     0
277
    -2
287
     1
 67
     0
278
    -2
288
     1
 68
     0
279
    -2
289
     1
 69
     0
  0
VISUALSTYLE
  5
1191D
102
{ACAD_XDICTIONARY
360
13BC7
102
}
102
{ACAD_REACTORS
330
11917
102
}
330
11917
100
AcDbVisualStyle
  2
2dWireframe
 70
     4
177
     2
291
     0
 71
     0
176
     1
 72
     2
176
     1
 73
     0
176
     1
 90
        0
176
     1
 40
0.6
176
     1
 41
30.0
176
     1
 63
     7
421
 16777215
176
     1
 74
     1
176
     1
 91
        4
176
     1
 64
     7
176
     1
 65
   257
176
     1
 75
     1
176
     1
175
     1
176
     1
 42
1.0
176
     1
 92
        0
176
     1
 66
   257
176
     1
 43
1.0
176
     1
 76
     1
176
     1
 77
     6
176
     1
 78
     2
176
     1
 67
     7
176
     1
 79
     5
176
     1
170
     0
176
     1
171
     0
176
     1
290
     0
176
     1
 93
        1
176
     1
 44
0.0
176
     1
173
     0
176
     1
1001
ACAD
1000
AcDbSavedByObjectVersion
1070
     0
  0
VISUALSTYLE
  5
1191C
102
{ACAD_XDICTIONARY
360
13BC5
102
}
102
{ACAD_REACTORS
330
11917
102
}
330
11917
100
AcDbVisualStyle
  2
Basic
 70
     7
177
     2
291
     1
 71
     1
176
     1
 72
     0
176
     1
 73
     1
176
     1
 90
        0
176
     1
 40
0.6
176
     1
 41
30.0
176
     1
 63
     7
421
 16777215
176
     1
 74
     0
176
     1
 91
        4
176
     1
 64
     7
176
     1
 65
   257
176
     1
 75
     1
176
     1
175
     1
176
     1
 42
1.0
176
     1
 92
        8
176
     1
 66
     7
176
     1
 43
1.0
176
     1
 76
     1
176
     1
 77
     6
176
     1
 78
     2
176
     1
 67
     7
176
     1
 79
     5
176
     1
170
     0
176
     1
171
     0
176
     1
290
     0
176
     1
 93
        1
176
     1
 44
0.0
176
     1
173
     0
176
     1
1001
ACAD
1000
AcDbSavedByObjectVersion
1070
     0
  0
VISUALSTYLE
  5
11923
102
{ACAD_XDICTIONARY
360
13BD3
102
}
102
{ACAD_REACTORS
330
11917
102
}
330
11917
100
AcDbVisualStyle
  2
Brighten
 70
    12
177
     2
291
     1
 71
     2
176
     1
 72
     2
176
     1
 73
     0
176
     1
 90
        0
176
     1
 40
0.6
176
     1
 41
30.0
176
     1
 63
     7
421
 16777215
176
     1
 74
     1
176
     1
 91
        4
176
     1
 64
     7
176
     1
 65
   257
176
     1
 75
     1
176
     1
175
     1
176
     1
 42
1.0
176
     1
 92
        8
176
     1
 66
     7
176
     1
 43
1.0
176
     1
 76
     1
176
     1
 77
     6
176
     1
 78
     2
176
     1
 67
     7
176
     1
 79
     5
176
     1
170
     0
176
     1
171
     0
176
     1
290
     0
176
     1
 93
        1
176
     1
 44
50.0
176
     1
173
     0
176
     1
1001
ACAD
1000
AcDbSavedByObjectVersion
1070
     0
  0
VISUALSTYLE
  5
11927
102
{ACAD_XDICTIONARY
360
13BDB
102
}
102
{ACAD_REACTORS
330
11917
102
}
330
11917
100
AcDbVisualStyle
  2
ColorChange
 70
    16
177
     2
291
     1
 71
     2
176
     1
 72
     2
176
     1
 73
     3
176
     1
 90
        0
176
     1
 40
0.6
176
     1
 41
30.0
176
     1
 63
     8
421
  8421504
176
     1
 74
     1
176
     1
 91
        4
176
     1
 64
     7
176
     1
 65
   257
176
     1
 75
     1
176
     1
175
     1
176
     1
 42
1.0
176
     1
 92
        8
176
     1
 66
     8
424
  8421504
176
     1
 43
1.0
176
     1
 76
     1
176
     1
 77
     6
176
     1
 78
     2
176
     1
 67
     7
176
     1
 79
     5
176
     1
170
     0
176
     1
171
     0
176
     1
290
     0
176
     1
 93
        1
176
     1
 44
0.0
176
     1
173
     0
176
     1
1001
ACAD
1000
AcDbSavedByObjectVersion
1070
     0
  0
VISUALSTYLE
  5
11920
102
{ACAD_XDICTIONARY
360
13BCD
102
}
102
{ACAD_REACTORS
330
11917
102
}
330
11917
100
AcDbVisualStyle
  2
Conceptual
 70
     9
177
     2
291
     0
 71
     3
176
     1
 72
     2
176
     1
 73
     0
176
     1
 90
        0
176
     1
 40
0.6
176
     1
 41
30.0
176
     1
 63
     7
421
 16777215
176
     1
 74
     2
176
     1
 91
        2
176
     1
 64
     7
176
     1
 65
   257
176
     1
 75
     1
176
     1
175
     1
176
     1
 42
179.0
176
     1
 92
        8
176
     1
 66
     7
176
     1
 43
1.0
176
     1
 76
     1
176
     1
 77
     6
176
     1
 78
     2
176
     1
 67
     7
176
     1
 79
     3
176
     1
170
     0
176
     1
171
     0
176
     1
290
     0
176
     1
 93
        1
176
     1
 44
0.0
176
     1
173
     0
176
     1
1001
ACAD
1000
AcDbSavedByObjectVersion
1070
     0
  0
VISUALSTYLE
  5
11922
102
{ACAD_XDICTIONARY
360
13BD1
102
}
102
{ACAD_REACTORS
330
11917
102
}
330
11917
100
AcDbVisualStyle
  2
Dim
 70
    11
177
     2
291
     1
 71
     2
176
     1
 72
     2
176
     1
 73
     0
176
     1
 90
        0
176
     1
 40
0.6
176
     1
 41
30.0
176
     1
 63
     7
421
 16777215
176
     1
 74
     1
176
     1
 91
        4
176
     1
 64
     7
176
     1
 65
   257
176
     1
 75
     1
176
     1
175
     1
176
     1
 42
1.0
176
     1
 92
        8
176
     1
 66
     7
176
     1
 43
1.0
176
     1
 76
     1
176
     1
 77
     6
176
     1
 78
     2
176
     1
 67
     7
176
     1
 79
     5
176
     1
170
     0
176
     1
171
     0
176
     1
290
     0
176
     1
 93
        1
176
     1
 44
-50.0
176
     1
173
     0
176
     1
1001
ACAD
1000
AcDbSavedByObjectVersion
1070
     0
  0
VISUALSTYLE
  5
1192F
102
{ACAD_XDICTIONARY
360
13BEB
102
}
102
{ACAD_REACTORS
330
11917
102
}
330
11917
100
AcDbVisualStyle
  2
EdgeColorOff
 70
    22
177
     2
291
     1
 71
     2
176
     0
 72
     2
176
     0
 73
     0
176
     0
 90
        0
176
     0
 40
0.6
176
     0
 41
30.0
176
     0
 63
     7
421
 16777215
176
     0
 74
     1
176
     0
 91
        4
176
     0
 64
     7
176
     0
 65
   257
176
     0
 75
     1
176
     0
175
     1
176
     0
 42
1.0
176
     0
 92
        8
176
     2
 66
     7
176
     0
 43
1.0
176
     0
 76
     1
176
     0
 77
     6
176
     0
 78
     2
176
     0
 67
     7
176
     0
 79
     5
176
     0
170
     0
176
     0
171
     0
176
     0
290
     0
176
     0
 93
        1
176
     0
 44
0.0
176
     0
173
     0
176
     0
1001
ACAD
1000
AcDbSavedByObjectVersion
1070
     0
  0
VISUALSTYLE
  5
11926
102
{ACAD_XDICTIONARY
360
13BD9
102
}
102
{ACAD_REACTORS
330
11917
102
}
330
11917
100
AcDbVisualStyle
  2
Facepattern
 70
    15
177
     2
291
     1
 71
     2
176
     1
 72
     2
176
     1
 73
     0
176
     1
 90
        0
176
     1
 40
0.6
176
     1
 41
30.0
176
     1
 63
     7
421
 16777215
176
     1
 74
     1
176
     1
 91
        4
176
     1
 64
     7
176
     1
 65
   257
176
     1
 75
     1
176
     1
175
     1
176
     1
 42
1.0
176
     1
 92
        8
176
     1
 66
     7
176
     1
 43
1.0
176
     1
 76
     1
176
     1
 77
     6
176
     1
 78
     2
176
     1
 67
     7
176
     1
 79
     5
176
     1
170
     0
176
     1
171
     0
176
     1
290
     0
176
     1
 93
        1
176
     1
 44
0.0
176
     1
173
     0
176
     1
1001
ACAD
1000
AcDbSavedByObjectVersion
1070
     0
  0
VISUALSTYLE
  5
11918
102
{ACAD_XDICTIONARY
360
13BBD
102
}
102
{ACAD_REACTORS
330
11917
102
}
330
11917
100
AcDbVisualStyle
  2
Flat
 70
     0
177
     2
291
     1
 71
     2
176
     1
 72
     1
176
     1
 73
     1
176
     1
 90
        2
176
     1
 40
0.6
176
     1
 41
30.0
176
     1
 63
     7
421
 16777215
176
     1
 74
     0
176
     1
 91
        0
176
     1
 64
     7
176
     1
 65
   257
176
     1
 75
     1
176
     1
175
     1
176
     1
 42
1.0
176
     1
 92
        8
176
     1
 66
     7
176
     1
 43
1.0
176
     1
 76
     1
176
     1
 77
     6
176
     1
 78
     2
176
     1
 67
     7
176
     1
 79
     5
176
     1
170
     0
176
     1
171
     0
176
     1
290
     0
176
     1
 93
       13
176
     1
 44
0.0
176
     1
173
     0
176
     1
1001
ACAD
1000
AcDbSavedByObjectVersion
1070
     0
  0
VISUALSTYLE
  5
11919
102
{ACAD_XDICTIONARY
360
13BBF
102
}
102
{ACAD_REACTORS
330
11917
102
}
330
11917
100
AcDbVisualStyle
  2
FlatWithEdges
 70
     1
177
     2
291
     1
 71
     2
176
     1
 72
     1
176
     1
 73
     1
176
     1
 90
        2
176
     1
 40
0.6
176
     1
 41
30.0
176
     1
 63
     7
421
 16777215
176
     1
 74
     1
176
     1
 91
        0
176
     1
 64
     7
176
     1
 65
   257
176
     1
 75
     1
176
     1
175
     1
176
     1
 42
1.0
176
     1
 92
        0
176
     1
 66
   257
176
     1
 43
1.0
176
     1
 76
     1
176
     1
 77
     6
176
     1
 78
     2
176
     1
 67
     7
176
     1
 79
     5
176
     1
170
     0
176
     1
171
     0
176
     1
290
     0
176
     1
 93
       13
176
     1
 44
0.0
176
     1
173
     0
176
     1
1001
ACAD
1000
AcDbSavedByObjectVersion
1070
     0
  0
VISUALSTYLE
  5
1191A
102
{ACAD_XDICTIONARY
360
13BC1
102
}
102
{ACAD_REACTORS
330
11917
102
}
330
11917
100
AcDbVisualStyle
  2
Gouraud
 70
     2
177
     2
291
     1
 71
     2
176
     1
 72
     2
176
     1
 73
     1
176
     1
 90
        2
176
     1
 40
0.6
176
     1
 41
30.0
176
     1
 63
     7
421
 16777215
176
     1
 74
     0
176
     1
 91
        0
176
     1
 64
     7
176
     1
 65
   257
176
     1
 75
     1
176
     1
175
     1
176
     1
 42
1.0
176
     1
 92
        0
176
     1
 66
     7
176
     1
 43
1.0
176
     1
 76
     1
176
     1
 77
     6
176
     1
 78
     2
176
     1
 67
     7
176
     1
 79
     5
176
     1
170
     0
176
     1
171
     0
176
     1
290
     0
176
     1
 93
       13
176
     1
 44
0.0
176
     1
173
     0
176
     1
1001
ACAD
1000
AcDbSavedByObjectVersion
1070
     0
  0
VISUALSTYLE
  5
1191B
102
{ACAD_XDICTIONARY
360
13BC3
102
}
102
{ACAD_REACTORS
330
11917
102
}
330
11917
100
AcDbVisualStyle
  2
GouraudWithEdges
 70
     3
177
     2
291
     1
 71
     2
176
     1
 72
     2
176
     1
 73
     1
176
     1
 90
        2
176
     1
 40
0.6
176
     1
 41
30.0
176
     1
 63
     7
421
 16777215
176
     1
 74
     1
176
     1
 91
        0
176
     1
 64
     7
176
     1
 65
   257
176
     1
 75
     1
176
     1
175
     1
176
     1
 42
1.0
176
     1
 92
        0
176
     1
 66
   257
176
     1
 43
1.0
176
     1
 76
     1
176
     1
 77
     6
176
     1
 78
     2
176
     1
 67
     7
176
     1
 79
     5
176
     1
170
     0
176
     1
171
     0
176
     1
290
     0
176
     1
 93
       13
176
     1
 44
0.0
176
     1
173
     0
176
     1
1001
ACAD
1000
AcDbSavedByObjectVersion
1070
     0
  0
VISUALSTYLE
  5
1191F
102
{ACAD_XDICTIONARY
360
13BCB
102
}
102
{ACAD_REACTORS
330
11917
102
}
330
11917
100
AcDbVisualStyle
  2
Hidden
 70
     6
177
     2
291
     0
 71
     1
176
     1
 72
     2
176
     1
 73
     2
176
     1
 90
        0
176
     1
 40
0.6
176
     1
 41
30.0
176
     1
 63
     7
421
 16777215
176
     1
 74
     2
176
     1
 91
        2
176
     1
 64
     7
176
     1
 65
   257
176
     1
 75
     2
176
     1
175
     1
176
     1
 42
40.0
176
     1
 92
        0
176
     1
 66
   257
176
     1
 43
1.0
176
     1
 76
     1
176
     1
 77
     6
176
     1
 78
     2
176
     1
 67
     7
176
     1
 79
     3
176
     1
170
     0
176
     1
171
     0
176
     1
290
     0
176
     1
 93
        1
176
     1
 44
0.0
176
     1
173
     0
176
     1
1001
ACAD
1000
AcDbSavedByObjectVersion
1070
     0
  0
VISUALSTYLE
  5
1192D
102
{ACAD_XDICTIONARY
360
13BE7
102
}
102
{ACAD_REACTORS
330
11917
102
}
330
11917
100
AcDbVisualStyle
  2
JitterOff
 70
    20
177
     2
291
     1
 71
     2
176
     0
 72
     2
176
     0
 73
     0
176
     0
 90
        0
176
     0
 40
0.6
176
     0
 41
30.0
176
     0
 63
     7
421
 16777215
176
     0
 74
     1
176
     0
 91
        4
176
     0
 64
     7
176
     0
 65
   257
176
     0
 75
     1
176
     0
175
     1
176
     0
 42
1.0
176
     0
 92
       10
176
     2
 66
     7
176
     0
 43
1.0
176
     0
 76
     1
176
     0
 77
     6
176
     0
 78
     2
176
     0
 67
     7
176
     0
 79
     5
176
     0
170
     0
176
     0
171
     0
176
     0
290
     0
176
     0
 93
        1
176
     0
 44
0.0
176
     0
173
     0
176
     0
1001
ACAD
1000
AcDbSavedByObjectVersion
1070
     0
  0
VISUALSTYLE
  5
11925
102
{ACAD_XDICTIONARY
360
13BD7
102
}
102
{ACAD_REACTORS
330
11917
102
}
330
11917
100
AcDbVisualStyle
  2
Linepattern
 70
    14
177
     2
291
     1
 71
     2
176
     1
 72
     2
176
     1
 73
     0
176
     1
 90
        0
176
     1
 40
0.6
176
     1
 41
30.0
176
     1
 63
     7
421
 16777215
176
     1
 74
     1
176
     1
 91
        4
176
     1
 64
     7
176
     1
 65
   257
176
     1
 75
     7
176
     1
175
     7
176
     1
 42
1.0
176
     1
 92
        8
176
     1
 66
     7
176
     1
 43
1.0
176
     1
 76
     1
176
     1
 77
     6
176
     1
 78
     2
176
     1
 67
     7
176
     1
 79
     5
176
     1
170
     0
176
     1
171
     0
176
     1
290
     0
176
     1
 93
        1
176
     1
 44
0.0
176
     1
173
     0
176
     1
1001
ACAD
1000
AcDbSavedByObjectVersion
1070
     0
  0
VISUALSTYLE
  5
1192E
102
{ACAD_XDICTIONARY
360
13BE9
102
}
102
{ACAD_REACTORS
330
11917
102
}
330
11917
100
AcDbVisualStyle
  2
OverhangOff
 70
    21
177
     2
291
     1
 71
     2
176
     0
 72
     2
176
     0
 73
     0
176
     0
 90
        0
176
     0
 40
0.6
176
     0
 41
30.0
176
     0
 63
     7
421
 16777215
176
     0
 74
     1
176
     0
 91
        4
176
     0
 64
     7
176
     0
 65
   257
176
     0
 75
     1
176
     0
175
     1
176
     0
 42
1.0
176
     0
 92
        9
176
     2
 66
     7
176
     0
 43
1.0
176
     0
 76
     1
176
     0
 77
     6
176
     0
 78
     2
176
     0
 67
     7
176
     0
 79
     5
176
     0
170
     0
176
     0
171
     0
176
     0
290
     0
176
     0
 93
        1
176
     0
 44
0.0
176
     0
173
     0
176
     0
1001
ACAD
1000
AcDbSavedByObjectVersion
1070
     0
  0
VISUALSTYLE
  5
11921
102
{ACAD_XDICTIONARY
360
13BCF
102
}
102
{ACAD_REACTORS
330
11917
102
}
330
11917
100
AcDbVisualStyle
  2
Realistic
 70
     8
177
     2
291
     0
 71
     2
176
     1
 72
     3
176
     1
 73
     0
176
     1
 90
        2
176
     1
 40
0.6
176
     1
 41
30.0
176
     1
 63
     7
421
 16777215
176
     1
 74
     0
176
     1
 91
        0
176
     1
 64
     7
176
     1
 65
   257
176
     1
 75
     1
176
     1
175
     1
176
     1
 42
1.0
176
     1
 92
        8
176
     1
 66
   257
176
     1
 43
1.0
176
     1
 76
     1
176
     1
 77
     6
176
     1
 78
     2
176
     1
 67
     7
176
     1
 79
     3
176
     1
170
     0
176
     1
171
     0
176
     1
290
     0
176
     1
 93
       13
176
     1
 44
0.0
176
     1
173
     0
176
     1
1001
ACAD
1000
AcDbSavedByObjectVersion
1070
     0
  0
VISUALSTYLE
  5
1192C
102
{ACAD_XDICTIONARY
360
13BE5
102
}
102
{ACAD_REACTORS
330
11917
102
}
330
11917
100
AcDbVisualStyle
  2
Shaded
 70
    27
177
     2
291
     0
 71
     2
176
     1
 72
     2
176
     1
 73
     1
176
     1
 90
        2
176
     1
 40
0.6
176
     1
 41
30.0
176
     1
 63
     7
421
 16777215
176
     1
 74
     0
176
     1
 91
        4
176
     1
 64
     7
176
     1
 65
   257
176
     1
 75
     1
176
     1
175
     1
176
     1
 42
1.0
176
     1
 92
        8
176
     1
 66
   257
176
     1
 43
1.0
176
     1
 76
     1
176
     1
 77
     6
176
     1
 78
     2
176
     1
 67
     8
425
  7895160
176
     1
 79
     3
176
     1
170
     0
176
     1
171
     0
176
     1
290
     0
176
     1
 93
        5
176
     1
 44
0.0
176
     1
173
     0
176
     1
1001
ACAD
1000
AcDbSavedByObjectVersion
1070
     0
  0
VISUALSTYLE
  5
1192B
102
{ACAD_XDICTIONARY
360
13BE3
102
}
102
{ACAD_REACTORS
330
11917
102
}
330
11917
100
AcDbVisualStyle
  2
Shaded with edges
 70
    26
177
     2
291
     0
 71
     2
176
     1
 72
     2
176
     1
 73
     1
176
     1
 90
        2
176
     1
 40
0.6
176
     1
 41
30.0
176
     1
 63
     7
421
 16777215
176
     1
 74
     1
176
     1
 91
       10
176
     1
 64
     7
176
     1
 65
   257
176
     1
 75
     2
176
     1
175
     1
176
     1
 42
1.0
176
     1
 92
        8
176
     1
 66
   257
176
     1
 43
1.0
176
     1
 76
     1
176
     1
 77
     6
176
     1
 78
     2
176
     1
 67
     7
176
     1
 79
     3
176
     1
170
     0
176
     1
171
     0
176
     1
290
     0
176
     1
 93
        5
176
     1
 44
0.0
176
     1
173
     0
176
     1
1001
ACAD
1000
AcDbSavedByObjectVersion
1070
     0
  0
VISUALSTYLE
  5
11928
102
{ACAD_XDICTIONARY
360
13BDD
102
}
102
{ACAD_REACTORS
330
11917
102
}
330
11917
100
AcDbVisualStyle
  2
Shades of Gray
 70
    23
177
     2
291
     0
 71
     2
176
     1
 72
     2
176
     1
 73
     3
176
     1
 90
        0
176
     1
 40
0.6
176
     1
 41
30.0
176
     1
 63
     7
421
 16777215
176
     1
 74
     2
176
     1
 91
        2
176
     1
 64
     7
176
     1
 65
     7
176
     1
 75
     1
176
     1
175
     1
176
     1
 42
40.0
176
     1
 92
        8
176
     1
 66
     7
176
     1
 43
1.0
176
     1
 76
     1
176
     1
 77
     6
176
     1
 78
     2
176
     1
 67
     7
176
     1
 79
     3
176
     1
170
     0
176
     1
171
     0
176
     1
290
     0
176
     1
 93
        1
176
     1
 44
0.0
176
     1
173
     0
176
     1
1001
ACAD
1000
AcDbSavedByObjectVersion
1070
     0
  0
VISUALSTYLE
  5
11929
102
{ACAD_XDICTIONARY
360
13BDF
102
}
102
{ACAD_REACTORS
330
11917
102
}
330
11917
100
AcDbVisualStyle
  2
Sketchy
 70
    24
177
     2
291
     0
 71
     1
176
     1
 72
     2
176
     1
 73
     2
176
     1
 90
        0
176
     1
 40
0.6
176
     1
 41
30.0
176
     1
 63
     7
421
 16777215
176
     1
 74
     2
176
     1
 91
        2
176
     1
 64
     7
176
     1
 65
     7
176
     1
 75
     1
176
     1
175
     1
176
     1
 42
40.0
176
     1
 92
       11
176
     1
 66
     7
176
     1
 43
1.0
176
     1
 76
     1
176
     1
 77
     6
176
     1
 78
     2
176
     1
 67
     7
176
     1
 79
     6
176
     1
170
     0
176
     1
171
     0
176
     1
290
     0
176
     1
 93
        1
176
     1
 44
0.0
176
     1
173
     0
176
     1
1001
ACAD
1000
AcDbSavedByObjectVersion
1070
     0
  0
VISUALSTYLE
  5
11924
102
{ACAD_XDICTIONARY
360
13BD5
102
}
102
{ACAD_REACTORS
330
11917
102
}
330
11917
100
AcDbVisualStyle
  2
Thicken
 70
    13
177
     2
291
     1
 71
     2
176
     1
 72
     2
176
     1
 73
     0
176
     1
 90
        0
176
     1
 40
0.6
176
     1
 41
30.0
176
     1
 63
     7
421
 16777215
176
     1
 74
     1
176
     1
 91
        4
176
     1
 64
     7
176
     1
 65
   257
176
     1
 75
     1
176
     1
175
     1
176
     1
 42
1.0
176
     1
 92
       12
176
     1
 66
     7
176
     1
 43
1.0
176
     1
 76
     1
176
     1
 77
     6
176
     1
 78
     2
176
     1
 67
     7
176
     1
 79
     5
176
     1
170
     0
176
     1
171
     0
176
     1
290
     0
176
     1
 93
        1
176
     1
 44
0.0
176
     1
173
     0
176
     1
1001
ACAD
1000
AcDbSavedByObjectVersion
1070
     0
  0
VISUALSTYLE
  5
1191E
102
{ACAD_XDICTIONARY
360
13BC9
102
}
102
{ACAD_REACTORS
330
11917
102
}
330
11917
100
AcDbVisualStyle
  2
Wireframe
 70
     5
177
     2
291
     0
 71
     0
176
     1
 72
     2
176
     1
 73
     0
176
     1
 90
        0
176
     1
 40
0.6
176
     1
 41
30.0
176
     1
 63
     7
421
 16777215
176
     1
 74
     1
176
     1
 91
        4
176
     1
 64
     7
176
     1
 65
   257
176
     1
 75
     1
176
     1
175
     1
176
     1
 42
1.0
176
     1
 92
        0
176
     1
 66
   257
176
     1
 43
1.0
176
     1
 76
     1
176
     1
 77
     6
176
     1
 78
     2
176
     1
 67
     7
176
     1
 79
     3
176
     1
170
     0
176
     1
171
     0
176
     1
290
     0
176
     1
 93
        1
176
     1
 44
0.0
176
     1
173
     0
176
     1
1001
ACAD
1000
AcDbSavedByObjectVersion
1070
     0
  0
VISUALSTYLE
  5
1192A
102
{ACAD_XDICTIONARY
360
13BE1
102
}
102
{ACAD_REACTORS
330
11917
102
}
330
11917
100
AcDbVisualStyle
  2
X-Ray
 70
    25
177
     2
291
     0
 71
     2
176
     1
 72
     2
176
     1
 73
     1
176
     1
 90
        1
176
     1
 40
0.5
176
     1
 41
30.0
176
     1
 63
     7
421
 16777215
176
     1
 74
     1
176
     1
 91
        0
176
     1
 64
     7
176
     1
 65
   257
176
     1
 75
     1
176
     1
175
     1
176
     1
 42
1.0
176
     1
 92
        8
176
     1
 66
     7
176
     1
 43
1.0
176
     1
 76
     1
176
     1
 77
     6
176
     1
 78
     2
176
     1
 67
     7
176
     1
 79
     3
176
     1
170
     0
176
     1
171
     0
176
     1
290
     0
176
     1
 93
       13
176
     1
 44
0.0
176
     1
173
     0
176
     1
1001
ACAD
1000
AcDbSavedByObjectVersion
1070
     0
  0
DICTIONARYVAR
  5
11D5C
102
{ACAD_REACTORS
330
47CB
102
}
330
47CB
100
DictionaryVariables
280
     0
  1
1:1
  0
DICTIONARYVAR
  5
11D58
102
{ACAD_REACTORS
330
47CB
102
}
330
47CB
100
DictionaryVariables
280
     0
  1
STANDARD
  0
DICTIONARYVAR
  5
11D57
102
{ACAD_REACTORS
330
47CB
102
}
330
47CB
100
DictionaryVariables
280
     0
  1
STANDARD
  0
DICTIONARYVAR
  5
11D59
102
{ACAD_REACTORS
330
47CB
102
}
330
47CB
100
DictionaryVariables
280
     0
  1
Imperial24
  0
DICTIONARYVAR
  5
11D5A
102
{ACAD_REACTORS
330
47CB
102
}
330
47CB
100
DictionaryVariables
280
     0
  1
Imperial24
  0
DICTIONARYVAR
  5
11D5E
102
{ACAD_REACTORS
330
47CB
102
}
330
47CB
100
DictionaryVariables
280
     0
  1
1
  0
DICTIONARYVAR
  5
11D5F
102
{ACAD_REACTORS
330
47CB
102
}
330
47CB
100
DictionaryVariables
280
     0
  1
15
  0
DICTIONARYVAR
  5
11D5D
102
{ACAD_REACTORS
330
47CB
102
}
330
47CB
100
DictionaryVariables
280
     0
  1
0
  0
DICTIONARYVAR
  5
11D5B
102
{ACAD_REACTORS
330
47CB
102
}
330
47CB
100
DictionaryVariables
280
     0
  1
0
  0
DICTIONARYVAR
  5
47CC
102
{ACAD_REACTORS
330
47CB
102
}
330
47CB
100
DictionaryVariables
280
     0
  1
96
  0
DICTIONARY
  5
13BBC
102
{ACAD_REACTORS
330
13BBA
102
}
330
13BBA
100
AcDbDictionary
281
     1
  0
DICTIONARY
  5
13BBB
102
{ACAD_REACTORS
330
13BBA
102
}
330
13BBA
100
AcDbDictionary
281
     1
  3
8796084123200
350
13BB4
  3
8796084123216
350
13BB5
  3
8796084123232
350
13BB6
  3
8796084123248
350
13BB7
  3
8796084123264
350
13BB8
  3
8796084123280
350
13BB9
  0
DICTIONARY
  5
11908
330
11907
100
AcDbDictionary
280
     1
281
     1
  3
BUMPTILE
360
1190A
  3
DIFFUSETILE
360
11909
  3
OPACITYTILE
360
1190D
  3
REFLECTIONTILE
360
1190C
  3
REFRACTIONTILE
360
1190E
  3
SPECULARTILE
360
1190B
  0
DICTIONARY
  5
11900
330
118FF
100
AcDbDictionary
280
     1
281
     1
  3
BUMPTILE
360
11902
  3
DIFFUSETILE
360
11901
  3
OPACITYTILE
360
11905
  3
REFLECTIONTILE
360
11904
  3
REFRACTIONTILE
360
11906
  3
SPECULARTILE
360
11903
  0
DICTIONARY
  5
11910
330
1190F
100
AcDbDictionary
280
     1
281
     1
  3
BUMPTILE
360
11912
  3
DIFFUSETILE
360
11911
  3
OPACITYTILE
360
11915
  3
REFLECTIONTILE
360
11914
  3
REFRACTIONTILE
360
11916
  3
SPECULARTILE
360
11913
  0
DICTIONARY
  5
13BED
330
11946
100
AcDbDictionary
280
     1
281
     1
  3
ACAD_XREC_ROUNDTRIP
360
13BEE
  0
DICTIONARY
  5
13BB1
330
11932
100
AcDbDictionary
280
     1
281
     1
  3
ACAD_ROUNDTRIP_2008_TABLESTYLE_CELLSTYLEMAP
360
13BB2
  0
DICTIONARY
  5
13BC7
330
1191D
100
AcDbDictionary
280
     1
281
     1
  3
ACAD_XREC_ROUNDTRIP
360
13BC8
  0
DICTIONARY
  5
13BC5
330
1191C
100
AcDbDictionary
280
     1
281
     1
  3
ACAD_XREC_ROUNDTRIP
360
13BC6
  0
DICTIONARY
  5
13BD3
330
11923
100
AcDbDictionary
280
     1
281
     1
  3
ACAD_XREC_ROUNDTRIP
360
13BD4
  0
DICTIONARY
  5
13BDB
330
11927
100
AcDbDictionary
280
     1
281
     1
  3
ACAD_XREC_ROUNDTRIP
360
13BDC
  0
DICTIONARY
  5
13BCD
330
11920
100
AcDbDictionary
280
     1
281
     1
  3
ACAD_XREC_ROUNDTRIP
360
13BCE
  0
DICTIONARY
  5
13BD1
330
11922
100
AcDbDictionary
280
     1
281
     1
  3
ACAD_XREC_ROUNDTRIP
360
13BD2
  0
DICTIONARY
  5
13BEB
330
1192F
100
AcDbDictionary
280
     1
281
     1
  3
ACAD_XREC_ROUNDTRIP
360
13BEC
  0
DICTIONARY
  5
13BD9
330
11926
100
AcDbDictionary
280
     1
281
     1
  3
ACAD_XREC_ROUNDTRIP
360
13BDA
  0
DICTIONARY
  5
13BBD
330
11918
100
AcDbDictionary
280
     1
281
     1
  3
ACAD_XREC_ROUNDTRIP
360
13BBE
  0
DICTIONARY
  5
13BBF
330
11919
100
AcDbDictionary
280
     1
281
     1
  3
ACAD_XREC_ROUNDTRIP
360
13BC0
  0
DICTIONARY
  5
13BC1
330
1191A
100
AcDbDictionary
280
     1
281
     1
  3
ACAD_XREC_ROUNDTRIP
360
13BC2
  0
DICTIONARY
  5
13BC3
330
1191B
100
AcDbDictionary
280
     1
281
     1
  3
ACAD_XREC_ROUNDTRIP
360
13BC4
  0
DICTIONARY
  5
13BCB
330
1191F
100
AcDbDictionary
280
     1
281
     1
  3
ACAD_XREC_ROUNDTRIP
360
13BCC
  0
DICTIONARY
  5
13BE7
330
1192D
100
AcDbDictionary
280
     1
281
     1
  3
ACAD_XREC_ROUNDTRIP
360
13BE8
  0
DICTIONARY
  5
13BD7
330
11925
100
AcDbDictionary
280
     1
281
     1
  3
ACAD_XREC_ROUNDTRIP
360
13BD8
  0
DICTIONARY
  5
13BE9
330
1192E
100
AcDbDictionary
280
     1
281
     1
  3
ACAD_XREC_ROUNDTRIP
360
13BEA
  0
DICTIONARY
  5
13BCF
330
11921
100
AcDbDictionary
280
     1
281
     1
  3
ACAD_XREC_ROUNDTRIP
360
13BD0
  0
DICTIONARY
  5
13BE5
330
1192C
100
AcDbDictionary
280
     1
281
     1
  3
ACAD_XREC_ROUNDTRIP
360
13BE6
  0
DICTIONARY
  5
13BE3
330
1192B
100
AcDbDictionary
280
     1
281
     1
  3
ACAD_XREC_ROUNDTRIP
360
13BE4
  0
DICTIONARY
  5
13BDD
330
11928
100
AcDbDictionary
280
     1
281
     1
  3
ACAD_XREC_ROUNDTRIP
360
13BDE
  0
DICTIONARY
  5
13BDF
330
11929
100
AcDbDictionary
280
     1
281
     1
  3
ACAD_XREC_ROUNDTRIP
360
13BE0
  0
DICTIONARY
  5
13BD5
330
11924
100
AcDbDictionary
280
     1
281
     1
  3
ACAD_XREC_ROUNDTRIP
360
13BD6
  0
DICTIONARY
  5
13BC9
330
1191E
100
AcDbDictionary
280
     1
281
     1
  3
ACAD_XREC_ROUNDTRIP
360
13BCA
  0
DICTIONARY
  5
13BE1
330
1192A
100
AcDbDictionary
280
     1
281
     1
  3
ACAD_XREC_ROUNDTRIP
360
13BE2
  0
XRECORD
  5
13BB4
102
{ACAD_REACTORS
330
13BBB
102
}
330
13BBB
100
AcDbXrecord
280
     1
  1
AcDb_Thumbnail_Schema
102
{ATTRRECORD
341
13BB6
  2
AcDbDs::TreatedAsObjectData
280
     1
291
     1
102
ATTRRECORD}
102
{ATTRRECORD
341
13BB7
  2
AcDbDs::Legacy
280
     1
291
     1
102
ATTRRECORD}
  2
AcDbDs::ID
280
    10
 91
        8
102
{ATTRRECORD
341
13BB8
  2
AcDs:Indexable
280
     1
291
     1
102
ATTRRECORD}
102
{ATTRRECORD
341
13BB9
  2
AcDbDs::HandleAttribute
280
     7
282
     1
102
ATTRRECORD}
  2
Thumbnail_Data
280
    15
 91
        0
  0
XRECORD
  5
13BB5
102
{ACAD_REACTORS
330
13BBB
102
}
330
13BBB
100
AcDbXrecord
280
     1
  1
AcDb3DSolid_ASM_Data
102
{ATTRRECORD
341
13BB6
  2
AcDbDs::TreatedAsObjectData
280
     1
291
     1
102
ATTRRECORD}
102
{ATTRRECORD
341
13BB7
  2
AcDbDs::Legacy
280
     1
291
     1
102
ATTRRECORD}
  2
AcDbDs::ID
280
    10
 91
        8
102
{ATTRRECORD
341
13BB8
  2
AcDs:Indexable
280
     1
291
     1
102
ATTRRECORD}
102
{ATTRRECORD
341
13BB9
  2
AcDbDs::HandleAttribute
280
     7
282
     1
102
ATTRRECORD}
  2
ASM_Data
280
    15
 91
        0
  0
XRECORD
  5
13BB6
102
{ACAD_REACTORS
330
13BBB
102
}
330
13BBB
100
AcDbXrecord
280
     1
  1
AcDbDs::TreatedAsObjectDataSchema
  2
AcDbDs::TreatedAsObjectData
280
     1
 91
        0
  0
XRECORD
  5
13BB7
102
{ACAD_REACTORS
330
13BBB
102
}
330
13BBB
100
AcDbXrecord
280
     1
  1
AcDbDs::LegacySchema
  2
AcDbDs::Legacy
280
     1
 91
        0
  0
XRECORD
  5
13BB8
102
{ACAD_REACTORS
330
13BBB
102
}
330
13BBB
100
AcDbXrecord
280
     1
  1
AcDbDs::IndexedPropertySchema
  2
AcDs:Indexable
280
     1
 91
        0
  0
XRECORD
  5
13BB9
102
{ACAD_REACTORS
330
13BBB
102
}
330
13BBB
100
AcDbXrecord
280
     1
  1
AcDbDs::HandleAttributeSchema
  2
AcDbDs::HandleAttribute
280
     7
 91
        1
284
     1
  0
XRECORD
  5
1190A
102
{ACAD_REACTORS
330
11908
102
}
330
11908
100
AcDbXrecord
280
     1
270
     1
271
     1
  0
XRECORD
  5
11909
102
{ACAD_REACTORS
330
11908
102
}
330
11908
100
AcDbXrecord
280
     1
270
     1
271
     1
  0
XRECORD
  5
1190D
102
{ACAD_REACTORS
330
11908
102
}
330
11908
100
AcDbXrecord
280
     1
270
     1
271
     1
  0
XRECORD
  5
1190C
102
{ACAD_REACTORS
330
11908
102
}
330
11908
100
AcDbXrecord
280
     1
270
     1
271
     1
  0
XRECORD
  5
1190E
102
{ACAD_REACTORS
330
11908
102
}
330
11908
100
AcDbXrecord
280
     1
270
     1
271
     1
  0
XRECORD
  5
1190B
102
{ACAD_REACTORS
330
11908
102
}
330
11908
100
AcDbXrecord
280
     1
270
     1
271
     1
  0
XRECORD
  5
11902
102
{ACAD_REACTORS
330
11900
102
}
330
11900
100
AcDbXrecord
280
     1
270
     1
271
     1
  0
XRECORD
  5
11901
102
{ACAD_REACTORS
330
11900
102
}
330
11900
100
AcDbXrecord
280
     1
270
     1
271
     1
  0
XRECORD
  5
11905
102
{ACAD_REACTORS
330
11900
102
}
330
11900
100
AcDbXrecord
280
     1
270
     1
271
     1
  0
XRECORD
  5
11904
102
{ACAD_REACTORS
330
11900
102
}
330
11900
100
AcDbXrecord
280
     1
270
     1
271
     1
  0
XRECORD
  5
11906
102
{ACAD_REACTORS
330
11900
102
}
330
11900
100
AcDbXrecord
280
     1
270
     1
271
     1
  0
XRECORD
  5
11903
102
{ACAD_REACTORS
330
11900
102
}
330
11900
100
AcDbXrecord
280
     1
270
     1
271
     1
  0
XRECORD
  5
11912
102
{ACAD_REACTORS
330
11910
102
}
330
11910
100
AcDbXrecord
280
     1
270
     1
271
     1
  0
XRECORD
  5
11911
102
{ACAD_REACTORS
330
11910
102
}
330
11910
100
AcDbXrecord
280
     1
270
     1
271
     1
  0
XRECORD
  5
11915
102
{ACAD_REACTORS
330
11910
102
}
330
11910
100
AcDbXrecord
280
     1
270
     1
271
     1
  0
XRECORD
  5
11914
102
{ACAD_REACTORS
330
11910
102
}
330
11910
100
AcDbXrecord
280
     1
270
     1
271
     1
  0
XRECORD
  5
11916
102
{ACAD_REACTORS
330
11910
102
}
330
11910
100
AcDbXrecord
280
     1
270
     1
271
     1
  0
XRECORD
  5
11913
102
{ACAD_REACTORS
330
11910
102
}
330
11910
100
AcDbXrecord
280
     1
270
     1
271
     1
  0
XRECORD
  5
13BEE
102
{ACAD_REACTORS
330
13BED
102
}
330
13BED
100
AcDbXrecord
280
     1
102
ACAD_ROUNDTRIP_2012_MLEADER_STYLE
298
     1
  0
CELLSTYLEMAP
  5
13BB2
102
{ACAD_REACTORS
330
13BB1
102
}
330
13BB1
100
AcDbCellStyleMap
 90
        3
300
CELLSTYLE
  1
TABLEFORMAT_BEGIN
 90
        5
170
     1
 91
        0
 92
    32768
 62
   257
 93
        1
300
CONTENTFORMAT
  1
CONTENTFORMAT_BEGIN
 90
        0
 91
        0
 92
      512
 93
        0
300

 40
0.0
140
1.0
 94
        5
 62
     0
340
10
144
0.25
309
CONTENTFORMAT_END
171
     0
 94
        0
309
TABLEFORMAT_END
  1
CELLSTYLE_BEGIN
 90
        1
 91
        1
300
_TITLE
309
CELLSTYLE_END
300
CELLSTYLE
  1
TABLEFORMAT_BEGIN
 90
        5
170
     1
 91
        0
 92
        0
 62
   257
 93
        1
300
CONTENTFORMAT
  1
CONTENTFORMAT_BEGIN
 90
        0
 91
        0
 92
      512
 93
        0
300

 40
0.0
140
1.0
 94
        5
 62
     0
340
10
144
0.18
309
CONTENTFORMAT_END
171
     0
 94
        0
309
TABLEFORMAT_END
  1
CELLSTYLE_BEGIN
 90
        2
 91
        1
300
_HEADER
309
CELLSTYLE_END
300
CELLSTYLE
  1
TABLEFORMAT_BEGIN
 90
        5
170
     1
 91
        0
 92
        0
 62
   257
 93
        1
300
CONTENTFORMAT
  1
CONTENTFORMAT_BEGIN
 90
        0
 91
        0
 92
      512
 93
        0
300

 40
0.0
140
1.0
 94
        2
 62
     0
340
10
144
0.18
309
CONTENTFORMAT_END
171
     0
 94
        0
309
TABLEFORMAT_END
  1
CELLSTYLE_BEGIN
 90
        3
 91
        2
300
_DATA
309
CELLSTYLE_END
  0
XRECORD
  5
13BC8
102
{ACAD_REACTORS
330
13BC7
102
}
330
13BC7
100
AcDbXrecord
280
     1
102
RTVSPost2010Prop28
280
     1
102
RTVSPost2010PropOp28
 70
     1
102
RTVSPost2010Prop29
280
     1
102
RTVSPost2010PropOp29
 70
     1
102
RTVSPost2010Prop30
280
     0
102
RTVSPost2010PropOp30
 70
     1
102
RTVSPost2010Prop31
280
     0
102
RTVSPost2010PropOp31
 70
     1
102
RTVSPost2010Prop32
280
     0
102
RTVSPost2010PropOp32
 70
     1
102
RTVSPost2010Prop33
280
     0
102
RTVSPost2010PropOp33
 70
     1
102
RTVSPost2010Prop34
280
     0
102
RTVSPost2010PropOp34
 70
     1
102
RTVSPost2010Prop35
280
     0
102
RTVSPost2010PropOp35
 70
     1
102
RTVSPost2010Prop36
280
     0
102
RTVSPost2010PropOp36
 70
     1
102
RTVSPost2010Prop37
 90
       50
102
RTVSPost2010PropOp37
 70
     1
102
RTVSPost2010Prop38
140
0.0
102
RTVSPost2010PropOp38
 70
     1
102
RTVSPost2010Prop39
140
1.0
102
RTVSPost2010PropOp39
 70
     1
102
RTVSPost2010Prop40
 90
        0
102
RTVSPost2010PropOp40
 70
     1
102
RTVSPost2010Prop41ColorIndex
 90
       18
102
RTVSPost2010Prop41ColorRGB
 90
        0
102
RTVSPost2010PropOp41
 70
     1
102
RTVSPost2010Prop42
 90
       50
102
RTVSPost2010PropOp42
 70
     1
102
RTVSPost2010Prop43
 90
        3
102
RTVSPost2010PropOp43
 70
     1
102
RTVSPost2010Prop44ColorIndex
 90
        5
102
RTVSPost2010Prop44ColorRGB
 90
      255
102
RTVSPost2010PropOp44
 70
     1
102
RTVSPost2010Prop45
280
     0
102
RTVSPost2010PropOp45
 70
     1
102
RTVSPost2010Prop46
 90
       50
102
RTVSPost2010PropOp46
 70
     1
102
RTVSPost2010Prop47
 90
       50
102
RTVSPost2010PropOp47
 70
     1
102
RTVSPost2010Prop48
 90
       50
102
RTVSPost2010PropOp48
 70
     1
102
RTVSPost2010Prop49
280
     0
102
RTVSPost2010PropOp49
 70
     1
102
RTVSPost2010Prop50
 90
       50
102
RTVSPost2010PropOp50
 70
     1
102
RTVSPost2010Prop51ColorIndex
 90
      256
102
RTVSPost2010Prop51ColorRGB
 90
-16777216
102
RTVSPost2010PropOp51
 70
     0
102
RTVSPost2010Prop52
140
1.0
102
RTVSPost2010PropOp52
 70
     0
102
RTVSPost2010Prop53
 90
        2
102
RTVSPost2010PropOp53
 70
     1
102
RTVSPost2010Prop54
  1
strokes_ogs.tif
102
RTVSPost2010PropOp54
 70
     1
102
RTVSPost2010Prop55
280
     0
102
RTVSPost2010PropOp55
 70
     1
102
RTVSPost2010Prop56
140
1.0
102
RTVSPost2010PropOp56
 70
     1
102
RTVSPost2010Prop57
140
1.0
102
RTVSPost2010PropOp57
 70
     1
  0
XRECORD
  5
13BC6
102
{ACAD_REACTORS
330
13BC5
102
}
330
13BC5
100
AcDbXrecord
280
     1
102
RTVSPost2010Prop28
280
     0
102
RTVSPost2010PropOp28
 70
     1
102
RTVSPost2010Prop29
280
     1
102
RTVSPost2010PropOp29
 70
     1
102
RTVSPost2010Prop30
280
     1
102
RTVSPost2010PropOp30
 70
     1
102
RTVSPost2010Prop31
280
     0
102
RTVSPost2010PropOp31
 70
     1
102
RTVSPost2010Prop32
280
     0
102
RTVSPost2010PropOp32
 70
     1
102
RTVSPost2010Prop33
280
     0
102
RTVSPost2010PropOp33
 70
     1
102
RTVSPost2010Prop34
280
     0
102
RTVSPost2010PropOp34
 70
     1
102
RTVSPost2010Prop35
280
     0
102
RTVSPost2010PropOp35
 70
     1
102
RTVSPost2010Prop36
280
     0
102
RTVSPost2010PropOp36
 70
     1
102
RTVSPost2010Prop37
 90
       50
102
RTVSPost2010PropOp37
 70
     1
102
RTVSPost2010Prop38
140
0.0
102
RTVSPost2010PropOp38
 70
     1
102
RTVSPost2010Prop39
140
1.0
102
RTVSPost2010PropOp39
 70
     1
102
RTVSPost2010Prop40
 90
        0
102
RTVSPost2010PropOp40
 70
     1
102
RTVSPost2010Prop41ColorIndex
 90
       18
102
RTVSPost2010Prop41ColorRGB
 90
        0
102
RTVSPost2010PropOp41
 70
     1
102
RTVSPost2010Prop42
 90
       50
102
RTVSPost2010PropOp42
 70
     1
102
RTVSPost2010Prop43
 90
        3
102
RTVSPost2010PropOp43
 70
     1
102
RTVSPost2010Prop44ColorIndex
 90
        5
102
RTVSPost2010Prop44ColorRGB
 90
      255
102
RTVSPost2010PropOp44
 70
     1
102
RTVSPost2010Prop45
280
     0
102
RTVSPost2010PropOp45
 70
     1
102
RTVSPost2010Prop46
 90
       50
102
RTVSPost2010PropOp46
 70
     1
102
RTVSPost2010Prop47
 90
       50
102
RTVSPost2010PropOp47
 70
     1
102
RTVSPost2010Prop48
 90
       50
102
RTVSPost2010PropOp48
 70
     1
102
RTVSPost2010Prop49
280
     0
102
RTVSPost2010PropOp49
 70
     1
102
RTVSPost2010Prop50
 90
       50
102
RTVSPost2010PropOp50
 70
     1
102
RTVSPost2010Prop51ColorIndex
 90
      256
102
RTVSPost2010Prop51ColorRGB
 90
-16777216
102
RTVSPost2010PropOp51
 70
     0
102
RTVSPost2010Prop52
140
1.0
102
RTVSPost2010PropOp52
 70
     0
102
RTVSPost2010Prop53
 90
        2
102
RTVSPost2010PropOp53
 70
     1
102
RTVSPost2010Prop54
  1
strokes_ogs.tif
102
RTVSPost2010PropOp54
 70
     1
102
RTVSPost2010Prop55
280
     0
102
RTVSPost2010PropOp55
 70
     1
102
RTVSPost2010Prop56
140
1.0
102
RTVSPost2010PropOp56
 70
     1
102
RTVSPost2010Prop57
140
1.0
102
RTVSPost2010PropOp57
 70
     1
  0
XRECORD
  5
13BD4
102
{ACAD_REACTORS
330
13BD3
102
}
330
13BD3
100
AcDbXrecord
280
     1
102
RTVSPost2010Prop28
280
     0
102
RTVSPost2010PropOp28
 70
     1
102
RTVSPost2010Prop29
280
     1
102
RTVSPost2010PropOp29
 70
     1
102
RTVSPost2010Prop30
280
     1
102
RTVSPost2010PropOp30
 70
     1
102
RTVSPost2010Prop31
280
     0
102
RTVSPost2010PropOp31
 70
     1
102
RTVSPost2010Prop32
280
     0
102
RTVSPost2010PropOp32
 70
     1
102
RTVSPost2010Prop33
280
     0
102
RTVSPost2010PropOp33
 70
     1
102
RTVSPost2010Prop34
280
     0
102
RTVSPost2010PropOp34
 70
     1
102
RTVSPost2010Prop35
280
     0
102
RTVSPost2010PropOp35
 70
     1
102
RTVSPost2010Prop36
280
     0
102
RTVSPost2010PropOp36
 70
     1
102
RTVSPost2010Prop37
 90
       50
102
RTVSPost2010PropOp37
 70
     1
102
RTVSPost2010Prop38
140
0.0
102
RTVSPost2010PropOp38
 70
     1
102
RTVSPost2010Prop39
140
1.0
102
RTVSPost2010PropOp39
 70
     1
102
RTVSPost2010Prop40
 90
        0
102
RTVSPost2010PropOp40
 70
     1
102
RTVSPost2010Prop41ColorIndex
 90
       18
102
RTVSPost2010Prop41ColorRGB
 90
        0
102
RTVSPost2010PropOp41
 70
     1
102
RTVSPost2010Prop42
 90
       50
102
RTVSPost2010PropOp42
 70
     1
102
RTVSPost2010Prop43
 90
        3
102
RTVSPost2010PropOp43
 70
     1
102
RTVSPost2010Prop44ColorIndex
 90
        5
102
RTVSPost2010Prop44ColorRGB
 90
      255
102
RTVSPost2010PropOp44
 70
     1
102
RTVSPost2010Prop45
280
     0
102
RTVSPost2010PropOp45
 70
     1
102
RTVSPost2010Prop46
 90
       50
102
RTVSPost2010PropOp46
 70
     1
102
RTVSPost2010Prop47
 90
       50
102
RTVSPost2010PropOp47
 70
     1
102
RTVSPost2010Prop48
 90
       50
102
RTVSPost2010PropOp48
 70
     1
102
RTVSPost2010Prop49
280
     0
102
RTVSPost2010PropOp49
 70
     1
102
RTVSPost2010Prop50
 90
       50
102
RTVSPost2010PropOp50
 70
     1
102
RTVSPost2010Prop51ColorIndex
 90
      256
102
RTVSPost2010Prop51ColorRGB
 90
-16777216
102
RTVSPost2010PropOp51
 70
     0
102
RTVSPost2010Prop52
140
1.0
102
RTVSPost2010PropOp52
 70
     0
102
RTVSPost2010Prop53
 90
        2
102
RTVSPost2010PropOp53
 70
     1
102
RTVSPost2010Prop54
  1
strokes_ogs.tif
102
RTVSPost2010PropOp54
 70
     1
102
RTVSPost2010Prop55
280
     0
102
RTVSPost2010PropOp55
 70
     1
102
RTVSPost2010Prop56
140
1.0
102
RTVSPost2010PropOp56
 70
     1
102
RTVSPost2010Prop57
140
1.0
102
RTVSPost2010PropOp57
 70
     1
  0
XRECORD
  5
13BDC
102
{ACAD_REACTORS
330
13BDB
102
}
330
13BDB
100
AcDbXrecord
280
     1
102
RTVSPost2010Prop28
280
     0
102
RTVSPost2010PropOp28
 70
     1
102
RTVSPost2010Prop29
280
     1
102
RTVSPost2010PropOp29
 70
     1
102
RTVSPost2010Prop30
280
     1
102
RTVSPost2010PropOp30
 70
     1
102
RTVSPost2010Prop31
280
     0
102
RTVSPost2010PropOp31
 70
     1
102
RTVSPost2010Prop32
280
     0
102
RTVSPost2010PropOp32
 70
     1
102
RTVSPost2010Prop33
280
     0
102
RTVSPost2010PropOp33
 70
     1
102
RTVSPost2010Prop34
280
     0
102
RTVSPost2010PropOp34
 70
     1
102
RTVSPost2010Prop35
280
     0
102
RTVSPost2010PropOp35
 70
     1
102
RTVSPost2010Prop36
280
     0
102
RTVSPost2010PropOp36
 70
     1
102
RTVSPost2010Prop37
 90
       50
102
RTVSPost2010PropOp37
 70
     1
102
RTVSPost2010Prop38
140
0.0
102
RTVSPost2010PropOp38
 70
     1
102
RTVSPost2010Prop39
140
1.0
102
RTVSPost2010PropOp39
 70
     1
102
RTVSPost2010Prop40
 90
        0
102
RTVSPost2010PropOp40
 70
     1
102
RTVSPost2010Prop41ColorIndex
 90
       18
102
RTVSPost2010Prop41ColorRGB
 90
        0
102
RTVSPost2010PropOp41
 70
     1
102
RTVSPost2010Prop42
 90
       50
102
RTVSPost2010PropOp42
 70
     1
102
RTVSPost2010Prop43
 90
        3
102
RTVSPost2010PropOp43
 70
     1
102
RTVSPost2010Prop44ColorIndex
 90
        5
102
RTVSPost2010Prop44ColorRGB
 90
      255
102
RTVSPost2010PropOp44
 70
     1
102
RTVSPost2010Prop45
280
     0
102
RTVSPost2010PropOp45
 70
     1
102
RTVSPost2010Prop46
 90
       50
102
RTVSPost2010PropOp46
 70
     1
102
RTVSPost2010Prop47
 90
       50
102
RTVSPost2010PropOp47
 70
     1
102
RTVSPost2010Prop48
 90
       50
102
RTVSPost2010PropOp48
 70
     1
102
RTVSPost2010Prop49
280
     0
102
RTVSPost2010PropOp49
 70
     1
102
RTVSPost2010Prop50
 90
       50
102
RTVSPost2010PropOp50
 70
     1
102
RTVSPost2010Prop51ColorIndex
 90
      256
102
RTVSPost2010Prop51ColorRGB
 90
-16777216
102
RTVSPost2010PropOp51
 70
     0
102
RTVSPost2010Prop52
140
1.0
102
RTVSPost2010PropOp52
 70
     0
102
RTVSPost2010Prop53
 90
        2
102
RTVSPost2010PropOp53
 70
     1
102
RTVSPost2010Prop54
  1
strokes_ogs.tif
102
RTVSPost2010PropOp54
 70
     1
102
RTVSPost2010Prop55
280
     0
102
RTVSPost2010PropOp55
 70
     1
102
RTVSPost2010Prop56
140
1.0
102
RTVSPost2010PropOp56
 70
     1
102
RTVSPost2010Prop57
140
1.0
102
RTVSPost2010PropOp57
 70
     1
  0
XRECORD
  5
13BCE
102
{ACAD_REACTORS
330
13BCD
102
}
330
13BCD
100
AcDbXrecord
280
     1
102
RTVSPost2010Prop28
280
     0
102
RTVSPost2010PropOp28
 70
     1
102
RTVSPost2010Prop29
280
     1
102
RTVSPost2010PropOp29
 70
     1
102
RTVSPost2010Prop30
280
     1
102
RTVSPost2010PropOp30
 70
     1
102
RTVSPost2010Prop31
280
     0
102
RTVSPost2010PropOp31
 70
     1
102
RTVSPost2010Prop32
280
     0
102
RTVSPost2010PropOp32
 70
     1
102
RTVSPost2010Prop33
280
     0
102
RTVSPost2010PropOp33
 70
     1
102
RTVSPost2010Prop34
280
     0
102
RTVSPost2010PropOp34
 70
     1
102
RTVSPost2010Prop35
280
     0
102
RTVSPost2010PropOp35
 70
     1
102
RTVSPost2010Prop36
280
     0
102
RTVSPost2010PropOp36
 70
     1
102
RTVSPost2010Prop37
 90
       50
102
RTVSPost2010PropOp37
 70
     1
102
RTVSPost2010Prop38
140
0.0
102
RTVSPost2010PropOp38
 70
     1
102
RTVSPost2010Prop39
140
1.0
102
RTVSPost2010PropOp39
 70
     1
102
RTVSPost2010Prop40
 90
        0
102
RTVSPost2010PropOp40
 70
     1
102
RTVSPost2010Prop41ColorIndex
 90
       18
102
RTVSPost2010Prop41ColorRGB
 90
        0
102
RTVSPost2010PropOp41
 70
     1
102
RTVSPost2010Prop42
 90
       50
102
RTVSPost2010PropOp42
 70
     1
102
RTVSPost2010Prop43
 90
        3
102
RTVSPost2010PropOp43
 70
     1
102
RTVSPost2010Prop44ColorIndex
 90
        5
102
RTVSPost2010Prop44ColorRGB
 90
      255
102
RTVSPost2010PropOp44
 70
     1
102
RTVSPost2010Prop45
280
     0
102
RTVSPost2010PropOp45
 70
     1
102
RTVSPost2010Prop46
 90
       50
102
RTVSPost2010PropOp46
 70
     1
102
RTVSPost2010Prop47
 90
       50
102
RTVSPost2010PropOp47
 70
     1
102
RTVSPost2010Prop48
 90
       50
102
RTVSPost2010PropOp48
 70
     1
102
RTVSPost2010Prop49
280
     0
102
RTVSPost2010PropOp49
 70
     1
102
RTVSPost2010Prop50
 90
       50
102
RTVSPost2010PropOp50
 70
     1
102
RTVSPost2010Prop51ColorIndex
 90
      256
102
RTVSPost2010Prop51ColorRGB
 90
-16777216
102
RTVSPost2010PropOp51
 70
     0
102
RTVSPost2010Prop52
140
1.0
102
RTVSPost2010PropOp52
 70
     0
102
RTVSPost2010Prop53
 90
        2
102
RTVSPost2010PropOp53
 70
     1
102
RTVSPost2010Prop54
  1
strokes_ogs.tif
102
RTVSPost2010PropOp54
 70
     1
102
RTVSPost2010Prop55
280
     0
102
RTVSPost2010PropOp55
 70
     1
102
RTVSPost2010Prop56
140
1.0
102
RTVSPost2010PropOp56
 70
     1
102
RTVSPost2010Prop57
140
1.0
102
RTVSPost2010PropOp57
 70
     1
  0
XRECORD
  5
13BD2
102
{ACAD_REACTORS
330
13BD1
102
}
330
13BD1
100
AcDbXrecord
280
     1
102
RTVSPost2010Prop28
280
     0
102
RTVSPost2010PropOp28
 70
     1
102
RTVSPost2010Prop29
280
     1
102
RTVSPost2010PropOp29
 70
     1
102
RTVSPost2010Prop30
280
     1
102
RTVSPost2010PropOp30
 70
     1
102
RTVSPost2010Prop31
280
     0
102
RTVSPost2010PropOp31
 70
     1
102
RTVSPost2010Prop32
280
     0
102
RTVSPost2010PropOp32
 70
     1
102
RTVSPost2010Prop33
280
     0
102
RTVSPost2010PropOp33
 70
     1
102
RTVSPost2010Prop34
280
     0
102
RTVSPost2010PropOp34
 70
     1
102
RTVSPost2010Prop35
280
     0
102
RTVSPost2010PropOp35
 70
     1
102
RTVSPost2010Prop36
280
     0
102
RTVSPost2010PropOp36
 70
     1
102
RTVSPost2010Prop37
 90
       50
102
RTVSPost2010PropOp37
 70
     1
102
RTVSPost2010Prop38
140
0.0
102
RTVSPost2010PropOp38
 70
     1
102
RTVSPost2010Prop39
140
1.0
102
RTVSPost2010PropOp39
 70
     1
102
RTVSPost2010Prop40
 90
        0
102
RTVSPost2010PropOp40
 70
     1
102
RTVSPost2010Prop41ColorIndex
 90
       18
102
RTVSPost2010Prop41ColorRGB
 90
        0
102
RTVSPost2010PropOp41
 70
     1
102
RTVSPost2010Prop42
 90
       50
102
RTVSPost2010PropOp42
 70
     1
102
RTVSPost2010Prop43
 90
        3
102
RTVSPost2010PropOp43
 70
     1
102
RTVSPost2010Prop44ColorIndex
 90
        5
102
RTVSPost2010Prop44ColorRGB
 90
      255
102
RTVSPost2010PropOp44
 70
     1
102
RTVSPost2010Prop45
280
     0
102
RTVSPost2010PropOp45
 70
     1
102
RTVSPost2010Prop46
 90
       50
102
RTVSPost2010PropOp46
 70
     1
102
RTVSPost2010Prop47
 90
       50
102
RTVSPost2010PropOp47
 70
     1
102
RTVSPost2010Prop48
 90
       50
102
RTVSPost2010PropOp48
 70
     1
102
RTVSPost2010Prop49
280
     0
102
RTVSPost2010PropOp49
 70
     1
102
RTVSPost2010Prop50
 90
       50
102
RTVSPost2010PropOp50
 70
     1
102
RTVSPost2010Prop51ColorIndex
 90
      256
102
RTVSPost2010Prop51ColorRGB
 90
-16777216
102
RTVSPost2010PropOp51
 70
     0
102
RTVSPost2010Prop52
140
1.0
102
RTVSPost2010PropOp52
 70
     0
102
RTVSPost2010Prop53
 90
        2
102
RTVSPost2010PropOp53
 70
     1
102
RTVSPost2010Prop54
  1
strokes_ogs.tif
102
RTVSPost2010PropOp54
 70
     1
102
RTVSPost2010Prop55
280
     0
102
RTVSPost2010PropOp55
 70
     1
102
RTVSPost2010Prop56
140
1.0
102
RTVSPost2010PropOp56
 70
     1
102
RTVSPost2010Prop57
140
1.0
102
RTVSPost2010PropOp57
 70
     1
  0
XRECORD
  5
13BEC
102
{ACAD_REACTORS
330
13BEB
102
}
330
13BEB
100
AcDbXrecord
280
     1
102
RTVSPost2010Prop28
280
     0
102
RTVSPost2010PropOp28
 70
     0
102
RTVSPost2010Prop29
280
     1
102
RTVSPost2010PropOp29
 70
     0
102
RTVSPost2010Prop30
280
     1
102
RTVSPost2010PropOp30
 70
     0
102
RTVSPost2010Prop31
280
     0
102
RTVSPost2010PropOp31
 70
     0
102
RTVSPost2010Prop32
280
     0
102
RTVSPost2010PropOp32
 70
     0
102
RTVSPost2010Prop33
280
     0
102
RTVSPost2010PropOp33
 70
     0
102
RTVSPost2010Prop34
280
     0
102
RTVSPost2010PropOp34
 70
     0
102
RTVSPost2010Prop35
280
     0
102
RTVSPost2010PropOp35
 70
     0
102
RTVSPost2010Prop36
280
     0
102
RTVSPost2010PropOp36
 70
     0
102
RTVSPost2010Prop37
 90
       50
102
RTVSPost2010PropOp37
 70
     0
102
RTVSPost2010Prop38
140
0.0
102
RTVSPost2010PropOp38
 70
     0
102
RTVSPost2010Prop39
140
1.0
102
RTVSPost2010PropOp39
 70
     0
102
RTVSPost2010Prop40
 90
        0
102
RTVSPost2010PropOp40
 70
     0
102
RTVSPost2010Prop41ColorIndex
 90
       18
102
RTVSPost2010Prop41ColorRGB
 90
        0
102
RTVSPost2010PropOp41
 70
     0
102
RTVSPost2010Prop42
 90
       50
102
RTVSPost2010PropOp42
 70
     0
102
RTVSPost2010Prop43
 90
        3
102
RTVSPost2010PropOp43
 70
     0
102
RTVSPost2010Prop44ColorIndex
 90
        5
102
RTVSPost2010Prop44ColorRGB
 90
      255
102
RTVSPost2010PropOp44
 70
     0
102
RTVSPost2010Prop45
280
     0
102
RTVSPost2010PropOp45
 70
     0
102
RTVSPost2010Prop46
 90
       50
102
RTVSPost2010PropOp46
 70
     0
102
RTVSPost2010Prop47
 90
       50
102
RTVSPost2010PropOp47
 70
     0
102
RTVSPost2010Prop48
 90
       50
102
RTVSPost2010PropOp48
 70
     0
102
RTVSPost2010Prop49
280
     0
102
RTVSPost2010PropOp49
 70
     0
102
RTVSPost2010Prop50
 90
       50
102
RTVSPost2010PropOp50
 70
     0
102
RTVSPost2010Prop51ColorIndex
 90
      256
102
RTVSPost2010Prop51ColorRGB
 90
-16777216
102
RTVSPost2010PropOp51
 70
     0
102
RTVSPost2010Prop52
140
1.0
102
RTVSPost2010PropOp52
 70
     0
102
RTVSPost2010Prop53
 90
        2
102
RTVSPost2010PropOp53
 70
     0
102
RTVSPost2010Prop54
  1
strokes_ogs.tif
102
RTVSPost2010PropOp54
 70
     0
102
RTVSPost2010Prop55
280
     0
102
RTVSPost2010PropOp55
 70
     0
102
RTVSPost2010Prop56
140
1.0
102
RTVSPost2010PropOp56
 70
     0
102
RTVSPost2010Prop57
140
1.0
102
RTVSPost2010PropOp57
 70
     0
  0
XRECORD
  5
13BDA
102
{ACAD_REACTORS
330
13BD9
102
}
330
13BD9
100
AcDbXrecord
280
     1
102
RTVSPost2010Prop28
280
     0
102
RTVSPost2010PropOp28
 70
     1
102
RTVSPost2010Prop29
280
     1
102
RTVSPost2010PropOp29
 70
     1
102
RTVSPost2010Prop30
280
     1
102
RTVSPost2010PropOp30
 70
     1
102
RTVSPost2010Prop31
280
     0
102
RTVSPost2010PropOp31
 70
     1
102
RTVSPost2010Prop32
280
     0
102
RTVSPost2010PropOp32
 70
     1
102
RTVSPost2010Prop33
280
     0
102
RTVSPost2010PropOp33
 70
     1
102
RTVSPost2010Prop34
280
     0
102
RTVSPost2010PropOp34
 70
     1
102
RTVSPost2010Prop35
280
     0
102
RTVSPost2010PropOp35
 70
     1
102
RTVSPost2010Prop36
280
     0
102
RTVSPost2010PropOp36
 70
     1
102
RTVSPost2010Prop37
 90
       50
102
RTVSPost2010PropOp37
 70
     1
102
RTVSPost2010Prop38
140
0.0
102
RTVSPost2010PropOp38
 70
     1
102
RTVSPost2010Prop39
140
1.0
102
RTVSPost2010PropOp39
 70
     1
102
RTVSPost2010Prop40
 90
        0
102
RTVSPost2010PropOp40
 70
     1
102
RTVSPost2010Prop41ColorIndex
 90
       18
102
RTVSPost2010Prop41ColorRGB
 90
        0
102
RTVSPost2010PropOp41
 70
     1
102
RTVSPost2010Prop42
 90
       50
102
RTVSPost2010PropOp42
 70
     1
102
RTVSPost2010Prop43
 90
        3
102
RTVSPost2010PropOp43
 70
     1
102
RTVSPost2010Prop44ColorIndex
 90
        5
102
RTVSPost2010Prop44ColorRGB
 90
      255
102
RTVSPost2010PropOp44
 70
     1
102
RTVSPost2010Prop45
280
     0
102
RTVSPost2010PropOp45
 70
     1
102
RTVSPost2010Prop46
 90
       50
102
RTVSPost2010PropOp46
 70
     1
102
RTVSPost2010Prop47
 90
       50
102
RTVSPost2010PropOp47
 70
     1
102
RTVSPost2010Prop48
 90
       50
102
RTVSPost2010PropOp48
 70
     1
102
RTVSPost2010Prop49
280
     0
102
RTVSPost2010PropOp49
 70
     1
102
RTVSPost2010Prop50
 90
       50
102
RTVSPost2010PropOp50
 70
     1
102
RTVSPost2010Prop51ColorIndex
 90
      256
102
RTVSPost2010Prop51ColorRGB
 90
-16777216
102
RTVSPost2010PropOp51
 70
     0
102
RTVSPost2010Prop52
140
1.0
102
RTVSPost2010PropOp52
 70
     0
102
RTVSPost2010Prop53
 90
        2
102
RTVSPost2010PropOp53
 70
     1
102
RTVSPost2010Prop54
  1
strokes_ogs.tif
102
RTVSPost2010PropOp54
 70
     1
102
RTVSPost2010Prop55
280
     0
102
RTVSPost2010PropOp55
 70
     1
102
RTVSPost2010Prop56
140
1.0
102
RTVSPost2010PropOp56
 70
     1
102
RTVSPost2010Prop57
140
1.0
102
RTVSPost2010PropOp57
 70
     1
  0
XRECORD
  5
13BBE
102
{ACAD_REACTORS
330
13BBD
102
}
330
13BBD
100
AcDbXrecord
280
     1
102
RTVSPost2010Prop28
280
     0
102
RTVSPost2010PropOp28
 70
     1
102
RTVSPost2010Prop29
280
     1
102
RTVSPost2010PropOp29
 70
     1
102
RTVSPost2010Prop30
280
     1
102
RTVSPost2010PropOp30
 70
     1
102
RTVSPost2010Prop31
280
     0
102
RTVSPost2010PropOp31
 70
     1
102
RTVSPost2010Prop32
280
     0
102
RTVSPost2010PropOp32
 70
     1
102
RTVSPost2010Prop33
280
     0
102
RTVSPost2010PropOp33
 70
     1
102
RTVSPost2010Prop34
280
     0
102
RTVSPost2010PropOp34
 70
     1
102
RTVSPost2010Prop35
280
     0
102
RTVSPost2010PropOp35
 70
     1
102
RTVSPost2010Prop36
280
     0
102
RTVSPost2010PropOp36
 70
     1
102
RTVSPost2010Prop37
 90
       50
102
RTVSPost2010PropOp37
 70
     1
102
RTVSPost2010Prop38
140
0.0
102
RTVSPost2010PropOp38
 70
     1
102
RTVSPost2010Prop39
140
1.0
102
RTVSPost2010PropOp39
 70
     1
102
RTVSPost2010Prop40
 90
        0
102
RTVSPost2010PropOp40
 70
     1
102
RTVSPost2010Prop41ColorIndex
 90
       18
102
RTVSPost2010Prop41ColorRGB
 90
        0
102
RTVSPost2010PropOp41
 70
     1
102
RTVSPost2010Prop42
 90
       50
102
RTVSPost2010PropOp42
 70
     1
102
RTVSPost2010Prop43
 90
        3
102
RTVSPost2010PropOp43
 70
     1
102
RTVSPost2010Prop44ColorIndex
 90
        5
102
RTVSPost2010Prop44ColorRGB
 90
      255
102
RTVSPost2010PropOp44
 70
     1
102
RTVSPost2010Prop45
280
     0
102
RTVSPost2010PropOp45
 70
     1
102
RTVSPost2010Prop46
 90
       50
102
RTVSPost2010PropOp46
 70
     1
102
RTVSPost2010Prop47
 90
       50
102
RTVSPost2010PropOp47
 70
     1
102
RTVSPost2010Prop48
 90
       50
102
RTVSPost2010PropOp48
 70
     1
102
RTVSPost2010Prop49
280
     0
102
RTVSPost2010PropOp49
 70
     1
102
RTVSPost2010Prop50
 90
       50
102
RTVSPost2010PropOp50
 70
     1
102
RTVSPost2010Prop51ColorIndex
 90
      256
102
RTVSPost2010Prop51ColorRGB
 90
-16777216
102
RTVSPost2010PropOp51
 70
     0
102
RTVSPost2010Prop52
140
1.0
102
RTVSPost2010PropOp52
 70
     0
102
RTVSPost2010Prop53
 90
        2
102
RTVSPost2010PropOp53
 70
     1
102
RTVSPost2010Prop54
  1
strokes_ogs.tif
102
RTVSPost2010PropOp54
 70
     1
102
RTVSPost2010Prop55
280
     0
102
RTVSPost2010PropOp55
 70
     1
102
RTVSPost2010Prop56
140
1.0
102
RTVSPost2010PropOp56
 70
     1
102
RTVSPost2010Prop57
140
1.0
102
RTVSPost2010PropOp57
 70
     1
  0
XRECORD
  5
13BC0
102
{ACAD_REACTORS
330
13BBF
102
}
330
13BBF
100
AcDbXrecord
280
     1
102
RTVSPost2010Prop28
280
     0
102
RTVSPost2010PropOp28
 70
     1
102
RTVSPost2010Prop29
280
     1
102
RTVSPost2010PropOp29
 70
     1
102
RTVSPost2010Prop30
280
     1
102
RTVSPost2010PropOp30
 70
     1
102
RTVSPost2010Prop31
280
     0
102
RTVSPost2010PropOp31
 70
     1
102
RTVSPost2010Prop32
280
     0
102
RTVSPost2010PropOp32
 70
     1
102
RTVSPost2010Prop33
280
     0
102
RTVSPost2010PropOp33
 70
     1
102
RTVSPost2010Prop34
280
     0
102
RTVSPost2010PropOp34
 70
     1
102
RTVSPost2010Prop35
280
     0
102
RTVSPost2010PropOp35
 70
     1
102
RTVSPost2010Prop36
280
     0
102
RTVSPost2010PropOp36
 70
     1
102
RTVSPost2010Prop37
 90
       50
102
RTVSPost2010PropOp37
 70
     1
102
RTVSPost2010Prop38
140
0.0
102
RTVSPost2010PropOp38
 70
     1
102
RTVSPost2010Prop39
140
1.0
102
RTVSPost2010PropOp39
 70
     1
102
RTVSPost2010Prop40
 90
        0
102
RTVSPost2010PropOp40
 70
     1
102
RTVSPost2010Prop41ColorIndex
 90
       18
102
RTVSPost2010Prop41ColorRGB
 90
        0
102
RTVSPost2010PropOp41
 70
     1
102
RTVSPost2010Prop42
 90
       50
102
RTVSPost2010PropOp42
 70
     1
102
RTVSPost2010Prop43
 90
        3
102
RTVSPost2010PropOp43
 70
     1
102
RTVSPost2010Prop44ColorIndex
 90
        5
102
RTVSPost2010Prop44ColorRGB
 90
      255
102
RTVSPost2010PropOp44
 70
     1
102
RTVSPost2010Prop45
280
     0
102
RTVSPost2010PropOp45
 70
     1
102
RTVSPost2010Prop46
 90
       50
102
RTVSPost2010PropOp46
 70
     1
102
RTVSPost2010Prop47
 90
       50
102
RTVSPost2010PropOp47
 70
     1
102
RTVSPost2010Prop48
 90
       50
102
RTVSPost2010PropOp48
 70
     1
102
RTVSPost2010Prop49
280
     0
102
RTVSPost2010PropOp49
 70
     1
102
RTVSPost2010Prop50
 90
       50
102
RTVSPost2010PropOp50
 70
     1
102
RTVSPost2010Prop51ColorIndex
 90
      256
102
RTVSPost2010Prop51ColorRGB
 90
-16777216
102
RTVSPost2010PropOp51
 70
     0
102
RTVSPost2010Prop52
140
1.0
102
RTVSPost2010PropOp52
 70
     0
102
RTVSPost2010Prop53
 90
        2
102
RTVSPost2010PropOp53
 70
     1
102
RTVSPost2010Prop54
  1
strokes_ogs.tif
102
RTVSPost2010PropOp54
 70
     1
102
RTVSPost2010Prop55
280
     0
102
RTVSPost2010PropOp55
 70
     1
102
RTVSPost2010Prop56
140
1.0
102
RTVSPost2010PropOp56
 70
     1
102
RTVSPost2010Prop57
140
1.0
102
RTVSPost2010PropOp57
 70
     1
  0
XRECORD
  5
13BC2
102
{ACAD_REACTORS
330
13BC1
102
}
330
13BC1
100
AcDbXrecord
280
     1
102
RTVSPost2010Prop28
280
     0
102
RTVSPost2010PropOp28
 70
     1
102
RTVSPost2010Prop29
280
     1
102
RTVSPost2010PropOp29
 70
     1
102
RTVSPost2010Prop30
280
     1
102
RTVSPost2010PropOp30
 70
     1
102
RTVSPost2010Prop31
280
     0
102
RTVSPost2010PropOp31
 70
     1
102
RTVSPost2010Prop32
280
     0
102
RTVSPost2010PropOp32
 70
     1
102
RTVSPost2010Prop33
280
     0
102
RTVSPost2010PropOp33
 70
     1
102
RTVSPost2010Prop34
280
     0
102
RTVSPost2010PropOp34
 70
     1
102
RTVSPost2010Prop35
280
     0
102
RTVSPost2010PropOp35
 70
     1
102
RTVSPost2010Prop36
280
     0
102
RTVSPost2010PropOp36
 70
     1
102
RTVSPost2010Prop37
 90
       50
102
RTVSPost2010PropOp37
 70
     1
102
RTVSPost2010Prop38
140
0.0
102
RTVSPost2010PropOp38
 70
     1
102
RTVSPost2010Prop39
140
1.0
102
RTVSPost2010PropOp39
 70
     1
102
RTVSPost2010Prop40
 90
        0
102
RTVSPost2010PropOp40
 70
     1
102
RTVSPost2010Prop41ColorIndex
 90
       18
102
RTVSPost2010Prop41ColorRGB
 90
        0
102
RTVSPost2010PropOp41
 70
     1
102
RTVSPost2010Prop42
 90
       50
102
RTVSPost2010PropOp42
 70
     1
102
RTVSPost2010Prop43
 90
        3
102
RTVSPost2010PropOp43
 70
     1
102
RTVSPost2010Prop44ColorIndex
 90
        5
102
RTVSPost2010Prop44ColorRGB
 90
      255
102
RTVSPost2010PropOp44
 70
     1
102
RTVSPost2010Prop45
280
     0
102
RTVSPost2010PropOp45
 70
     1
102
RTVSPost2010Prop46
 90
       50
102
RTVSPost2010PropOp46
 70
     1
102
RTVSPost2010Prop47
 90
       50
102
RTVSPost2010PropOp47
 70
     1
102
RTVSPost2010Prop48
 90
       50
102
RTVSPost2010PropOp48
 70
     1
102
RTVSPost2010Prop49
280
     0
102
RTVSPost2010PropOp49
 70
     1
102
RTVSPost2010Prop50
 90
       50
102
RTVSPost2010PropOp50
 70
     1
102
RTVSPost2010Prop51ColorIndex
 90
      256
102
RTVSPost2010Prop51ColorRGB
 90
-16777216
102
RTVSPost2010PropOp51
 70
     0
102
RTVSPost2010Prop52
140
1.0
102
RTVSPost2010PropOp52
 70
     0
102
RTVSPost2010Prop53
 90
        2
102
RTVSPost2010PropOp53
 70
     1
102
RTVSPost2010Prop54
  1
strokes_ogs.tif
102
RTVSPost2010PropOp54
 70
     1
102
RTVSPost2010Prop55
280
     0
102
RTVSPost2010PropOp55
 70
     1
102
RTVSPost2010Prop56
140
1.0
102
RTVSPost2010PropOp56
 70
     1
102
RTVSPost2010Prop57
140
1.0
102
RTVSPost2010PropOp57
 70
     1
  0
XRECORD
  5
13BC4
102
{ACAD_REACTORS
330
13BC3
102
}
330
13BC3
100
AcDbXrecord
280
     1
102
RTVSPost2010Prop28
280
     0
102
RTVSPost2010PropOp28
 70
     1
102
RTVSPost2010Prop29
280
     1
102
RTVSPost2010PropOp29
 70
     1
102
RTVSPost2010Prop30
280
     1
102
RTVSPost2010PropOp30
 70
     1
102
RTVSPost2010Prop31
280
     0
102
RTVSPost2010PropOp31
 70
     1
102
RTVSPost2010Prop32
280
     0
102
RTVSPost2010PropOp32
 70
     1
102
RTVSPost2010Prop33
280
     0
102
RTVSPost2010PropOp33
 70
     1
102
RTVSPost2010Prop34
280
     0
102
RTVSPost2010PropOp34
 70
     1
102
RTVSPost2010Prop35
280
     0
102
RTVSPost2010PropOp35
 70
     1
102
RTVSPost2010Prop36
280
     0
102
RTVSPost2010PropOp36
 70
     1
102
RTVSPost2010Prop37
 90
       50
102
RTVSPost2010PropOp37
 70
     1
102
RTVSPost2010Prop38
140
0.0
102
RTVSPost2010PropOp38
 70
     1
102
RTVSPost2010Prop39
140
1.0
102
RTVSPost2010PropOp39
 70
     1
102
RTVSPost2010Prop40
 90
        0
102
RTVSPost2010PropOp40
 70
     1
102
RTVSPost2010Prop41ColorIndex
 90
       18
102
RTVSPost2010Prop41ColorRGB
 90
        0
102
RTVSPost2010PropOp41
 70
     1
102
RTVSPost2010Prop42
 90
       50
102
RTVSPost2010PropOp42
 70
     1
102
RTVSPost2010Prop43
 90
        3
102
RTVSPost2010PropOp43
 70
     1
102
RTVSPost2010Prop44ColorIndex
 90
        5
102
RTVSPost2010Prop44ColorRGB
 90
      255
102
RTVSPost2010PropOp44
 70
     1
102
RTVSPost2010Prop45
280
     0
102
RTVSPost2010PropOp45
 70
     1
102
RTVSPost2010Prop46
 90
       50
102
RTVSPost2010PropOp46
 70
     1
102
RTVSPost2010Prop47
 90
       50
102
RTVSPost2010PropOp47
 70
     1
102
RTVSPost2010Prop48
 90
       50
102
RTVSPost2010PropOp48
 70
     1
102
RTVSPost2010Prop49
280
     0
102
RTVSPost2010PropOp49
 70
     1
102
RTVSPost2010Prop50
 90
       50
102
RTVSPost2010PropOp50
 70
     1
102
RTVSPost2010Prop51ColorIndex
 90
      256
102
RTVSPost2010Prop51ColorRGB
 90
-16777216
102
RTVSPost2010PropOp51
 70
     0
102
RTVSPost2010Prop52
140
1.0
102
RTVSPost2010PropOp52
 70
     0
102
RTVSPost2010Prop53
 90
        2
102
RTVSPost2010PropOp53
 70
     1
102
RTVSPost2010Prop54
  1
strokes_ogs.tif
102
RTVSPost2010PropOp54
 70
     1
102
RTVSPost2010Prop55
280
     0
102
RTVSPost2010PropOp55
 70
     1
102
RTVSPost2010Prop56
140
1.0
102
RTVSPost2010PropOp56
 70
     1
102
RTVSPost2010Prop57
140
1.0
102
RTVSPost2010PropOp57
 70
     1
  0
XRECORD
  5
13BCC
102
{ACAD_REACTORS
330
13BCB
102
}
330
13BCB
100
AcDbXrecord
280
     1
102
RTVSPost2010Prop28
280
     0
102
RTVSPost2010PropOp28
 70
     1
102
RTVSPost2010Prop29
280
     1
102
RTVSPost2010PropOp29
 70
     1
102
RTVSPost2010Prop30
280
     1
102
RTVSPost2010PropOp30
 70
     1
102
RTVSPost2010Prop31
280
     0
102
RTVSPost2010PropOp31
 70
     1
102
RTVSPost2010Prop32
280
     0
102
RTVSPost2010PropOp32
 70
     1
102
RTVSPost2010Prop33
280
     0
102
RTVSPost2010PropOp33
 70
     1
102
RTVSPost2010Prop34
280
     0
102
RTVSPost2010PropOp34
 70
     1
102
RTVSPost2010Prop35
280
     0
102
RTVSPost2010PropOp35
 70
     1
102
RTVSPost2010Prop36
280
     0
102
RTVSPost2010PropOp36
 70
     1
102
RTVSPost2010Prop37
 90
       50
102
RTVSPost2010PropOp37
 70
     1
102
RTVSPost2010Prop38
140
0.0
102
RTVSPost2010PropOp38
 70
     1
102
RTVSPost2010Prop39
140
1.0
102
RTVSPost2010PropOp39
 70
     1
102
RTVSPost2010Prop40
 90
        0
102
RTVSPost2010PropOp40
 70
     1
102
RTVSPost2010Prop41ColorIndex
 90
       18
102
RTVSPost2010Prop41ColorRGB
 90
        0
102
RTVSPost2010PropOp41
 70
     1
102
RTVSPost2010Prop42
 90
       50
102
RTVSPost2010PropOp42
 70
     1
102
RTVSPost2010Prop43
 90
        3
102
RTVSPost2010PropOp43
 70
     1
102
RTVSPost2010Prop44ColorIndex
 90
        5
102
RTVSPost2010Prop44ColorRGB
 90
      255
102
RTVSPost2010PropOp44
 70
     1
102
RTVSPost2010Prop45
280
     0
102
RTVSPost2010PropOp45
 70
     1
102
RTVSPost2010Prop46
 90
       50
102
RTVSPost2010PropOp46
 70
     1
102
RTVSPost2010Prop47
 90
       50
102
RTVSPost2010PropOp47
 70
     1
102
RTVSPost2010Prop48
 90
       50
102
RTVSPost2010PropOp48
 70
     1
102
RTVSPost2010Prop49
280
     0
102
RTVSPost2010PropOp49
 70
     1
102
RTVSPost2010Prop50
 90
       50
102
RTVSPost2010PropOp50
 70
     1
102
RTVSPost2010Prop51ColorIndex
 90
      256
102
RTVSPost2010Prop51ColorRGB
 90
-16777216
102
RTVSPost2010PropOp51
 70
     0
102
RTVSPost2010Prop52
140
1.0
102
RTVSPost2010PropOp52
 70
     0
102
RTVSPost2010Prop53
 90
        2
102
RTVSPost2010PropOp53
 70
     1
102
RTVSPost2010Prop54
  1
strokes_ogs.tif
102
RTVSPost2010PropOp54
 70
     1
102
RTVSPost2010Prop55
280
     0
102
RTVSPost2010PropOp55
 70
     1
102
RTVSPost2010Prop56
140
1.0
102
RTVSPost2010PropOp56
 70
     1
102
RTVSPost2010Prop57
140
1.0
102
RTVSPost2010PropOp57
 70
     1
  0
XRECORD
  5
13BE8
102
{ACAD_REACTORS
330
13BE7
102
}
330
13BE7
100
AcDbXrecord
280
     1
102
RTVSPost2010Prop28
280
     0
102
RTVSPost2010PropOp28
 70
     0
102
RTVSPost2010Prop29
280
     1
102
RTVSPost2010PropOp29
 70
     0
102
RTVSPost2010Prop30
280
     1
102
RTVSPost2010PropOp30
 70
     0
102
RTVSPost2010Prop31
280
     0
102
RTVSPost2010PropOp31
 70
     0
102
RTVSPost2010Prop32
280
     0
102
RTVSPost2010PropOp32
 70
     0
102
RTVSPost2010Prop33
280
     0
102
RTVSPost2010PropOp33
 70
     0
102
RTVSPost2010Prop34
280
     0
102
RTVSPost2010PropOp34
 70
     0
102
RTVSPost2010Prop35
280
     0
102
RTVSPost2010PropOp35
 70
     0
102
RTVSPost2010Prop36
280
     0
102
RTVSPost2010PropOp36
 70
     0
102
RTVSPost2010Prop37
 90
       50
102
RTVSPost2010PropOp37
 70
     0
102
RTVSPost2010Prop38
140
0.0
102
RTVSPost2010PropOp38
 70
     0
102
RTVSPost2010Prop39
140
1.0
102
RTVSPost2010PropOp39
 70
     0
102
RTVSPost2010Prop40
 90
        0
102
RTVSPost2010PropOp40
 70
     0
102
RTVSPost2010Prop41ColorIndex
 90
       18
102
RTVSPost2010Prop41ColorRGB
 90
        0
102
RTVSPost2010PropOp41
 70
     0
102
RTVSPost2010Prop42
 90
       50
102
RTVSPost2010PropOp42
 70
     0
102
RTVSPost2010Prop43
 90
        3
102
RTVSPost2010PropOp43
 70
     0
102
RTVSPost2010Prop44ColorIndex
 90
        5
102
RTVSPost2010Prop44ColorRGB
 90
      255
102
RTVSPost2010PropOp44
 70
     0
102
RTVSPost2010Prop45
280
     0
102
RTVSPost2010PropOp45
 70
     0
102
RTVSPost2010Prop46
 90
       50
102
RTVSPost2010PropOp46
 70
     0
102
RTVSPost2010Prop47
 90
       50
102
RTVSPost2010PropOp47
 70
     0
102
RTVSPost2010Prop48
 90
       50
102
RTVSPost2010PropOp48
 70
     0
102
RTVSPost2010Prop49
280
     0
102
RTVSPost2010PropOp49
 70
     0
102
RTVSPost2010Prop50
 90
       50
102
RTVSPost2010PropOp50
 70
     0
102
RTVSPost2010Prop51ColorIndex
 90
      256
102
RTVSPost2010Prop51ColorRGB
 90
-16777216
102
RTVSPost2010PropOp51
 70
     0
102
RTVSPost2010Prop52
140
1.0
102
RTVSPost2010PropOp52
 70
     0
102
RTVSPost2010Prop53
 90
        2
102
RTVSPost2010PropOp53
 70
     0
102
RTVSPost2010Prop54
  1
strokes_ogs.tif
102
RTVSPost2010PropOp54
 70
     0
102
RTVSPost2010Prop55
280
     0
102
RTVSPost2010PropOp55
 70
     0
102
RTVSPost2010Prop56
140
1.0
102
RTVSPost2010PropOp56
 70
     0
102
RTVSPost2010Prop57
140
1.0
102
RTVSPost2010PropOp57
 70
     0
  0
XRECORD
  5
13BD8
102
{ACAD_REACTORS
330
13BD7
102
}
330
13BD7
100
AcDbXrecord
280
     1
102
RTVSPost2010Prop28
280
     0
102
RTVSPost2010PropOp28
 70
     1
102
RTVSPost2010Prop29
280
     1
102
RTVSPost2010PropOp29
 70
     1
102
RTVSPost2010Prop30
280
     1
102
RTVSPost2010PropOp30
 70
     1
102
RTVSPost2010Prop31
280
     0
102
RTVSPost2010PropOp31
 70
     1
102
RTVSPost2010Prop32
280
     0
102
RTVSPost2010PropOp32
 70
     1
102
RTVSPost2010Prop33
280
     0
102
RTVSPost2010PropOp33
 70
     1
102
RTVSPost2010Prop34
280
     0
102
RTVSPost2010PropOp34
 70
     1
102
RTVSPost2010Prop35
280
     0
102
RTVSPost2010PropOp35
 70
     1
102
RTVSPost2010Prop36
280
     0
102
RTVSPost2010PropOp36
 70
     1
102
RTVSPost2010Prop37
 90
       50
102
RTVSPost2010PropOp37
 70
     1
102
RTVSPost2010Prop38
140
0.0
102
RTVSPost2010PropOp38
 70
     1
102
RTVSPost2010Prop39
140
1.0
102
RTVSPost2010PropOp39
 70
     1
102
RTVSPost2010Prop40
 90
        0
102
RTVSPost2010PropOp40
 70
     1
102
RTVSPost2010Prop41ColorIndex
 90
       18
102
RTVSPost2010Prop41ColorRGB
 90
        0
102
RTVSPost2010PropOp41
 70
     1
102
RTVSPost2010Prop42
 90
       50
102
RTVSPost2010PropOp42
 70
     1
102
RTVSPost2010Prop43
 90
        3
102
RTVSPost2010PropOp43
 70
     1
102
RTVSPost2010Prop44ColorIndex
 90
        5
102
RTVSPost2010Prop44ColorRGB
 90
      255
102
RTVSPost2010PropOp44
 70
     1
102
RTVSPost2010Prop45
280
     0
102
RTVSPost2010PropOp45
 70
     1
102
RTVSPost2010Prop46
 90
       50
102
RTVSPost2010PropOp46
 70
     1
102
RTVSPost2010Prop47
 90
       50
102
RTVSPost2010PropOp47
 70
     1
102
RTVSPost2010Prop48
 90
       50
102
RTVSPost2010PropOp48
 70
     1
102
RTVSPost2010Prop49
280
     0
102
RTVSPost2010PropOp49
 70
     1
102
RTVSPost2010Prop50
 90
       50
102
RTVSPost2010PropOp50
 70
     1
102
RTVSPost2010Prop51ColorIndex
 90
      256
102
RTVSPost2010Prop51ColorRGB
 90
-16777216
102
RTVSPost2010PropOp51
 70
     0
102
RTVSPost2010Prop52
140
1.0
102
RTVSPost2010PropOp52
 70
     0
102
RTVSPost2010Prop53
 90
        2
102
RTVSPost2010PropOp53
 70
     1
102
RTVSPost2010Prop54
  1
strokes_ogs.tif
102
RTVSPost2010PropOp54
 70
     1
102
RTVSPost2010Prop55
280
     0
102
RTVSPost2010PropOp55
 70
     1
102
RTVSPost2010Prop56
140
1.0
102
RTVSPost2010PropOp56
 70
     1
102
RTVSPost2010Prop57
140
1.0
102
RTVSPost2010PropOp57
 70
     1
  0
XRECORD
  5
13BEA
102
{ACAD_REACTORS
330
13BE9
102
}
330
13BE9
100
AcDbXrecord
280
     1
102
RTVSPost2010Prop28
280
     0
102
RTVSPost2010PropOp28
 70
     0
102
RTVSPost2010Prop29
280
     1
102
RTVSPost2010PropOp29
 70
     0
102
RTVSPost2010Prop30
280
     1
102
RTVSPost2010PropOp30
 70
     0
102
RTVSPost2010Prop31
280
     0
102
RTVSPost2010PropOp31
 70
     0
102
RTVSPost2010Prop32
280
     0
102
RTVSPost2010PropOp32
 70
     0
102
RTVSPost2010Prop33
280
     0
102
RTVSPost2010PropOp33
 70
     0
102
RTVSPost2010Prop34
280
     0
102
RTVSPost2010PropOp34
 70
     0
102
RTVSPost2010Prop35
280
     0
102
RTVSPost2010PropOp35
 70
     0
102
RTVSPost2010Prop36
280
     0
102
RTVSPost2010PropOp36
 70
     0
102
RTVSPost2010Prop37
 90
       50
102
RTVSPost2010PropOp37
 70
     0
102
RTVSPost2010Prop38
140
0.0
102
RTVSPost2010PropOp38
 70
     0
102
RTVSPost2010Prop39
140
1.0
102
RTVSPost2010PropOp39
 70
     0
102
RTVSPost2010Prop40
 90
        0
102
RTVSPost2010PropOp40
 70
     0
102
RTVSPost2010Prop41ColorIndex
 90
       18
102
RTVSPost2010Prop41ColorRGB
 90
        0
102
RTVSPost2010PropOp41
 70
     0
102
RTVSPost2010Prop42
 90
       50
102
RTVSPost2010PropOp42
 70
     0
102
RTVSPost2010Prop43
 90
        3
102
RTVSPost2010PropOp43
 70
     0
102
RTVSPost2010Prop44ColorIndex
 90
        5
102
RTVSPost2010Prop44ColorRGB
 90
      255
102
RTVSPost2010PropOp44
 70
     0
102
RTVSPost2010Prop45
280
     0
102
RTVSPost2010PropOp45
 70
     0
102
RTVSPost2010Prop46
 90
       50
102
RTVSPost2010PropOp46
 70
     0
102
RTVSPost2010Prop47
 90
       50
102
RTVSPost2010PropOp47
 70
     0
102
RTVSPost2010Prop48
 90
       50
102
RTVSPost2010PropOp48
 70
     0
102
RTVSPost2010Prop49
280
     0
102
RTVSPost2010PropOp49
 70
     0
102
RTVSPost2010Prop50
 90
       50
102
RTVSPost2010PropOp50
 70
     0
102
RTVSPost2010Prop51ColorIndex
 90
      256
102
RTVSPost2010Prop51ColorRGB
 90
-16777216
102
RTVSPost2010PropOp51
 70
     0
102
RTVSPost2010Prop52
140
1.0
102
RTVSPost2010PropOp52
 70
     0
102
RTVSPost2010Prop53
 90
        2
102
RTVSPost2010PropOp53
 70
     0
102
RTVSPost2010Prop54
  1
strokes_ogs.tif
102
RTVSPost2010PropOp54
 70
     0
102
RTVSPost2010Prop55
280
     0
102
RTVSPost2010PropOp55
 70
     0
102
RTVSPost2010Prop56
140
1.0
102
RTVSPost2010PropOp56
 70
     0
102
RTVSPost2010Prop57
140
1.0
102
RTVSPost2010PropOp57
 70
     0
  0
XRECORD
  5
13BD0
102
{ACAD_REACTORS
330
13BCF
102
}
330
13BCF
100
AcDbXrecord
280
     1
102
RTVSPost2010Prop28
280
     0
102
RTVSPost2010PropOp28
 70
     1
102
RTVSPost2010Prop29
280
     1
102
RTVSPost2010PropOp29
 70
     1
102
RTVSPost2010Prop30
280
     1
102
RTVSPost2010PropOp30
 70
     1
102
RTVSPost2010Prop31
280
     0
102
RTVSPost2010PropOp31
 70
     1
102
RTVSPost2010Prop32
280
     0
102
RTVSPost2010PropOp32
 70
     1
102
RTVSPost2010Prop33
280
     0
102
RTVSPost2010PropOp33
 70
     1
102
RTVSPost2010Prop34
280
     0
102
RTVSPost2010PropOp34
 70
     1
102
RTVSPost2010Prop35
280
     0
102
RTVSPost2010PropOp35
 70
     1
102
RTVSPost2010Prop36
280
     0
102
RTVSPost2010PropOp36
 70
     1
102
RTVSPost2010Prop37
 90
       50
102
RTVSPost2010PropOp37
 70
     1
102
RTVSPost2010Prop38
140
0.0
102
RTVSPost2010PropOp38
 70
     1
102
RTVSPost2010Prop39
140
1.0
102
RTVSPost2010PropOp39
 70
     1
102
RTVSPost2010Prop40
 90
        0
102
RTVSPost2010PropOp40
 70
     1
102
RTVSPost2010Prop41ColorIndex
 90
       18
102
RTVSPost2010Prop41ColorRGB
 90
        0
102
RTVSPost2010PropOp41
 70
     1
102
RTVSPost2010Prop42
 90
       50
102
RTVSPost2010PropOp42
 70
     1
102
RTVSPost2010Prop43
 90
        3
102
RTVSPost2010PropOp43
 70
     1
102
RTVSPost2010Prop44ColorIndex
 90
        5
102
RTVSPost2010Prop44ColorRGB
 90
      255
102
RTVSPost2010PropOp44
 70
     1
102
RTVSPost2010Prop45
280
     0
102
RTVSPost2010PropOp45
 70
     1
102
RTVSPost2010Prop46
 90
       50
102
RTVSPost2010PropOp46
 70
     1
102
RTVSPost2010Prop47
 90
       50
102
RTVSPost2010PropOp47
 70
     1
102
RTVSPost2010Prop48
 90
       50
102
RTVSPost2010PropOp48
 70
     1
102
RTVSPost2010Prop49
280
     0
102
RTVSPost2010PropOp49
 70
     1
102
RTVSPost2010Prop50
 90
       50
102
RTVSPost2010PropOp50
 70
     1
102
RTVSPost2010Prop51ColorIndex
 90
      256
102
RTVSPost2010Prop51ColorRGB
 90
-16777216
102
RTVSPost2010PropOp51
 70
     0
102
RTVSPost2010Prop52
140
1.0
102
RTVSPost2010PropOp52
 70
     0
102
RTVSPost2010Prop53
 90
        2
102
RTVSPost2010PropOp53
 70
     1
102
RTVSPost2010Prop54
  1
strokes_ogs.tif
102
RTVSPost2010PropOp54
 70
     1
102
RTVSPost2010Prop55
280
     0
102
RTVSPost2010PropOp55
 70
     1
102
RTVSPost2010Prop56
140
1.0
102
RTVSPost2010PropOp56
 70
     1
102
RTVSPost2010Prop57
140
1.0
102
RTVSPost2010PropOp57
 70
     1
  0
XRECORD
  5
13BE6
102
{ACAD_REACTORS
330
13BE5
102
}
330
13BE5
100
AcDbXrecord
280
     1
102
RTVSPost2010Prop28
280
     0
102
RTVSPost2010PropOp28
 70
     1
102
RTVSPost2010Prop29
280
     1
102
RTVSPost2010PropOp29
 70
     1
102
RTVSPost2010Prop30
280
     1
102
RTVSPost2010PropOp30
 70
     1
102
RTVSPost2010Prop31
280
     0
102
RTVSPost2010PropOp31
 70
     1
102
RTVSPost2010Prop32
280
     0
102
RTVSPost2010PropOp32
 70
     1
102
RTVSPost2010Prop33
280
     0
102
RTVSPost2010PropOp33
 70
     1
102
RTVSPost2010Prop34
280
     0
102
RTVSPost2010PropOp34
 70
     1
102
RTVSPost2010Prop35
280
     0
102
RTVSPost2010PropOp35
 70
     1
102
RTVSPost2010Prop36
280
     0
102
RTVSPost2010PropOp36
 70
     1
102
RTVSPost2010Prop37
 90
       50
102
RTVSPost2010PropOp37
 70
     1
102
RTVSPost2010Prop38
140
0.0
102
RTVSPost2010PropOp38
 70
     1
102
RTVSPost2010Prop39
140
1.0
102
RTVSPost2010PropOp39
 70
     1
102
RTVSPost2010Prop40
 90
        0
102
RTVSPost2010PropOp40
 70
     1
102
RTVSPost2010Prop41ColorIndex
 90
       18
102
RTVSPost2010Prop41ColorRGB
 90
        0
102
RTVSPost2010PropOp41
 70
     1
102
RTVSPost2010Prop42
 90
       50
102
RTVSPost2010PropOp42
 70
     1
102
RTVSPost2010Prop43
 90
        3
102
RTVSPost2010PropOp43
 70
     1
102
RTVSPost2010Prop44ColorIndex
 90
        5
102
RTVSPost2010Prop44ColorRGB
 90
      255
102
RTVSPost2010PropOp44
 70
     1
102
RTVSPost2010Prop45
280
     0
102
RTVSPost2010PropOp45
 70
     1
102
RTVSPost2010Prop46
 90
       50
102
RTVSPost2010PropOp46
 70
     1
102
RTVSPost2010Prop47
 90
       50
102
RTVSPost2010PropOp47
 70
     1
102
RTVSPost2010Prop48
 90
       50
102
RTVSPost2010PropOp48
 70
     1
102
RTVSPost2010Prop49
280
     0
102
RTVSPost2010PropOp49
 70
     1
102
RTVSPost2010Prop50
 90
       50
102
RTVSPost2010PropOp50
 70
     1
102
RTVSPost2010Prop51ColorIndex
 90
      256
102
RTVSPost2010Prop51ColorRGB
 90
-16777216
102
RTVSPost2010PropOp51
 70
     0
102
RTVSPost2010Prop52
140
1.0
102
RTVSPost2010PropOp52
 70
     0
102
RTVSPost2010Prop53
 90
        2
102
RTVSPost2010PropOp53
 70
     1
102
RTVSPost2010Prop54
  1
strokes_ogs.tif
102
RTVSPost2010PropOp54
 70
     1
102
RTVSPost2010Prop55
280
     0
102
RTVSPost2010PropOp55
 70
     1
102
RTVSPost2010Prop56
140
1.0
102
RTVSPost2010PropOp56
 70
     1
102
RTVSPost2010Prop57
140
1.0
102
RTVSPost2010PropOp57
 70
     1
  0
XRECORD
  5
13BE4
102
{ACAD_REACTORS
330
13BE3
102
}
330
13BE3
100
AcDbXrecord
280
     1
102
RTVSPost2010Prop28
280
     0
102
RTVSPost2010PropOp28
 70
     1
102
RTVSPost2010Prop29
280
     1
102
RTVSPost2010PropOp29
 70
     1
102
RTVSPost2010Prop30
280
     1
102
RTVSPost2010PropOp30
 70
     1
102
RTVSPost2010Prop31
280
     0
102
RTVSPost2010PropOp31
 70
     1
102
RTVSPost2010Prop32
280
     0
102
RTVSPost2010PropOp32
 70
     1
102
RTVSPost2010Prop33
280
     0
102
RTVSPost2010PropOp33
 70
     1
102
RTVSPost2010Prop34
280
     0
102
RTVSPost2010PropOp34
 70
     1
102
RTVSPost2010Prop35
280
     0
102
RTVSPost2010PropOp35
 70
     1
102
RTVSPost2010Prop36
280
     0
102
RTVSPost2010PropOp36
 70
     1
102
RTVSPost2010Prop37
 90
       50
102
RTVSPost2010PropOp37
 70
     1
102
RTVSPost2010Prop38
140
0.0
102
RTVSPost2010PropOp38
 70
     1
102
RTVSPost2010Prop39
140
1.0
102
RTVSPost2010PropOp39
 70
     1
102
RTVSPost2010Prop40
 90
        0
102
RTVSPost2010PropOp40
 70
     1
102
RTVSPost2010Prop41ColorIndex
 90
       18
102
RTVSPost2010Prop41ColorRGB
 90
        0
102
RTVSPost2010PropOp41
 70
     1
102
RTVSPost2010Prop42
 90
       50
102
RTVSPost2010PropOp42
 70
     1
102
RTVSPost2010Prop43
 90
        3
102
RTVSPost2010PropOp43
 70
     1
102
RTVSPost2010Prop44ColorIndex
 90
        5
102
RTVSPost2010Prop44ColorRGB
 90
      255
102
RTVSPost2010PropOp44
 70
     1
102
RTVSPost2010Prop45
280
     0
102
RTVSPost2010PropOp45
 70
     1
102
RTVSPost2010Prop46
 90
       50
102
RTVSPost2010PropOp46
 70
     1
102
RTVSPost2010Prop47
 90
       50
102
RTVSPost2010PropOp47
 70
     1
102
RTVSPost2010Prop48
 90
       50
102
RTVSPost2010PropOp48
 70
     1
102
RTVSPost2010Prop49
280
     0
102
RTVSPost2010PropOp49
 70
     1
102
RTVSPost2010Prop50
 90
       50
102
RTVSPost2010PropOp50
 70
     1
102
RTVSPost2010Prop51ColorIndex
 90
      256
102
RTVSPost2010Prop51ColorRGB
 90
-16777216
102
RTVSPost2010PropOp51
 70
     0
102
RTVSPost2010Prop52
140
1.0
102
RTVSPost2010PropOp52
 70
     0
102
RTVSPost2010Prop53
 90
        2
102
RTVSPost2010PropOp53
 70
     1
102
RTVSPost2010Prop54
  1
strokes_ogs.tif
102
RTVSPost2010PropOp54
 70
     1
102
RTVSPost2010Prop55
280
     0
102
RTVSPost2010PropOp55
 70
     1
102
RTVSPost2010Prop56
140
1.0
102
RTVSPost2010PropOp56
 70
     1
102
RTVSPost2010Prop57
140
1.0
102
RTVSPost2010PropOp57
 70
     1
  0
XRECORD
  5
13BDE
102
{ACAD_REACTORS
330
13BDD
102
}
330
13BDD
100
AcDbXrecord
280
     1
102
RTVSPost2010Prop28
280
     0
102
RTVSPost2010PropOp28
 70
     1
102
RTVSPost2010Prop29
280
     1
102
RTVSPost2010PropOp29
 70
     1
102
RTVSPost2010Prop30
280
     1
102
RTVSPost2010PropOp30
 70
     1
102
RTVSPost2010Prop31
280
     0
102
RTVSPost2010PropOp31
 70
     1
102
RTVSPost2010Prop32
280
     0
102
RTVSPost2010PropOp32
 70
     1
102
RTVSPost2010Prop33
280
     0
102
RTVSPost2010PropOp33
 70
     1
102
RTVSPost2010Prop34
280
     0
102
RTVSPost2010PropOp34
 70
     1
102
RTVSPost2010Prop35
280
     0
102
RTVSPost2010PropOp35
 70
     1
102
RTVSPost2010Prop36
280
     0
102
RTVSPost2010PropOp36
 70
     1
102
RTVSPost2010Prop37
 90
       50
102
RTVSPost2010PropOp37
 70
     1
102
RTVSPost2010Prop38
140
0.0
102
RTVSPost2010PropOp38
 70
     1
102
RTVSPost2010Prop39
140
1.0
102
RTVSPost2010PropOp39
 70
     1
102
RTVSPost2010Prop40
 90
        0
102
RTVSPost2010PropOp40
 70
     1
102
RTVSPost2010Prop41ColorIndex
 90
       18
102
RTVSPost2010Prop41ColorRGB
 90
        0
102
RTVSPost2010PropOp41
 70
     1
102
RTVSPost2010Prop42
 90
       50
102
RTVSPost2010PropOp42
 70
     1
102
RTVSPost2010Prop43
 90
        3
102
RTVSPost2010PropOp43
 70
     1
102
RTVSPost2010Prop44ColorIndex
 90
        5
102
RTVSPost2010Prop44ColorRGB
 90
      255
102
RTVSPost2010PropOp44
 70
     1
102
RTVSPost2010Prop45
280
     0
102
RTVSPost2010PropOp45
 70
     1
102
RTVSPost2010Prop46
 90
       50
102
RTVSPost2010PropOp46
 70
     1
102
RTVSPost2010Prop47
 90
       50
102
RTVSPost2010PropOp47
 70
     1
102
RTVSPost2010Prop48
 90
       50
102
RTVSPost2010PropOp48
 70
     1
102
RTVSPost2010Prop49
280
     0
102
RTVSPost2010PropOp49
 70
     1
102
RTVSPost2010Prop50
 90
       50
102
RTVSPost2010PropOp50
 70
     1
102
RTVSPost2010Prop51ColorIndex
 90
      256
102
RTVSPost2010Prop51ColorRGB
 90
-16777216
102
RTVSPost2010PropOp51
 70
     0
102
RTVSPost2010Prop52
140
1.0
102
RTVSPost2010PropOp52
 70
     0
102
RTVSPost2010Prop53
 90
        2
102
RTVSPost2010PropOp53
 70
     1
102
RTVSPost2010Prop54
  1
strokes_ogs.tif
102
RTVSPost2010PropOp54
 70
     1
102
RTVSPost2010Prop55
280
     0
102
RTVSPost2010PropOp55
 70
     1
102
RTVSPost2010Prop56
140
1.0
102
RTVSPost2010PropOp56
 70
     1
102
RTVSPost2010Prop57
140
1.0
102
RTVSPost2010PropOp57
 70
     1
  0
XRECORD
  5
13BE0
102
{ACAD_REACTORS
330
13BDF
102
}
330
13BDF
100
AcDbXrecord
280
     1
102
RTVSPost2010Prop28
280
     0
102
RTVSPost2010PropOp28
 70
     1
102
RTVSPost2010Prop29
280
     1
102
RTVSPost2010PropOp29
 70
     1
102
RTVSPost2010Prop30
280
     1
102
RTVSPost2010PropOp30
 70
     1
102
RTVSPost2010Prop31
280
     0
102
RTVSPost2010PropOp31
 70
     1
102
RTVSPost2010Prop32
280
     0
102
RTVSPost2010PropOp32
 70
     1
102
RTVSPost2010Prop33
280
     0
102
RTVSPost2010PropOp33
 70
     1
102
RTVSPost2010Prop34
280
     0
102
RTVSPost2010PropOp34
 70
     1
102
RTVSPost2010Prop35
280
     0
102
RTVSPost2010PropOp35
 70
     1
102
RTVSPost2010Prop36
280
     0
102
RTVSPost2010PropOp36
 70
     1
102
RTVSPost2010Prop37
 90
       50
102
RTVSPost2010PropOp37
 70
     1
102
RTVSPost2010Prop38
140
0.0
102
RTVSPost2010PropOp38
 70
     1
102
RTVSPost2010Prop39
140
1.0
102
RTVSPost2010PropOp39
 70
     1
102
RTVSPost2010Prop40
 90
        0
102
RTVSPost2010PropOp40
 70
     1
102
RTVSPost2010Prop41ColorIndex
 90
       18
102
RTVSPost2010Prop41ColorRGB
 90
        0
102
RTVSPost2010PropOp41
 70
     1
102
RTVSPost2010Prop42
 90
       50
102
RTVSPost2010PropOp42
 70
     1
102
RTVSPost2010Prop43
 90
        3
102
RTVSPost2010PropOp43
 70
     1
102
RTVSPost2010Prop44ColorIndex
 90
        5
102
RTVSPost2010Prop44ColorRGB
 90
      255
102
RTVSPost2010PropOp44
 70
     1
102
RTVSPost2010Prop45
280
     0
102
RTVSPost2010PropOp45
 70
     1
102
RTVSPost2010Prop46
 90
       50
102
RTVSPost2010PropOp46
 70
     1
102
RTVSPost2010Prop47
 90
       50
102
RTVSPost2010PropOp47
 70
     1
102
RTVSPost2010Prop48
 90
       50
102
RTVSPost2010PropOp48
 70
     1
102
RTVSPost2010Prop49
280
     0
102
RTVSPost2010PropOp49
 70
     1
102
RTVSPost2010Prop50
 90
       50
102
RTVSPost2010PropOp50
 70
     1
102
RTVSPost2010Prop51ColorIndex
 90
      256
102
RTVSPost2010Prop51ColorRGB
 90
-16777216
102
RTVSPost2010PropOp51
 70
     0
102
RTVSPost2010Prop52
140
1.0
102
RTVSPost2010PropOp52
 70
     0
102
RTVSPost2010Prop53
 90
        2
102
RTVSPost2010PropOp53
 70
     1
102
RTVSPost2010Prop54
  1
strokes_ogs.tif
102
RTVSPost2010PropOp54
 70
     1
102
RTVSPost2010Prop55
280
     0
102
RTVSPost2010PropOp55
 70
     1
102
RTVSPost2010Prop56
140
1.0
102
RTVSPost2010PropOp56
 70
     1
102
RTVSPost2010Prop57
140
1.0
102
RTVSPost2010PropOp57
 70
     1
  0
XRECORD
  5
13BD6
102
{ACAD_REACTORS
330
13BD5
102
}
330
13BD5
100
AcDbXrecord
280
     1
102
RTVSPost2010Prop28
280
     0
102
RTVSPost2010PropOp28
 70
     1
102
RTVSPost2010Prop29
280
     1
102
RTVSPost2010PropOp29
 70
     1
102
RTVSPost2010Prop30
280
     1
102
RTVSPost2010PropOp30
 70
     1
102
RTVSPost2010Prop31
280
     0
102
RTVSPost2010PropOp31
 70
     1
102
RTVSPost2010Prop32
280
     0
102
RTVSPost2010PropOp32
 70
     1
102
RTVSPost2010Prop33
280
     0
102
RTVSPost2010PropOp33
 70
     1
102
RTVSPost2010Prop34
280
     0
102
RTVSPost2010PropOp34
 70
     1
102
RTVSPost2010Prop35
280
     0
102
RTVSPost2010PropOp35
 70
     1
102
RTVSPost2010Prop36
280
     0
102
RTVSPost2010PropOp36
 70
     1
102
RTVSPost2010Prop37
 90
       50
102
RTVSPost2010PropOp37
 70
     1
102
RTVSPost2010Prop38
140
0.0
102
RTVSPost2010PropOp38
 70
     1
102
RTVSPost2010Prop39
140
1.0
102
RTVSPost2010PropOp39
 70
     1
102
RTVSPost2010Prop40
 90
        0
102
RTVSPost2010PropOp40
 70
     1
102
RTVSPost2010Prop41ColorIndex
 90
       18
102
RTVSPost2010Prop41ColorRGB
 90
        0
102
RTVSPost2010PropOp41
 70
     1
102
RTVSPost2010Prop42
 90
       50
102
RTVSPost2010PropOp42
 70
     1
102
RTVSPost2010Prop43
 90
        3
102
RTVSPost2010PropOp43
 70
     1
102
RTVSPost2010Prop44ColorIndex
 90
        5
102
RTVSPost2010Prop44ColorRGB
 90
      255
102
RTVSPost2010PropOp44
 70
     1
102
RTVSPost2010Prop45
280
     0
102
RTVSPost2010PropOp45
 70
     1
102
RTVSPost2010Prop46
 90
       50
102
RTVSPost2010PropOp46
 70
     1
102
RTVSPost2010Prop47
 90
       50
102
RTVSPost2010PropOp47
 70
     1
102
RTVSPost2010Prop48
 90
       50
102
RTVSPost2010PropOp48
 70
     1
102
RTVSPost2010Prop49
280
     0
102
RTVSPost2010PropOp49
 70
     1
102
RTVSPost2010Prop50
 90
       50
102
RTVSPost2010PropOp50
 70
     1
102
RTVSPost2010Prop51ColorIndex
 90
      256
102
RTVSPost2010Prop51ColorRGB
 90
-16777216
102
RTVSPost2010PropOp51
 70
     0
102
RTVSPost2010Prop52
140
1.0
102
RTVSPost2010PropOp52
 70
     0
102
RTVSPost2010Prop53
 90
        2
102
RTVSPost2010PropOp53
 70
     1
102
RTVSPost2010Prop54
  1
strokes_ogs.tif
102
RTVSPost2010PropOp54
 70
     1
102
RTVSPost2010Prop55
280
     0
102
RTVSPost2010PropOp55
 70
     1
102
RTVSPost2010Prop56
140
1.0
102
RTVSPost2010PropOp56
 70
     1
102
RTVSPost2010Prop57
140
1.0
102
RTVSPost2010PropOp57
 70
     1
  0
XRECORD
  5
13BCA
102
{ACAD_REACTORS
330
13BC9
102
}
330
13BC9
100
AcDbXrecord
280
     1
102
RTVSPost2010Prop28
280
     0
102
RTVSPost2010PropOp28
 70
     1
102
RTVSPost2010Prop29
280
     1
102
RTVSPost2010PropOp29
 70
     1
102
RTVSPost2010Prop30
280
     1
102
RTVSPost2010PropOp30
 70
     1
102
RTVSPost2010Prop31
280
     0
102
RTVSPost2010PropOp31
 70
     1
102
RTVSPost2010Prop32
280
     0
102
RTVSPost2010PropOp32
 70
     1
102
RTVSPost2010Prop33
280
     0
102
RTVSPost2010PropOp33
 70
     1
102
RTVSPost2010Prop34
280
     0
102
RTVSPost2010PropOp34
 70
     1
102
RTVSPost2010Prop35
280
     0
102
RTVSPost2010PropOp35
 70
     1
102
RTVSPost2010Prop36
280
     0
102
RTVSPost2010PropOp36
 70
     1
102
RTVSPost2010Prop37
 90
       50
102
RTVSPost2010PropOp37
 70
     1
102
RTVSPost2010Prop38
140
0.0
102
RTVSPost2010PropOp38
 70
     1
102
RTVSPost2010Prop39
140
1.0
102
RTVSPost2010PropOp39
 70
     1
102
RTVSPost2010Prop40
 90
        0
102
RTVSPost2010PropOp40
 70
     1
102
RTVSPost2010Prop41ColorIndex
 90
       18
102
RTVSPost2010Prop41ColorRGB
 90
        0
102
RTVSPost2010PropOp41
 70
     1
102
RTVSPost2010Prop42
 90
       50
102
RTVSPost2010PropOp42
 70
     1
102
RTVSPost2010Prop43
 90
        3
102
RTVSPost2010PropOp43
 70
     1
102
RTVSPost2010Prop44ColorIndex
 90
        5
102
RTVSPost2010Prop44ColorRGB
 90
      255
102
RTVSPost2010PropOp44
 70
     1
102
RTVSPost2010Prop45
280
     0
102
RTVSPost2010PropOp45
 70
     1
102
RTVSPost2010Prop46
 90
       50
102
RTVSPost2010PropOp46
 70
     1
102
RTVSPost2010Prop47
 90
       50
102
RTVSPost2010PropOp47
 70
     1
102
RTVSPost2010Prop48
 90
       50
102
RTVSPost2010PropOp48
 70
     1
102
RTVSPost2010Prop49
280
     0
102
RTVSPost2010PropOp49
 70
     1
102
RTVSPost2010Prop50
 90
       50
102
RTVSPost2010PropOp50
 70
     1
102
RTVSPost2010Prop51ColorIndex
 90
      256
102
RTVSPost2010Prop51ColorRGB
 90
-16777216
102
RTVSPost2010PropOp51
 70
     0
102
RTVSPost2010Prop52
140
1.0
102
RTVSPost2010PropOp52
 70
     0
102
RTVSPost2010Prop53
 90
        2
102
RTVSPost2010PropOp53
 70
     1
102
RTVSPost2010Prop54
  1
strokes_ogs.tif
102
RTVSPost2010PropOp54
 70
     1
102
RTVSPost2010Prop55
280
     0
102
RTVSPost2010PropOp55
 70
     1
102
RTVSPost2010Prop56
140
1.0
102
RTVSPost2010PropOp56
 70
     1
102
RTVSPost2010Prop57
140
1.0
102
RTVSPost2010PropOp57
 70
     1
  0
XRECORD
  5
13BE2
102
{ACAD_REACTORS
330
13BE1
102
}
330
13BE1
100
AcDbXrecord
280
     1
102
RTVSPost2010Prop28
280
     0
102
RTVSPost2010PropOp28
 70
     1
102
RTVSPost2010Prop29
280
     1
102
RTVSPost2010PropOp29
 70
     1
102
RTVSPost2010Prop30
280
     1
102
RTVSPost2010PropOp30
 70
     1
102
RTVSPost2010Prop31
280
     0
102
RTVSPost2010PropOp31
 70
     1
102
RTVSPost2010Prop32
280
     0
102
RTVSPost2010PropOp32
 70
     1
102
RTVSPost2010Prop33
280
     0
102
RTVSPost2010PropOp33
 70
     1
102
RTVSPost2010Prop34
280
     0
102
RTVSPost2010PropOp34
 70
     1
102
RTVSPost2010Prop35
280
     0
102
RTVSPost2010PropOp35
 70
     1
102
RTVSPost2010Prop36
280
     0
102
RTVSPost2010PropOp36
 70
     1
102
RTVSPost2010Prop37
 90
       50
102
RTVSPost2010PropOp37
 70
     1
102
RTVSPost2010Prop38
140
0.0
102
RTVSPost2010PropOp38
 70
     1
102
RTVSPost2010Prop39
140
1.0
102
RTVSPost2010PropOp39
 70
     1
102
RTVSPost2010Prop40
 90
        0
102
RTVSPost2010PropOp40
 70
     1
102
RTVSPost2010Prop41ColorIndex
 90
       18
102
RTVSPost2010Prop41ColorRGB
 90
        0
102
RTVSPost2010PropOp41
 70
     1
102
RTVSPost2010Prop42
 90
       50
102
RTVSPost2010PropOp42
 70
     1
102
RTVSPost2010Prop43
 90
        3
102
RTVSPost2010PropOp43
 70
     1
102
RTVSPost2010Prop44ColorIndex
 90
        5
102
RTVSPost2010Prop44ColorRGB
 90
      255
102
RTVSPost2010PropOp44
 70
     1
102
RTVSPost2010Prop45
280
     0
102
RTVSPost2010PropOp45
 70
     1
102
RTVSPost2010Prop46
 90
       50
102
RTVSPost2010PropOp46
 70
     1
102
RTVSPost2010Prop47
 90
       50
102
RTVSPost2010PropOp47
 70
     1
102
RTVSPost2010Prop48
 90
       50
102
RTVSPost2010PropOp48
 70
     1
102
RTVSPost2010Prop49
280
     0
102
RTVSPost2010PropOp49
 70
     1
102
RTVSPost2010Prop50
 90
       50
102
RTVSPost2010PropOp50
 70
     1
102
RTVSPost2010Prop51ColorIndex
 90
      256
102
RTVSPost2010Prop51ColorRGB
 90
-16777216
102
RTVSPost2010PropOp51
 70
     0
102
RTVSPost2010Prop52
140
1.0
102
RTVSPost2010PropOp52
 70
     0
102
RTVSPost2010Prop53
 90
        2
102
RTVSPost2010PropOp53
 70
     1
102
RTVSPost2010Prop54
  1
strokes_ogs.tif
102
RTVSPost2010PropOp54
 70
     1
102
RTVSPost2010Prop55
280
     0
102
RTVSPost2010PropOp55
 70
     1
102
RTVSPost2010Prop56
140
1.0
102
RTVSPost2010PropOp56
 70
     1
102
RTVSPost2010Prop57
140
1.0
102
RTVSPost2010PropOp57
 70
     1
  0
ENDSEC
  0
EOF
